<?xml version="1.0" standalone="no"?>
<!DOCTYPE svg PUBLIC "-//W3C//DTD SVG 1.1//EN" "http://www.w3.org/Graphics/SVG/1.1/DTD/svg11.dtd" >
<svg xmlns="http://www.w3.org/2000/svg">
<metadata>
Generated by SVGconv.
Copyright   : Copyright  2010 ParaType Ltd. All rights reserved.
Designer    : A.Korolkova, O.Umpeleva, V.Yefimov
Foundry     : ParaType Ltd
Foundry URL : http://www.paratype.com
</metadata>
<defs>
<font id="PTSerif-Italic" horiz-adv-x="553" >
<font-face units-per-em="1000" ascent="1039" descent="286" />
<missing-glyph horiz-adv-x="709" />
<glyph unicode="&#32;" horiz-adv-x="243" />
<glyph unicode="&#33;" horiz-adv-x="327" d="M146 218l4 176l60 296q24 11 50 11q26 0 46 -11l-66 -296l-68 -176zM68 57q0 30 19 48q19 18 49 18q31 0 50 -18q19 -18 19 -48q0 -29 -19 -47q-19 -18 -50 -18q-30 0 -49 18t-19 47z" />
<glyph unicode="&#34;" horiz-adv-x="341" d="M209 670q8 13 20 21.5q12 8.5 29 8.5q31 0 36 -30l-64 -166h-20zM89 670q8 13 20 21.5q12 8.5 29 8.5q31 0 36 -30l-64 -166l-20 0z" />
<glyph unicode="&#35;" horiz-adv-x="524" d="M307 233h-143l-78 -175h-53l79 175h-81l25 46h76l68 150h-77l24 46h73l76 167h52l-75 -167h142l76 167h52l-76 -167h80l-27 -46h-73l-68 -150h77l-28 -46h-69l-79 -175h-52zM185 279h142l68 150l-142 0z" />
<glyph unicode="&#36;" horiz-adv-x="524" d="M188 -12q-26 1 -52.5 7q-26.5 6 -49.5 14.5q-23 8.5 -41.5 17.5q-18.5 9 -27.5 17q8 33 19.5 63q11.5 30 23.5 50l26 0l40 -97q19 -19 73 -20l61 281q-26 17 -51 34.5q-25 17.5 -44.5 40q-19.5 22.5 -32 51q-12.5 28.5 -12.5 67.5q0 36 14 70.5q14 34.5 41.5 61.5q27.5 27 69 44.5q41.5 17.5 96.5 20.5l11 49h52l-11 -49q49 -2 84 -11q35 -9 60 -21q-9 -33 -25 -55.5q-16 -22.5 -31 -37.5l-26 0l-36 68q-8 1 -17 2q-9 1 -19 3l-54 -257q24 -16 48.5 -33.5q24.5 -17.5 44 -41.5q19.5 -24 31.5 -56q12 -32 12 -75q0 -39 -15.5 -74q-15.5 -35 -44.5 -62.5q-29 -27.5 -71 -46q-42 -18.5 -94 -23.5l-12 -60h-52zM213 543q0 -41 20 -66.5q20 -25.5 50 -45.5l49 228q-54 -4 -86.5 -34q-32.5 -30 -32.5 -82zt0 0zM371 167q0 42 -19.5 71q-19.5 29 -48.5 52l-53 -247q24 4 45.5 14q21.5 10 38.5 25.5q17 15.5 27 36.5t10 48z" />
<glyph unicode="&#37;" horiz-adv-x="782" d="M706 710l35 -31l-665 -686l-34 32zM63 500q0 46 18 85q18 39 48 67q30 28 69 44q39 16 81 16q69 0 106 -36q37 -36 37 -93q0 -52 -19.5 -91.5q-19.5 -39.5 -50 -66q-30.5 -26.5 -69 -40q-38.5 -13.5 -76.5 -13.5q-30 0 -56.5 9.5q-26.5 9.5 -46 26.5q-19.5 17 -30.5 40.5q-11 23.5 -11 51.5zt0 0zM146 499q0 -18 3.5 -34q3.5 -16 12 -28.5q8.5 -12.5 21.5 -20q13 -7.5 31 -7.5q22 0 44.5 11q22.5 11 40.5 34q18 23 29 58q11 35 11 83q0 15 -3.5 29q-3.5 14 -11.5 25.5q-8 11.5 -21 18q-13 6.5 -33 6.5q-22 0 -44 -13.5q-22 -13.5 -40 -36.5q-18 -23 -29 -55.5q-11 -32.5 -11 -69.5zt0 0zM354 116q0 46 18 85q18 39 48 67q30 28 69 44q39 16 81 16q69 0 106 -36q37 -36 37 -93q0 -52 -19.5 -91.5q-19.5 -39.5 -50 -66q-30.5 -26.5 -69 -40q-38.5 -13.5 -76.5 -13.5q-30 0 -56.5 9.5q-26.5 9.5 -46 26.5q-19.5 17 -30.5 40.5q-11 23.5 -11 51.5zt0 0zM437 115q0 -18 3.5 -34q3.5 -16 12 -28.5q8.5 -12.5 21.5 -20q13 -7.5 31 -7.5q22 0 44.5 11q22.5 11 40.5 34q18 23 29 58q11 35 11 83q0 15 -3.5 29q-3.5 14 -11.5 25.5q-8 11.5 -21 18q-13 6.5 -33 6.5q-22 0 -44 -13.5q-22 -13.5 -40 -36.5q-18 -23 -29 -55.5t-11 -69.5z" />
<glyph unicode="&#38;" horiz-adv-x="872" d="M480 123q-25 27 -52.5 63.5q-27.5 36.5 -53 74.5q-25.5 38 -46 73q-20.5 35 -30.5 58q-53 -42 -88 -95.5q-35 -53.5 -36 -126.5q1 -57 37 -93.5q36 -36.5 99 -36.5q45 0 88 20.5q43 20.5 82 62.5zt0 0zM317 564q0 -34 14 -69q14 -35 34 -64q21 15 40.5 33q19.5 18 35.5 38.5q16 20.5 25.5 43.5q9.5 23 9.5 49q0 35 -14 55q-14 20 -48 19q-22 1 -40 -8q-18 -9 -30.5 -23.5q-12.5 -14.5 -19.5 -33.5q-7 -19 -7 -40zt0 0zM611 0q-19 14 -46.5 34.5q-27.5 20.5 -57.5 57.5q-18 -19 -43 -37.5q-25 -18.5 -56.5 -33.5q-31.5 -15 -68.5 -24q-37 -9 -77 -9q-49 0 -85.5 13q-36.5 13 -61 35.5q-24.5 22.5 -36.5 52q-12 29.5 -12 62.5q0 51 25 94.5q25 43.5 59.5 79q34.5 35.5 70 60.5q35.5 25 57.5 38q-22 32 -30 65q-8 33 -8 68q0 32 15 60.5q15 28.5 40 49.5q25 21 58 33.5q33 12.5 69 12.5q127 0 127 -101q0 -34 -16.5 -64q-16.5 -30 -42 -55.5q-25.5 -25.5 -55.5 -47q-30 -21.5 -56 -38.5q30 -51 72.5 -105q42.5 -54 90.5 -108q10 11 28 37q18 26 36 61q18 35 33.5 76.5q15.5 41.5 21.5 82.5q-32 6 -54 24l5 26h203l-6 -26q-32 -17 -71 -24q-22 -59 -46 -107q-24 -48 -46.5 -84.5q-22.5 -36.5 -41.5 -62q-19 -25.5 -30 -37.5q32 -31 62.5 -57.5q30.5 -26.5 70.5 -52.5l51 -24l-6 -25z" />
<glyph unicode="&#39;" horiz-adv-x="221" d="M89 670q8 13 20 21.5q12 8.5 29 8.5q31 0 36 -30l-64 -166l-20 0z" />
<glyph unicode="&#40;" horiz-adv-x="343" d="M220 -210q-86 74 -122.5 154.5q-36.5 80.5 -36.5 172.5q0 112 33.5 203q33.5 91 85 163q51.5 72 114.5 126.5q63 54.5 123 92.5l17 -18q-49 -42 -100 -99q-51 -57 -93 -126.5q-42 -69.5 -68.5 -152.5q-26.5 -83 -25.5 -177q-1 -90 21 -168.5q22 -78.5 81 -150.5z" />
<glyph unicode="&#41;" horiz-adv-x="343" d="M-80 -190q44 36 94.5 92q50.5 56 93 128.5q42.5 72.5 71 160.5q28.5 88 28.5 188q0 43 -4.5 80q-4.5 37 -16 73q-11.5 36 -31.5 73q-20 37 -51 79l26 18q86 -78 123.5 -158.5q37.5 -80.5 37.5 -174.5q0 -104 -31 -193.5q-31 -89.5 -81 -162.5q-50 -73 -112.5 -129.5q-62.5 -56.5 -126.5 -93.5z" />
<glyph unicode="&#42;" horiz-adv-x="465" d="M145 616q-3 7 -1 17.5q2 10.5 8 21q6 10.5 14.5 18.5q8.5 8 17.5 10l100 -87q0 -19 -14 -26zM183 444q-8 1 -16 8.5q-8 7.5 -14 18q-6 10.5 -9 21.5q-3 11 0 19l125 43q15 -9 15 -24zM354 389q-5 -7 -15 -9.5q-10 -2.5 -22 -2.5q-12 0 -23 2.5q-11 2.5 -16 8.5l23 130q16 8 32 0zM485 511q4 -7 1.5 -18q-2.5 -11 -8.5 -21.5q-6 -10.5 -14 -18.5q-8 -8 -17 -9l-98 84q0 16 13 25zM448 683q8 -1 16 -8.5q8 -7.5 14 -18q6 -10.5 8.5 -21.5q2.5 -11 -0.5 -20l-124 -47q-14 10 -14 26zM277 737q4 7 14.5 10q10.5 3 22.5 3q12 0 23 -3q11 -3 16 -10l-22 -130q-15 -10 -31 0z" />
<glyph unicode="&#43;" horiz-adv-x="524" d="M37 370h198v210h53v-210h199v-53h-199v-215h-53v215l-198 0z" />
<glyph unicode="&#44;" horiz-adv-x="283" d="M-36 -149q21 7 41 21.5q20 14.5 36.5 32.5q16.5 18 27 39.5q10.5 21.5 13.5 42.5q-10 11 -27.5 22q-17.5 11 -31.5 16q-1 19 7 37q8 18 20 32q12 14 25.5 22.5q13.5 8.5 24.5 9.5q34 -5 51 -24q17 -19 17 -57q0 -38 -16.5 -74q-16.5 -36 -43 -66q-26.5 -30 -61 -52q-34.5 -22 -70.5 -32z" />
<glyph unicode="&#45;" horiz-adv-x="425" d="M85 313h282l-13 -63l-283 0z" />
<glyph unicode="&#46;" horiz-adv-x="271" d="M29 57q0 30 19 48q19 18 49 18q31 0 50 -18q19 -18 19 -48q0 -29 -19 -47q-19 -18 -50 -18q-30 0 -49 18t-19 47z" />
<glyph unicode="&#47;" horiz-adv-x="344" d="M327 712l42 -18l-365 -824l-41 19z" />
<glyph unicode="&#48;" horiz-adv-x="524" d="M19 203q0 59 9 120q9 61 26.5 117.5q17.5 56.5 44 106q26.5 49.5 62 86.5q35.5 37 80 58q44.5 21 97.5 21q59 0 95.5 -21.5q36.5 -21.5 57 -54q20.5 -32.5 27.5 -69.5q7 -37 7 -68q0 -89 -20 -179.5q-20 -90.5 -59.5 -164.5q-39.5 -74 -99.5 -120.5q-60 -46.5 -140 -46.5q-59 0 -96 21.5q-37 21.5 -57 54q-20 32.5 -27 70q-7 37.5 -7 69.5zt0 0zM115 199q0 -29 4.5 -59q4.5 -30 15.5 -54.5q11 -24.5 30 -40.5q19 -16 48 -16q54 0 94.5 43q40.5 43 67.5 111.5q27 68.5 40.5 152q13.5 83.5 13.5 164.5q0 30 -4.5 60q-4.5 30 -15.5 54.5q-11 24.5 -30 40q-19 15.5 -48 16.5q-55 -1 -95.5 -45.5q-40.5 -44.5 -67.5 -113.5q-27 -69 -40 -152t-13 -161z" />
<glyph unicode="&#49;" horiz-adv-x="524" d="M378 0h-292l6 29q27 12 54.5 20q27.5 8 55.5 14l104 491l19 59q-29 -11 -62 -15.5q-33 -4.5 -65 -3.5l0 24q49 15 103 37q54 22 103 57l25 0l-137 -649q49 -11 92 -34z" />
<glyph unicode="&#50;" horiz-adv-x="524" d="M182 505h-25q-5 29 -8.5 68q-3.5 39 -2.5 74q42 29 88 47q46 18 103 18q50 0 83.5 -11q33.5 -11 54 -30.5q20.5 -19.5 29.5 -45q9 -25.5 9 -54.5q0 -58 -34.5 -119.5q-34.5 -61.5 -87 -121q-52.5 -59.5 -114.5 -114q-62 -54.5 -116 -97.5l-50 -39v-4l56 6h172l73 112h25q-1 -24 -4 -50.5q-3 -26.5 -7.5 -52.5q-4.5 -26 -9.5 -49.5q-5 -23.5 -9 -41.5l-413 0l7 32q30 24 72 60q42 36 88.5 79.5q46.5 43.5 92.5 93.5q46 50 82.5 101.5q36.5 51.5 59.5 103.5q23 52 23 100q0 40 -24.5 65q-24.5 25 -72.5 25q-42 0 -76 -12z" />
<glyph unicode="&#51;" horiz-adv-x="524" d="M204 35q41 0 73 16.5q32 16.5 53.5 43.5q21.5 27 32.5 61.5q11 34.5 10 70.5q1 61 -32.5 86.5q-33.5 25.5 -94.5 25.5h-60l1 25l212 227l45 35v4l-54 -6h-162l-61 -102h-25q1 43 4.5 92.5q3.5 49.5 11.5 85.5l386 0l-1 -31l-206 -223l-59 -44v-2l35 7q81 -7 118.5 -48q37.5 -41 37.5 -114q0 -51 -16.5 -98q-16.5 -47 -51.5 -82q-35 -35 -90 -56q-55 -21 -133 -21q-23 0 -48.5 3.5q-25.5 3.5 -49 10.5q-23.5 7 -43 16q-19.5 9 -31.5 21l46 90h20q5 -7 13 -18q8 -11 17 -23q9 -12 17.5 -24q8.5 -12 14.5 -21q10 -2 27 -5t43 -3z" />
<glyph unicode="&#52;" horiz-adv-x="524" d="M415 0h-259l5 29q26 8 50 14q24 6 48 10l29 140h-305l5 23l475 496h27l-99 -467h128l-12 -52h-127l-30 -140q17 -4 35 -10q18 -6 35 -14zM354 502l29 72h-3l-53 -72l-217 -231l-47 -33l73 7l164 0z" />
<glyph unicode="&#53;" horiz-adv-x="524" d="M541 755h25q-3 -15 -8.5 -33.5q-5.5 -18.5 -12 -37q-6.5 -18.5 -14 -35.5q-7.5 -17 -13.5 -28l-247 0l-64 -193h49q96 0 148.5 -43q52.5 -43 52.5 -126q0 -60 -20 -110q-20 -50 -56.5 -86q-36.5 -36 -88 -55.5q-51.5 -19.5 -115.5 -19.5q-24 0 -47.5 3.5q-23.5 3.5 -45.5 10.5q-22 7 -39.5 16.5q-17.5 9.5 -29.5 20.5l47 90h20q5 -7 11.5 -18q6.5 -11 13.5 -23q7 -12 14 -24q7 -12 13 -21q10 -2 22 -5q12 -3 30 -3q48 0 83 16.5q35 16.5 57.5 44.5q22.5 28 33.5 64q11 36 11 74q0 66 -43.5 94q-43.5 28 -121.5 26l-71 -1l113 347l239 0z" />
<glyph unicode="&#54;" horiz-adv-x="524" d="M500 264q0 -47 -16.5 -96q-16.5 -49 -50.5 -89q-34 -40 -86 -65.5q-52 -25.5 -123 -25.5q-35 0 -68.5 9.5q-33.5 9.5 -59.5 32.5q-26 23 -41.5 60q-15.5 37 -15.5 93q0 81 33 164.5q33 83.5 95 157q62 73.5 150.5 130q88.5 56.5 199.5 83.5l4 -30q-132 -48 -221.5 -132.5q-89.5 -84.5 -134.5 -211.5q24 29 68.5 50.5q44.5 21.5 98.5 21.5q87 0 127.5 -42q40.5 -42 40.5 -110zt0 0zM404 255q0 53 -24.5 81q-24.5 28 -84.5 28q-45 0 -83 -23q-38 -23 -61 -53q-3 -8 -6 -21.5q-3 -13.5 -5 -27.5q-2 -14 -3.5 -27.5q-1.5 -13.5 -1.5 -20.5q0 -31 4.5 -59.5q4.5 -28.5 16.5 -50q12 -21.5 32.5 -34.5q20.5 -13 51.5 -13q43 0 74 22.5q31 22.5 51 56q20 33.5 29.5 72t9.5 70.5z" />
<glyph unicode="&#55;" horiz-adv-x="524" d="M129 521h-25q2 43 6 93q4 50 11 86l414 0v-29q-71 -86 -124 -166.5q-53 -80.5 -95 -161.5q-42 -81 -76 -165.5q-34 -84.5 -67 -177.5l-100 0q62 143 144 288.5q82 145.5 193 291.5l40 48l-53 -5l-207 0z" />
<glyph unicode="&#56;" horiz-adv-x="524" d="M12 136q0 74 52.5 130q52.5 56 152.5 85q-49 35 -73.5 73q-24.5 38 -24.5 87q0 42 15.5 79q15.5 37 44.5 64q29 27 71 42.5q42 15.5 95 15.5q85 0 126 -37q41 -37 41 -99q0 -30 -12.5 -59q-12.5 -29 -35.5 -55q-23 -26 -56 -47q-33 -21 -73 -35q28 -19 50 -37.5q22 -18.5 37.5 -40q15.5 -21.5 24 -47.5q8.5 -26 8.5 -60q0 -38 -16 -75.5q-16 -37.5 -48 -66.5q-32 -29 -80.5 -47q-48.5 -18 -112.5 -18q-88 0 -137 40.5q-49 40.5 -49 107.5zt0 0zM369 180q0 26 -10 47q-10 21 -27 39.5q-17 18.5 -41 35.5q-24 17 -52 34q-44 -23 -71.5 -49q-27.5 -26 -43 -52q-15.5 -26 -21 -50.5q-5.5 -24.5 -5.5 -43.5q0 -48 30 -77.5q30 -29.5 81 -29.5q43 0 73.5 13.5q30.5 13.5 49.5 34.5q19 21 28 47q9 26 9 51zt0 0zM205 528q0 -20 9.5 -39q9.5 -19 24.5 -36.5q15 -17.5 34.5 -32.5q19.5 -15 40.5 -27q60 45 86.5 90q26.5 45 25.5 87q1 40 -21 67.5q-22 27.5 -75 27.5q-30 0 -53.5 -11q-23.5 -11 -39.5 -30q-16 -19 -24 -44t-8 -52z" />
<glyph unicode="&#57;" horiz-adv-x="524" d="M61 442q0 47 16.5 96q16.5 49 50.5 89q34 40 85.5 65.5q51.5 25.5 122.5 25.5q35 0 68.5 -9.5q33.5 -9.5 59.5 -32.5q26 -23 42 -60.5q16 -37.5 16 -92.5q0 -81 -33 -164.5q-33 -83.5 -95.5 -157q-62.5 -73.5 -151 -130q-88.5 -56.5 -199.5 -83.5l-4 29q133 48 222 132.5q89 84.5 134 211.5q-24 -29 -68 -50.5q-44 -21.5 -98 -21.5q-88 0 -128 42q-40 42 -40 111zt0 0zM157 451q0 -53 24 -81.5q24 -28.5 84 -28.5q45 0 83 23.5q38 23.5 61 53.5q3 8 6 21.5q3 13.5 5.5 27.5q2.5 14 4 27q1.5 13 1.5 21q0 31 -5 59.5q-5 28.5 -17 50q-12 21.5 -32.5 34q-20.5 12.5 -51.5 12.5q-43 0 -74 -22.5q-31 -22.5 -50.5 -55.5q-19.5 -33 -29 -71.5t-9.5 -70.5z" />
<glyph unicode="&#58;" horiz-adv-x="323" d="M126 442q0 30 19 48q19 18 49 18q31 0 50 -18q19 -18 19 -48q0 -29 -19 -47q-19 -18 -50 -18q-30 0 -49 18q-19 18 -19 47zt0 0zM76 57q0 30 19 48q19 18 49 18q31 0 50 -18q19 -18 19 -48q0 -29 -19 -47q-19 -18 -50 -18q-30 0 -49 18t-19 47z" />
<glyph unicode="&#59;" horiz-adv-x="312" d="M121 442q0 30 19 48q19 18 49 18q31 0 50 -18q19 -18 19 -48q0 -29 -19 -47q-19 -18 -50 -18q-30 0 -49 18q-19 18 -19 47zt0 0zM-3 -149q21 7 41 21.5q20 14.5 36.5 32.5q16.5 18 27 39.5q10.5 21.5 13.5 42.5q-10 11 -27.5 22q-17.5 11 -31.5 16q-1 19 7 37q8 18 20 32q12 14 25.5 22.5q13.5 8.5 24.5 9.5q34 -5 51 -24q17 -19 17 -57q0 -38 -16.5 -74q-16.5 -36 -43 -66q-26.5 -30 -61 -52q-34.5 -22 -70.5 -32z" />
<glyph unicode="&#60;" horiz-adv-x="524" d="M44 324v31l385 235l25 -44l-250 -151l-86 -40l85 -31l265 -156l-40 -65z" />
<glyph unicode="&#61;" horiz-adv-x="524" d="M12 450h450v-53h-450zM12 289h450v-53l-450 0z" />
<glyph unicode="&#62;" horiz-adv-x="524" d="M480 369v-31l-385 -235l-24 44l250 151l85 40l-84 31l-266 156l40 65z" />
<glyph unicode="&#63;" horiz-adv-x="494" d="M194 519h-25q-2 14 -4.5 32q-2.5 18 -4.5 38q-2 20 -2 40.5q0 20.5 2 40.5q43 23 86.5 32.5q43.5 9.5 94.5 9.5q80 0 123 -35.5q43 -35.5 43 -98.5q0 -50 -21 -86.5q-21 -36.5 -53 -66q-32 -29.5 -70 -55q-38 -25.5 -72 -53q-34 -27.5 -59 -60.5q-25 -33 -30 -77l-20 0q-4 52 11.5 91q15.5 39 40.5 70.5q25 31.5 56 58q31 26.5 57.5 53q26.5 26.5 44.5 55q18 28.5 19 65.5q-1 45 -26.5 66q-25.5 21 -66.5 21q-32 0 -53.5 -5q-21.5 -5 -31.5 -13zM118 57q0 30 19 48q19 18 49 18q31 0 50 -18q19 -18 19 -48q0 -29 -19 -47q-19 -18 -50 -18q-30 0 -49 18t-19 47z" />
<glyph unicode="&#64;" horiz-adv-x="1007" d="M655 474q37 17 75 16l-51 -286q-6 -33 -8.5 -60q-2.5 -27 0 -46.5q2.5 -19.5 11 -30q8.5 -10.5 25.5 -10.5q33 0 68 18.5q35 18.5 64.5 53.5q29.5 35 48 85q18.5 50 18.5 112q0 76 -28.5 138q-28.5 62 -79 105.5q-50.5 43.5 -118 67q-67.5 23.5 -144.5 23.5q-92 0 -165.5 -32.5q-73.5 -32.5 -125.5 -89q-52 -56.5 -80 -133q-28 -76.5 -28 -163.5q0 -89 29 -157.5q29 -68.5 81.5 -116q52.5 -47.5 125 -72q72.5 -24.5 159.5 -24.5q29 0 66 7q37 7 67 21l16 -44q-35 -20 -77 -28q-42 -8 -93 -8q-86 0 -164 26q-78 26 -137.5 78q-59.5 52 -94.5 130q-35 78 -35 182q0 109 36 197q36 88 98.5 150q62.5 62 146.5 95.5q84 33.5 180 33.5q90 0 167.5 -26.5q77.5 -26.5 134.5 -76q57 -49.5 88.5 -121q31.5 -71.5 31.5 -162.5q0 -65 -22 -123q-22 -58 -60.5 -102q-38.5 -44 -88.5 -70q-50 -26 -105 -26q-30 0 -51 9.5q-21 9.5 -32 31q-11 21.5 -11.5 55.5q-0.5 34 10.5 82l-4 0q-11 -32 -30.5 -63.5q-19.5 -31.5 -44.5 -57q-25 -25.5 -53.5 -41.5q-28.5 -16 -57.5 -16q-60 0 -92.5 41.5q-32.5 41.5 -32.5 110.5q0 64 21.5 125q21.5 61 58 109q36.5 48 84.5 77q48 29 101 29q36 0 57 -6q21 -6 45 -17zt0 0zM638 426q-16 10 -32.5 15q-16.5 5 -42.5 4q-38 1 -72 -25.5q-34 -26.5 -59 -67.5q-25 -41 -39.5 -89.5q-14.5 -48.5 -14.5 -93.5q0 -48 15 -75q15 -27 57 -27q19 0 41 18.5q22 18.5 43.5 48.5q21.5 30 42 67.5q20.5 37.5 36.5 75.5z" />
<glyph unicode="&#65;" horiz-adv-x="674" d="M176 0h-225l6 29q39 16 78 24l395 659h26l113 -659q18 -4 36.5 -9.5q18.5 -5.5 33.5 -14.5l-5 -29h-254l5 29q45 17 88 24l-30 183h-235l-107 -183q43 -6 80 -24zM237 288h198l-32 212l-2 86h-2l-40 -88z" />
<glyph unicode="&#66;" horiz-adv-x="605" d="M-20 0l5 29q45 19 88 24l125 593q-20 4 -39 10.5q-19 6.5 -38 14.5l7 29h106q37 0 74 3q37 3 93 3q40 0 76 -7q36 -7 63 -22q27 -15 43 -39.5q16 -24.5 16 -60.5q0 -35 -10.5 -66.5q-10.5 -31.5 -32.5 -58q-22 -26.5 -55.5 -46.5q-33.5 -20 -78.5 -32l0 -4q23 -2 47 -10q24 -8 43.5 -23.5q19.5 -15.5 31.5 -39q12 -23.5 12 -55.5q0 -53 -20 -98q-20 -45 -59.5 -78.5q-39.5 -33.5 -99.5 -52.5q-60 -19 -140 -19q-35 0 -77.5 3q-42.5 3 -83.5 3zM256 46q41 -1 78 11q37 12 65 35q28 23 44.5 56.5q16.5 33.5 16.5 76.5q0 33 -11.5 54q-11.5 21 -33 32q-21.5 11 -51.5 15q-30 4 -67 4h-76l-58 -276q13 -4 32 -6.5q19 -2.5 61 -1.5zt0 0zM282 382q17 0 40.5 1.5q23.5 1.5 40.5 3.5q79 28 109.5 75.5q30.5 47.5 30.5 103.5q0 39 -28 63.5q-28 24.5 -94 24.5q-32 0 -54.5 -1.5q-22.5 -1.5 -37.5 -3.5l-57 -267z" />
<glyph unicode="&#67;" horiz-adv-x="635" d="M557 182h25q0 -28 -5.5 -70.5q-5.5 -42.5 -16.5 -82.5q-20 -11 -43 -19q-23 -8 -48 -13q-25 -5 -49 -7q-24 -2 -45 -2q-85 0 -144 24q-59 24 -95.5 63q-36.5 39 -53 87q-16.5 48 -16.5 96q0 102 29 185.5q29 83.5 82.5 143q53.5 59.5 130 92.5q76.5 33 172.5 33q66 0 112 -9q46 -9 77 -25q-3 -16 -8.5 -37.5q-5.5 -21.5 -13 -45.5q-7.5 -24 -15.5 -47q-8 -23 -15 -42l-26 0l-21 144q-13 5 -39.5 7.5q-26.5 2.5 -51.5 2.5q-66 0 -122 -25.5q-56 -25.5 -97 -75.5q-41 -50 -64 -125q-23 -75 -23 -174q0 -62 21.5 -104.5q21.5 -42.5 54 -68.5q32.5 -26 70.5 -37q38 -11 72 -10q34 -1 57.5 5q23.5 6 34.5 13z" />
<glyph unicode="&#68;" horiz-adv-x="702" d="M-20 0l5 29q41 17 88 24l125 593q-22 5 -41.5 11.5q-19.5 6.5 -35.5 13.5l7 29h101q17 0 40.5 1q23.5 1 48 2.5q24.5 1.5 47.5 3q23 1.5 38 1.5q80 0 136 -19q56 -19 90.5 -51.5q34.5 -32.5 50 -77q15.5 -44.5 15.5 -95.5q0 -51 -8.5 -106.5q-8.5 -55.5 -28.5 -108q-20 -52.5 -53.5 -99.5q-33.5 -47 -84 -82.5q-50.5 -35.5 -119.5 -56.5q-69 -21 -159 -21q-15 0 -35.5 1.5q-20.5 1.5 -43.5 3q-23 1.5 -46 3q-23 1.5 -42 1.5zM383 656q-26 0 -53 -1q-27 -1 -41 -3l-128 -606q10 -1 24.5 -1.5q14.5 -0.5 29 -1q14.5 -0.5 26 -1q11.5 -0.5 17.5 0.5q94 -1 157.5 37q63.5 38 102 99.5q38.5 61.5 54.5 138q16 76.5 16 153.5q0 39 -9 73q-9 34 -32 58.5q-23 24.5 -62.5 39t-101.5 14.5z" />
<glyph unicode="&#69;" horiz-adv-x="572" d="M601 700q-8 -40 -19 -81q-11 -41 -26 -81l-26 0l-17 110h-219l-55 -265h162l55 74h25q-8 -50 -18.5 -100.5q-10.5 -50.5 -24.5 -101.5l-25 0l-23 76h-163l-58 -279h229l75 120h25q-2 -39 -8 -83.5q-6 -44.5 -17 -88.5l-493 0l5 29q41 17 88 24l125 593q-20 5 -39 11q-19 6 -38 14l7 29z" />
<glyph unicode="&#70;" horiz-adv-x="535" d="M159 53q42 -6 80 -24l-5 -29h-254l5 29q18 8 38 14q20 6 40 10l125 593q-20 6 -37 12q-17 6 -30 13l7 29h469q-9 -39 -20 -80q-11 -41 -26 -82l-26 0l-17 110h-224l-60 -285h175l54 74h25q-5 -45 -16.5 -100.5q-11.5 -55.5 -25.5 -101.5l-25 0l-22 77l-176 0z" />
<glyph unicode="&#71;" horiz-adv-x="679" d="M571 48q-22 -13 -50 -24q-28 -11 -57.5 -19q-29.5 -8 -59 -12.5q-29.5 -4.5 -54.5 -4.5q-133 0 -208.5 70.5q-75.5 70.5 -75.5 200.5q0 101 28.5 184.5q28.5 83.5 82.5 143q54 59.5 131.5 92.5q77.5 33 175.5 33q66 0 113 -8.5q47 -8.5 78 -25.5q-3 -15 -8.5 -37q-5.5 -22 -13 -46q-7.5 -24 -15.5 -47.5q-8 -23.5 -15 -41.5l-26 0l-21 144q-18 5 -45 7.5q-27 2.5 -52 2.5q-77 0 -134.5 -31.5q-57.5 -31.5 -95.5 -85.5q-38 -54 -57 -126.5q-19 -72.5 -19 -155.5q0 -71 20 -114.5q20 -43.5 49.5 -67.5q29.5 -24 63 -32q33.5 -8 61.5 -7q40 -1 74 12q34 13 47 23l44 202q-26 2 -48 9q-22 7 -43 15l7 29h245l-6 -29q-11 -7 -27 -13q-16 -6 -41 -11z" />
<glyph unicode="&#72;" horiz-adv-x="719" d="M233 0h-253l5 29q22 10 44 15.5q22 5.5 44 8.5l125 593q-45 9 -77 25l7 29h253l-6 -29q-17 -9 -39 -15q-22 -6 -42 -10l-55 -261h314l56 261q-20 5 -37.5 10.5q-17.5 5.5 -33.5 14.5l7 29h253l-6 -29q-20 -10 -42.5 -15.5q-22.5 -5.5 -44.5 -9.5l-126 -593q45 -8 76 -24l-5 -29h-253l5 29q19 8 39.5 14q20.5 6 41.5 10l59 280h-315l-58 -280q18 -4 36 -10q18 -6 33 -14z" />
<glyph unicode="&#73;" horiz-adv-x="343" d="M255 0h-256l5 29q44 18 86 24l125 593q-20 4 -38 10.5q-18 6.5 -37 14.5l7 29h256l-6 -29q-20 -8 -43 -14.5q-23 -6.5 -43 -10.5l-125 -593q20 -4 39.5 -10q19.5 -6 34.5 -14z" />
<glyph unicode="&#74;" horiz-adv-x="331" d="M136 700h255l-5 -29q-20 -9 -43 -15q-23 -6 -43 -10l-118 -560q-15 -69 -40.5 -114q-25.5 -45 -55 -72.5q-29.5 -27.5 -59 -41q-29.5 -13.5 -52.5 -18.5l-7 15q20 16 36.5 32.5q16.5 16.5 30.5 41q14 24.5 26 59.5q12 35 23 87l120 571q-43 10 -74 25z" />
<glyph unicode="&#75;" horiz-adv-x="637" d="M476 700h227l-7 -29q-18 -9 -40 -15q-22 -6 -41 -10l-259 -270q18 -33 41.5 -73q23.5 -40 50 -83q26.5 -43 55 -87q28.5 -44 56.5 -84l43 -24l-5 -25h-121l-29 24q-45 69 -87 149q-42 80 -79 162l-53 0l-59 -282q41 -8 69 -24l-5 -29h-253l5 29q45 18 88 24l125 593q-22 4 -41.5 10q-19.5 6 -35.5 15l7 29h253l-6 -29q-34 -16 -81 -25l-58 -277l60 14l240 263q-20 5 -36 10.5q-16 5.5 -31 14.5z" />
<glyph unicode="&#76;" horiz-adv-x="538" d="M128 700h274l-7 -29q-25 -9 -50.5 -15.5q-25.5 -6.5 -50.5 -9.5l-125 -594h229l93 161h26q-2 -21 -5 -48.5q-3 -27.5 -7.5 -57q-4.5 -29.5 -10 -57.5q-5.5 -28 -11.5 -50l-503 0l5 29q27 11 48 16q21 5 40 8l125 593q-47 9 -77 25z" />
<glyph unicode="&#77;" horiz-adv-x="857" d="M787 0h-248l5 29q22 8 43 13.5q21 5.5 44 10.5l94 450l30 117h-8l-54 -107l-316 -513h-26l-87 513l-11 117h-9l-26 -127l-95 -450q18 -4 36 -10q18 -6 35 -14l-6 -29h-208l5 29q40 17 87 25l125 592q-20 4 -40 10.5q-20 6.5 -37 14.5l6 29h208l71 -457l12 -103h1l52 105l282 455h184l-7 -29q-39 -17 -81 -25l-126 -594q20 -4 38 -9.5q18 -5.5 32 -13.5z" />
<glyph unicode="&#78;" horiz-adv-x="723" d="M588 700h213l-6 -29q-20 -14 -44 -24q-24 -10 -46 -16l-137 -643h-54l-251 551l-21 78h-3l-10 -78l-100 -475q18 -5 36 -14q18 -9 33 -21l-6 -29h-212l5 29q43 26 90 35l122 573q-19 8 -36.5 17q-17.5 9 -31.5 18l5 28h166l215 -475l30 -86h4l16 86l86 406q-40 17 -69 40z" />
<glyph unicode="&#79;" horiz-adv-x="730" d="M66 278q0 91 27.5 170q27.5 79 79.5 137.5q52 58.5 125 92.5q73 34 165 34q73 0 123 -24q50 -24 80.5 -63q30.5 -39 44 -89.5q13.5 -50.5 13.5 -104.5q0 -80 -22.5 -159.5q-22.5 -79.5 -69.5 -142.5q-47 -63 -118.5 -102q-71.5 -39 -169.5 -39q-72 0 -124.5 23.5q-52.5 23.5 -86.5 63q-34 39.5 -50.5 92q-16.5 52.5 -16.5 111.5zt0 0zM173 277q0 -55 14.5 -99q14.5 -44 40 -75q25.5 -31 60 -47.5q34.5 -16.5 75.5 -15.5q73 -1 121.5 35.5q48.5 36.5 78 94q29.5 57.5 42 127q12.5 69.5 12.5 135.5q0 51 -11.5 93q-11.5 42 -34.5 72q-23 30 -56.5 46.5q-33.5 16.5 -77.5 16.5q-69 0 -119 -36q-50 -36 -82.5 -92q-32.5 -56 -47.5 -124t-15 -131z" />
<glyph unicode="&#80;" horiz-adv-x="585" d="M169 53q26 -3 48.5 -9.5q22.5 -6.5 41.5 -14.5l-5 -29h-274l5 29q23 10 44.5 15q21.5 5 43.5 9l125 593q-22 4 -41 10.5q-19 6.5 -36 14.5l7 29h90q40 0 87.5 4q47.5 4 90.5 4q48 0 88.5 -9.5q40.5 -9.5 69 -30q28.5 -20.5 44.5 -51q16 -30.5 16 -72.5q0 -59 -21.5 -109q-21.5 -50 -62 -87q-40.5 -37 -97.5 -58q-57 -21 -127 -21q-5 0 -16.5 0q-11.5 0 -25 0.5q-13.5 0.5 -27 1.5q-13.5 1 -22.5 2zM370 656q-24 0 -42.5 -1.5q-18.5 -1.5 -32.5 -3.5l-68 -324q5 -1 14.5 -2q9.5 -1 20 -1.5q10.5 -0.5 20 -1q9.5 -0.5 15.5 -0.5q104 0 157 59.5q53 59.5 53 162.5q0 25 -5.5 45.5q-5.5 20.5 -21 35.5q-15.5 15 -42 23t-68.5 8z" />
<glyph unicode="&#81;" horiz-adv-x="750" d="M742 -115q-48 -36 -95 -61.5q-47 -25.5 -96 -24.5q-41 0 -82.5 15q-41.5 15 -88 36q-46.5 21 -99.5 44q-53 23 -116 40l35 20q47 6 90.5 0q43.5 -6 85 -18q41.5 -12 83.5 -25.5q42 -13.5 86 -22q44 -8.5 92 -7.5q48 1 103 18zM66 278q0 91 27.5 170q27.5 79 79.5 137.5q52 58.5 125 92.5q73 34 165 34q73 0 123 -24q50 -24 80.5 -63q30.5 -39 44 -89.5q13.5 -50.5 13.5 -104.5q0 -80 -22.5 -159.5q-22.5 -79.5 -69.5 -142.5q-47 -63 -118.5 -102q-71.5 -39 -169.5 -39q-72 0 -124.5 23.5q-52.5 23.5 -86.5 63q-34 39.5 -50.5 92q-16.5 52.5 -16.5 111.5zt0 0zM173 277q0 -55 14.5 -99q14.5 -44 40 -75q25.5 -31 60 -47.5q34.5 -16.5 75.5 -15.5q73 -1 121.5 35.5q48.5 36.5 78 94q29.5 57.5 42 127q12.5 69.5 12.5 135.5q0 51 -11.5 93q-11.5 42 -34.5 72q-23 30 -56.5 46.5q-33.5 16.5 -77.5 16.5q-69 0 -119 -36q-50 -36 -82.5 -92q-32.5 -56 -47.5 -124t-15 -131z" />
<glyph unicode="&#82;" horiz-adv-x="627" d="M169 53q44 -8 79 -24l-5 -29h-263l5 29q24 10 45.5 15q21.5 5 42.5 9l125 593q-24 6 -43.5 12q-19.5 6 -33.5 13l7 29h88q40 0 88.5 4q48.5 4 92.5 4q99 0 147.5 -42.5q48.5 -42.5 48.5 -120.5q0 -39 -13.5 -75q-13.5 -36 -38 -65q-24.5 -29 -60 -50.5q-35.5 -21.5 -80.5 -32.5q29 -68 63.5 -135q34.5 -67 71.5 -133l47 -29l-5 -25h-114l-34 28q-21 35 -37.5 69q-16.5 34 -30 68q-13.5 34 -24 70q-10.5 36 -19.5 75l-96 0zM364 656q-23 0 -39.5 -1.5q-16.5 -1.5 -30.5 -3.5l-62 -298h71q53 -1 89.5 16q36.5 17 59 45.5q22.5 28.5 33 64.5q10.5 36 10.5 74q1 54 -30.5 78.5t-100.5 24.5z" />
<glyph unicode="&#83;" horiz-adv-x="527" d="M121 69q11 -9 37 -19.5q26 -10.5 55 -9.5q33 -1 64 5q31 6 56 21q25 15 40 39.5q15 24.5 15 61.5q0 41 -19.5 69q-19.5 28 -48.5 49.5q-29 21.5 -62.5 41q-33.5 19.5 -62.5 43.5q-29 24 -48.5 56.5q-19.5 32.5 -19.5 80.5q0 46 16.5 83.5q16.5 37.5 49 64.5q32.5 27 79.5 42q47 15 107 15q61 0 109 -9.5q48 -9.5 75 -23.5q-4 -17 -11.5 -39.5q-7.5 -22.5 -15.5 -46.5q-8 -24 -17 -46.5q-9 -22.5 -16 -39.5l-26 0l-12 137q-17 8 -43.5 12q-26.5 4 -57.5 4q-30 0 -56.5 -7q-26.5 -7 -46 -21.5q-19.5 -14.5 -30.5 -36.5q-11 -22 -11 -52q0 -40 19.5 -66.5q19.5 -26.5 48.5 -47.5q29 -21 62.5 -40.5q33.5 -19.5 62.5 -44.5q29 -25 48.5 -60.5q19.5 -35.5 19.5 -87.5q0 -47 -18.5 -85q-18.5 -38 -53 -65.5q-34.5 -27.5 -85 -42.5q-50.5 -15 -114.5 -15q-32 0 -61.5 4q-29.5 4 -54 11q-24.5 7 -43.5 15.5q-19 8.5 -29 16.5q4 18 11.5 42.5q7.5 24.5 16.5 49.5q9 25 18 48.5q9 23.5 17 40.5l26 0z" />
<glyph unicode="&#84;" horiz-adv-x="610" d="M401 0h-281l5 29q24 9 47.5 14.5q23.5 5.5 51.5 9.5l126 595h-153l-83 -143h-26q1 20 4.5 45.5q3.5 25.5 7.5 52q4 26.5 8.5 52q4.5 25.5 9.5 45.5l580 0q-4 -20 -10 -45q-6 -25 -13 -51.5q-7 -26.5 -14.5 -52q-7.5 -25.5 -14.5 -46.5l-26 0l-21 143h-153l-126 -595q24 -5 45.5 -10q21.5 -5 40.5 -14z" />
<glyph unicode="&#85;" horiz-adv-x="666" d="M112 700h254l-6 -29q-39 -17 -81 -25l-85 -397q-11 -53 -6 -90.5q5 -37.5 24 -61.5q19 -24 50 -35q31 -11 72 -11q81 0 129.5 45q48.5 45 68.5 142l85 399q-44 15 -72 34l6 29h214l-7 -29q-17 -11 -40 -20q-23 -9 -45 -14l-85 -401q-28 -131 -98.5 -188q-70.5 -57 -181.5 -57q-66 0 -111.5 19q-45.5 19 -71.5 52.5q-26 33.5 -33 80q-7 46.5 5 100.5l86 403q-20 4 -41 10.5q-21 6.5 -36 14.5z" />
<glyph unicode="&#86;" horiz-adv-x="674" d="M634 646q-23 5 -43 11q-20 6 -38 14l7 29h222l-6 -29q-17 -8 -35.5 -14q-18.5 -6 -41.5 -11l-362 -646l-55 -12l-116 658q-23 5 -40.5 11.5q-17.5 6.5 -30.5 13.5l6 29h263l-6 -29q-18 -8 -41 -14q-23 -6 -46 -11l73 -457l5 -80h2l37 82z" />
<glyph unicode="&#87;" horiz-adv-x="925" d="M887 646q-20 4 -41.5 10q-21.5 6 -38.5 15l6 29h220l-6 -29q-19 -10 -38.5 -15q-19.5 -5 -38.5 -10l-304 -646l-64 -12l-46 544l-271 -532l-62 -12l-37 658q-39 9 -71 25l6 29h258l-6 -29q-20 -8 -41.5 -14q-21.5 -6 -45.5 -11l13 -405l-3 -130h2l61 132l233 457h35l42 -457l5 -130h2l53 132z" />
<glyph unicode="&#88;" horiz-adv-x="661" d="M499 700h230l-7 -29q-18 -8 -38.5 -14q-20.5 -6 -41.5 -11l-238 -271l137 -322q46 -8 75 -24l-5 -29h-266l5 29q38 18 81 24l-101 251l-210 -252q20 -3 39.5 -7.5q19.5 -4.5 36.5 -15.5l-6 -29h-230l6 29q20 10 40 15q20 5 40 9l262 299l-124 294q-20 5 -38 10.5q-18 5.5 -36 14.5l6 29h266l-6 -29q-31 -14 -82 -25l89 -226l187 226q-19 5 -38 10q-19 5 -39 15z" />
<glyph unicode="&#89;" horiz-adv-x="635" d="M520 700h223l-7 -29q-20 -10 -40 -15.5q-20 -5.5 -40 -9.5l-263 -348l-52 -245q37 -5 70 -24l-5 -29h-254l5 29q40 18 88 24l52 244l-129 349q-22 4 -40.5 10.5q-18.5 6.5 -35.5 14.5l7 29h264l-6 -29q-16 -6 -36 -13q-20 -7 -46 -12l101 -294l212 294q-21 5 -39.5 11q-18.5 6 -34.5 14z" />
<glyph unicode="&#90;" horiz-adv-x="603" d="M529 192h26q-2 -21 -5 -46q-3 -25 -7 -50.5q-4 -25.5 -8.5 -50.5q-4.5 -25 -9.5 -45l-520 0v51l526 597h-291l-91 -140h-26q1 21 4.5 46q3.5 25 7.5 51q4 26 8.5 50.5q4.5 24.5 9.5 44.5l497 0v-52l-526 -596l314 0z" />
<glyph unicode="&#91;" horiz-adv-x="307" d="M190 700h189l-9 -43h-104l-180 -844h104l-8 -43l-189 0z" />
<glyph unicode="&#92;" horiz-adv-x="382" d="M409 -107l-41 -23l-415 820l42 22z" />
<glyph unicode="&#93;" horiz-adv-x="307" d="M131 -230h-188l9 43h103l180 844h-104l8 43l189 0z" />
<glyph unicode="&#94;" horiz-adv-x="519" d="M291 711h33l170 -277h-89l-88 151l-23 67l-33 -68l-99 -150l-57 0z" />
<glyph unicode="&#95;" horiz-adv-x="410" d="M-45 -143h410v-53l-410 0z" />
<glyph unicode="&#96;" horiz-adv-x="323" d="M325 593l-22 -17l-166 149v20q6 5 19.5 9.5q13.5 4.5 29.5 7.5q16 3 30.5 4.5q14.5 1.5 22.5 0.5z" />
<glyph unicode="&#97;" horiz-adv-x="535" d="M189 50q27 0 54 25.5q27 25.5 51 61.5q24 36 43 75q19 39 30 65l32 171q-14 10 -27 14q-13 4 -36 4q-46 0 -83.5 -28.5q-37.5 -28.5 -64 -73.5q-26.5 -45 -41 -100q-14.5 -55 -14.5 -108q0 -51 12.5 -78.5q12.5 -27.5 43.5 -27.5zt0 0zM347 196q-13 -36 -32.5 -73q-19.5 -37 -45 -67q-25.5 -30 -56.5 -49q-31 -19 -66 -19q-104 0 -104 151q0 70 20 136.5q20 66.5 58 118.5q38 52 92.5 83.5q54.5 31.5 123.5 31.5q25 0 40 -4.5q15 -4.5 36 -13.5q40 21 84 21l-90 -457h73v-25q-20 -16 -48 -26q-28 -10 -55 -10q-29 0 -41.5 12.5q-12.5 12.5 -12.5 26.5q0 18 7 59q7 41 21 104z" />
<glyph unicode="&#98;" horiz-adv-x="526" d="M164 682l-70 9v23q16 6 35 12q19 6 38.5 11.5q19.5 5.5 38.5 9q19 3.5 35 5.5l21 -11l-88 -417h5q18 36 39.5 70q21.5 34 46 60q24.5 26 51.5 42q27 16 57 16q53 0 84 -37q31 -37 31 -115q0 -77 -21.5 -144.5q-21.5 -67.5 -60.5 -118q-39 -50.5 -94 -80q-55 -29.5 -122 -29.5q-49 0 -91.5 12.5q-42.5 12.5 -62.5 29.5zM331 450q-26 0 -51 -23q-25 -23 -46.5 -55.5q-21.5 -32.5 -39 -68q-17.5 -35.5 -29.5 -59.5l-38 -192q15 -10 37.5 -15.5q22.5 -5.5 44.5 -5.5q39 0 73.5 27q34.5 27 60.5 71q26 44 41 99.5q15 55.5 14 112.5q1 48 -15 78.5t-52 30.5z" />
<glyph unicode="&#99;" horiz-adv-x="428" d="M382 89q-11 -19 -28 -37q-17 -18 -40 -32.5q-23 -14.5 -51.5 -23q-28.5 -8.5 -62.5 -8.5q-74 0 -117 47q-43 47 -43 128q0 72 23 135.5q23 63.5 62.5 111q39.5 47.5 93 75q53.5 27.5 114.5 27.5q38 0 62 -6q24 -6 36 -17q1 -11 -1.5 -24.5q-2.5 -13.5 -8 -26.5q-5.5 -13 -14 -24q-8.5 -11 -17.5 -15l-68 70q-34 -1 -67.5 -21q-33.5 -20 -60 -57q-26.5 -37 -43 -89.5q-16.5 -52.5 -15.5 -118.5q-1 -69 27.5 -101q28.5 -32 77.5 -32q21 0 39.5 6q18.5 6 34.5 15q16 9 29 19q13 10 23 18z" />
<glyph unicode="&#100;" horiz-adv-x="535" d="M191 50q27 0 54 25.5q27 25.5 51 61.5q24 36 43 75q19 39 30 65l32 171q-15 10 -27.5 13.5q-12.5 3.5 -35.5 4.5q-48 -1 -86 -29.5q-38 -28.5 -64 -73q-26 -44.5 -39.5 -99.5q-13.5 -55 -13.5 -108q0 -51 12.5 -78.5q12.5 -27.5 43.5 -27.5zt0 0zM349 196q-13 -36 -33 -73q-20 -37 -45.5 -67q-25.5 -30 -56 -49q-30.5 -19 -65.5 -19q-104 0 -104 152q0 71 20 137.5q20 66.5 58 118q38 51.5 92 82.5q54 31 123 31q26 0 39 -3.5q13 -3.5 33 -12.5l38 189l-70 9v25q15 6 33 11.5q18 5.5 37.5 10q19.5 4.5 39.5 8.5q20 4 37 6l21 -8l-137 -689h73v-25q-20 -16 -48 -26q-28 -10 -55 -10q-29 0 -41.5 12.5q-12.5 12.5 -12.5 26.5q0 18 7 59q7 41 21 104z" />
<glyph unicode="&#101;" horiz-adv-x="454" d="M392 89q-9 -19 -26 -37q-17 -18 -40 -32.5q-23 -14.5 -52 -23q-29 -8.5 -62 -8.5q-83 0 -127.5 47.5q-44.5 47.5 -44.5 131.5q0 71 20 134q20 63 56 110q36 47 87.5 74q51.5 27 114.5 27q48 0 82.5 -24.5q34.5 -24.5 34.5 -72.5q0 -71 -70.5 -112q-70.5 -41 -227.5 -53q-4 -17 -5.5 -33q-1.5 -16 -1.5 -31q0 -60 30.5 -98q30.5 -38 89.5 -38q19 0 37.5 6q18.5 6 35 15q16.5 9 30 19q13.5 10 23.5 18zM287 469q-43 -1 -80 -40.5q-37 -39.5 -63 -135.5q97 3 151 33.5q54 30.5 54 84.5q0 21 -12.5 39t-49.5 19z" />
<glyph unicode="&#102;" horiz-adv-x="297" d="M129 450h-73v26q20 11 42.5 19.5q22.5 8.5 42.5 13.5l7 35q13 62 35.5 102.5q22.5 40.5 52.5 64q30 23.5 66 32.5q36 9 77 9q17 0 40.5 -4q23.5 -4 39.5 -12q-2 -22 -10.5 -45.5q-8.5 -23.5 -28.5 -40.5l-76 62q-18 -5 -33 -11q-15 -6 -28.5 -22.5q-13.5 -16.5 -25.5 -46.5q-12 -30 -23 -82l-10 -50h111q5 -25 -10 -50l-111 0l-64 -407q-11 -71 -37 -118q-26 -47 -55.5 -76q-29.5 -29 -57.5 -43q-28 -14 -43 -18l-9 22q12 6 29 21.5q17 15.5 33.5 41.5q16.5 26 31 63.5q14.5 37.5 22.5 87.5z" />
<glyph unicode="&#103;" horiz-adv-x="489" d="M280 512q48 0 78.5 -12q30.5 -12 47.5 -26q9 8 24 16q15 8 32 15q17 7 35 13q18 6 34 11q3 -5 5 -15q2 -10 1.5 -22q-0.5 -12 -4 -24.5q-3.5 -12.5 -10.5 -22.5l-103 7q3 -9 6 -20.5q3 -11.5 3 -25.5q0 -40 -16.5 -74q-16.5 -34 -45.5 -58.5q-29 -24.5 -67.5 -38.5q-38.5 -14 -81.5 -14q-17 0 -27.5 0.5q-10.5 0.5 -23.5 3.5q-9 -10 -24.5 -23.5q-15.5 -13.5 -15.5 -29.5q0 -17 22 -26q22 -9 55.5 -16.5q33.5 -7.5 72.5 -16q39 -8.5 72.5 -23q33.5 -14.5 55.5 -37.5q22 -23 22 -61q0 -47 -26.5 -84.5q-26.5 -37.5 -70 -64q-43.5 -26.5 -99 -41q-55.5 -14.5 -112.5 -14.5q-46 0 -79 9.5q-33 9.5 -54 26q-21 16.5 -31 37.5q-10 21 -10 44q0 28 12.5 52q12.5 24 33.5 45.5q21 21.5 48 39.5q27 18 56 34q-15 8 -24.5 21.5q-9.5 13.5 -9.5 30.5q0 15 10 31.5q10 16.5 23.5 31.5q13.5 15 27 26q13.5 11 20.5 16q-12 3 -24.5 11q-12.5 8 -23.5 21q-11 13 -18 30q-7 17 -7 38q0 39 16.5 72q16.5 33 45.5 56.5q29 23.5 67 37q38 13.5 82 13.5zt0 0zM165 -169q31 0 61.5 9q30.5 9 55 25.5q24.5 16.5 40 41q15.5 24.5 15.5 55.5q0 30 -24.5 46.5q-24.5 16.5 -59.5 26.5q-35 10 -72.5 16.5q-37.5 6.5 -64.5 15.5q-47 -34 -64.5 -71q-17.5 -37 -16.5 -69q-1 -45 34.5 -70.5q35.5 -25.5 95.5 -25.5zt0 0zM272 472q-29 0 -51.5 -11q-22.5 -11 -38.5 -29.5q-16 -18.5 -24 -43.5q-8 -25 -8 -53q0 -38 24.5 -56q24.5 -18 52.5 -18q30 0 51.5 10.5q21.5 10.5 36 28.5q14.5 18 21.5 41q7 23 7 48q0 37 -17.5 60t-53.5 23z" />
<glyph unicode="&#104;" horiz-adv-x="543" d="M103 691v23q15 6 33.5 12.5q18.5 6.5 38.5 12q20 5.5 39 9q19 3.5 36 4.5l21 -9l-90 -420h5q19 40 43 74.5q24 34.5 50.5 60q26.5 25.5 55.5 40q29 14.5 59 14.5q46 0 66.5 -26.5q20.5 -26.5 20.5 -65.5q0 -27 -5 -58q-5 -31 -12 -60l-57 -246h74v-26q-20 -16 -48 -26q-28 -10 -56 -10q-29 0 -40 12q-11 12 -11 26q0 18 5 40.5q5 22.5 10 45.5l36 167q7 31 12.5 58q5.5 27 5.5 52q0 23 -10 39q-10 16 -27 16q-31 0 -60 -22q-29 -22 -54 -53q-25 -31 -44 -64.5q-19 -33.5 -29 -55.5l-53 -255h-84l137 682z" />
<glyph unicode="&#105;" horiz-adv-x="277" d="M71 451v25q15 6 34 12.5q19 6.5 39 11.5q20 5 38 8.5q18 3.5 32 3.5l18 -12l-94 -444h74v-26q-21 -16 -49 -26q-28 -10 -55 -10q-29 0 -41.5 13q-12.5 13 -12.5 30q0 20 3 39q3 19 8 42l70 323zM150 673q0 26 16 41q16 15 42 15q28 0 44 -15q16 -15 16 -41q0 -25 -16 -39q-16 -14 -44 -14q-26 0 -42 14t-16 39z" />
<glyph unicode="&#106;" horiz-adv-x="275" d="M133 442l-60 9v25q31 14 69 25q38 11 69 11l20 -12l-97 -457q-15 -71 -41.5 -118q-26.5 -47 -55.5 -76q-29 -29 -55.5 -43q-26.5 -14 -42.5 -18l-12 22q12 6 28 20.5q16 14.5 32 40q16 25.5 31.5 63.5q15.5 38 26.5 90zM145 673q0 26 16 41q16 15 42 15q28 0 44 -15q16 -15 16 -41q0 -25 -16 -39q-16 -14 -44 -14q-26 0 -42 14t-16 39z" />
<glyph unicode="&#107;" horiz-adv-x="481" d="M299 45q-32 54 -54 102.5q-22 48.5 -42 90.5l-36 10l-47 -248h-86l136 682l-70 9v25q29 13 70.5 23.5q41.5 10.5 76.5 12.5l21 -11l-94 -467h29q21 13 43.5 32q22.5 19 43 39q20.5 20 36.5 38.5q16 18.5 25 31.5q1 7 1.5 19q0.5 12 0 24.5q-0.5 12.5 -1 24q-0.5 11.5 -1.5 17.5q37 13 72 13q36 0 60 -13q-13 -33 -40 -66q-27 -33 -58 -61.5q-31 -28.5 -61 -52q-30 -23.5 -48 -36.5q7 -19 22.5 -49.5q15.5 -30.5 34 -63.5q18.5 -33 39 -64q20.5 -31 37.5 -51l63 0v-26q-20 -16 -43.5 -26q-23.5 -10 -49.5 -10q-24 0 -43 11t-36 40z" />
<glyph unicode="&#108;" horiz-adv-x="277" d="M174 682l-71 9v25q14 6 32.5 12q18.5 6 39 11.5q20.5 5.5 40.5 9q20 3.5 36 3.5l20 -11l-138 -685h73v-26q-20 -16 -48.5 -26q-28.5 -10 -55.5 -10q-29 0 -42.5 13q-13.5 13 -13.5 30q0 20 3 39q3 19 8 42z" />
<glyph unicode="&#109;" horiz-adv-x="800" d="M633 300q6 24 11.5 50q5.5 26 6.5 43q-1 26 -8.5 41.5q-7.5 15.5 -30.5 15.5q-24 0 -49 -19q-25 -19 -47.5 -48q-22.5 -29 -41 -63q-18.5 -34 -30.5 -64l-61 -256h-80l63 281q7 31 12 59.5q5 28.5 5 59.5q0 23 -8 36.5q-8 13.5 -28 13.5q-20 0 -44 -19q-24 -19 -47 -48q-23 -29 -42.5 -63q-19.5 -34 -31.5 -65l-53 -255h-86l93 442l-61 9v25q33 17 71.5 26.5q38.5 9.5 66.5 9.5l21 -12l-44 -177h4q12 28 33.5 61q21.5 33 49.5 61.5q28 28.5 60 47.5q32 19 64 19q12 0 24 -4q12 -4 21 -14.5q9 -10.5 15 -28.5q6 -18 6 -46q0 -22 -4.5 -47q-4.5 -25 -10.5 -49q15 34 38 67.5q23 33.5 50 60.5q27 27 57.5 44q30.5 17 62.5 17q38 0 57.5 -24q19.5 -24 19.5 -66q0 -32 -6 -60.5q-6 -28.5 -13 -61.5l-65 -244h74v-26q-20 -16 -49 -26q-29 -10 -55 -10q-29 0 -40 13q-11 13 -11 31q0 29 14 80z" />
<glyph unicode="&#110;" horiz-adv-x="552" d="M386 285q7 31 12.5 57.5q5.5 26.5 5.5 52.5q0 23 -10.5 39q-10.5 16 -33.5 16q-27 0 -55 -22q-28 -22 -52 -53q-24 -31 -43.5 -64.5q-19.5 -33.5 -29.5 -55.5l-53 -255h-84l88 442l-61 9l2 25q14 7 31.5 13.5q17.5 6.5 36 11.5q18.5 5 36 8q17.5 3 32.5 3l20 -12l-38 -177h5q19 40 43.5 74.5q24.5 34.5 52 60q27.5 25.5 57.5 40q30 14.5 61 14.5q42 0 61.5 -26.5q19.5 -26.5 19.5 -66.5q0 -22 -5 -55q-5 -33 -12 -62l-57 -246h74v-26q-20 -16 -48.5 -26q-28.5 -10 -55.5 -10q-29 0 -40 12q-11 12 -11 26q0 19 5 41.5q5 22.5 10 45.5z" />
<glyph unicode="&#111;" horiz-adv-x="509" d="M41 186q0 53 16.5 110.5q16.5 57.5 50.5 105.5q34 48 85 79q51 31 119 31q78 0 117.5 -48q39.5 -48 39.5 -142q0 -66 -19 -126.5q-19 -60.5 -53 -106.5q-34 -46 -82 -73.5q-48 -27.5 -106 -27.5q-77 0 -122.5 49.5q-45.5 49.5 -45.5 148.5zt0 0zM292 469q-49 -1 -80 -32q-31 -31 -49 -77q-18 -46 -25 -99q-7 -53 -7 -97q0 -59 26 -96q26 -37 70 -37q35 0 62.5 26.5q27.5 26.5 47 70q19.5 43.5 30 98.5q10.5 55 10.5 111q0 59 -20.5 95t-64.5 37z" />
<glyph unicode="&#112;" horiz-adv-x="542" d="M97 -146q35 -6 70 -25l0 -29h-157l-9 9l43 199l93 434l-61 9v25q33 14 69.5 25q36.5 11 68.5 11l20 -12l-41 -176h4q18 40 39.5 74q21.5 34 46.5 59.5q25 25.5 54 40q29 14.5 62 14.5q22 0 42 -8.5q20 -8.5 35 -26q15 -17.5 23.5 -43.5q8.5 -26 8.5 -60q0 -77 -23 -147q-23 -70 -62.5 -123q-39.5 -53 -92.5 -84.5q-53 -31.5 -114 -31.5q-17 0 -29 1q-12 1 -21 3.5q-9 2.5 -17.5 6.5q-8.5 4 -18.5 9zM352 450q-29 0 -55 -22.5q-26 -22.5 -48.5 -54.5q-22.5 -32 -40.5 -67.5q-18 -35.5 -29 -62.5l-39 -189q14 -12 29.5 -17.5q15.5 -5.5 49.5 -5.5q40 0 75.5 29.5q35.5 29.5 62 75.5q26.5 46 42 102.5q15.5 56.5 15.5 111.5q0 48 -16.5 74t-45.5 26z" />
<glyph unicode="&#113;" horiz-adv-x="515" d="M354 -146q33 -6 70 -25l0 -29h-157l-9 8l89 387h-4q-13 -35 -32.5 -72q-19.5 -37 -45 -67q-25.5 -30 -56 -49q-30.5 -19 -65.5 -19q-104 0 -104 152q0 71 19 137.5q19 66.5 56.5 118q37.5 51.5 93 82.5q55.5 31 129.5 31q22 0 44.5 -3q22.5 -3 42.5 -7.5q20 -4.5 36.5 -10q16.5 -5.5 26.5 -10.5zM186 50q27 0 53.5 25.5q26.5 25.5 50.5 61.5q24 36 43 74.5q19 38.5 30 64.5l33 176q-11 8 -26 11q-15 3 -38 3q-51 0 -89 -28.5q-38 -28.5 -63.5 -73.5q-25.5 -45 -38 -100q-12.5 -55 -11.5 -108q-1 -51 12 -78.5t44 -27.5z" />
<glyph unicode="&#114;" horiz-adv-x="385" d="M305 439q-26 -10 -58.5 -50.5q-32.5 -40.5 -57.5 -109.5l-60 -279h-86l93 442l-61 9v25q34 16 71 24.5q37 8.5 67 11.5l20 -12l-28 -133h4q29 66 71 105.5q42 39.5 90 39.5q13 0 26 -2.5q13 -2.5 25 -9.5q0 -9 -3 -23.5q-3 -14.5 -8.5 -29.5q-5.5 -15 -12 -28.5q-6.5 -13.5 -13.5 -20.5z" />
<glyph unicode="&#115;" horiz-adv-x="418" d="M255 118q-1 24 -13.5 41.5q-12.5 17.5 -32 33.5q-19.5 16 -41.5 32q-22 16 -41.5 35.5q-19.5 19.5 -32 45q-12.5 25.5 -12.5 61.5q0 36 14 63q14 27 38.5 45q24.5 18 59 27.5q34.5 9.5 75.5 9.5q26 0 58.5 -4.5q32.5 -4.5 61.5 -21.5q0 -11 -4 -25.5q-4 -14.5 -10.5 -28q-6.5 -13.5 -14.5 -25q-8 -11.5 -17 -15.5l-74 77q-21 -1 -39 -5q-18 -4 -31.5 -13q-13.5 -9 -21 -23.5q-7.5 -14.5 -7.5 -36.5q0 -26 13 -44.5q13 -18.5 32.5 -35q19.5 -16.5 42 -32q22.5 -15.5 42 -35q19.5 -19.5 32.5 -45q13 -25.5 13 -60.5q0 -36 -16.5 -64q-16.5 -28 -45 -47.5q-28.5 -19.5 -66 -29.5q-37.5 -10 -79.5 -10q-42 0 -76.5 8.5q-34.5 8.5 -54.5 21.5q5 26 12 50.5q7 24.5 29 45.5l90 -83q21 0 41.5 5q20.5 5 37 16q16.5 11 27 27t11.5 39z" />
<glyph unicode="&#116;" horiz-adv-x="337" d="M54 476q20 11 42.5 20q22.5 9 44.5 14l16 76q14 11 32.5 19.5q18.5 8.5 38.5 16.5l21 -12l-24 -110h124q2 -12 0 -25q-2 -13 -10 -25l-124 0l-63 -290q-4 -19 -6 -33.5q-2 -14.5 -2 -26.5q0 -26 15 -38q15 -12 33 -12q25 0 53.5 9.5q28.5 9.5 52.5 21.5l11 -18q-9 -13 -27 -26q-18 -13 -40.5 -24q-22.5 -11 -47 -18q-24.5 -7 -46.5 -7q-44 0 -69 20q-25 20 -25 62q0 14 2.5 31q2.5 17 6.5 35l66 314l-76 0z" />
<glyph unicode="&#117;" horiz-adv-x="542" d="M488 55v-25q-20 -16 -48.5 -26q-28.5 -10 -55.5 -10q-29 0 -41.5 12q-12.5 12 -12.5 26q0 18 5 60.5q5 42.5 22 103.5l-4 0q-13 -28 -32.5 -64q-19.5 -36 -46.5 -68q-27 -32 -61.5 -54q-34.5 -22 -76.5 -22q-35 0 -59 24.5q-24 24.5 -24 69.5q0 22 7 65q7 43 17 94q10 51 21.5 104.5q11.5 53.5 20.5 96.5l-61 9v25q16 6 34.5 12q18.5 6 37 11q18.5 5 35.5 8.5q17 3.5 31 4.5l22 -12q-16 -75 -32.5 -142.5q-16.5 -67.5 -30.5 -142.5q-5 -24 -10.5 -53.5q-5.5 -29.5 -5.5 -64.5q0 -21 11.5 -34q11.5 -13 26.5 -13q22 0 44 13q22 13 41.5 34q19.5 21 37 46.5q17.5 25.5 31.5 50.5q14 25 23.5 46.5q9.5 21.5 14.5 34.5l44 225h83l-82 -445z" />
<glyph unicode="&#118;" horiz-adv-x="447" d="M249 151q36 60 64 116.5q28 56.5 48 113.5q0 11 -2.5 28.5q-2.5 17.5 -5 35.5q-2.5 18 -5.5 33.5q-3 15.5 -5 21.5q29 12 59.5 12.5q30.5 0.5 53.5 -12.5q-15 -62 -41 -126.5q-26 -64.5 -59.5 -128.5q-33.5 -64 -73 -126q-39.5 -62 -82.5 -119l-47 -12l-74 454l-64 8v25q6 4 18 10.5q12 6.5 26.5 12.5q14.5 6 30 10q15.5 4 29.5 4q22 0 31.5 -11q9.5 -11 12.5 -27l46 -325l5 -63l2 0z" />
<glyph unicode="&#119;" horiz-adv-x="687" d="M493 151q37 60 63 116q26 56 45 113q0 11 -2.5 29q-2.5 18 -5 36q-2.5 18 -5.5 33.5q-3 15.5 -5 21.5q14 6 30 9q16 3 31 3q30 0 53 -12q-15 -62 -40 -126.5q-25 -64.5 -57 -128.5q-32 -64 -70 -126q-38 -62 -81 -119l-47 -12l-42 284v82h-3l-40 -82q-33 -69 -67 -136.5q-34 -67.5 -68 -135.5l-55 -12l-48 454l-64 8v25q6 4 18 10.5q12 6.5 26.5 12.5q14.5 6 30 10q15.5 4 29.5 4q22 0 33.5 -10.5q11.5 -10.5 13.5 -27.5l27 -316l-4 -72h2l30 73l162 329l34 12q12 -85 20 -140.5q8 -55.5 11 -81.5q8 -60 16 -120l1 -72l2 0z" />
<glyph unicode="&#120;" horiz-adv-x="454" d="M201 213q-11 -12 -25.5 -26q-14.5 -14 -28.5 -29q-14 -15 -26 -30q-12 -15 -19 -28q-2 -7 -2.5 -20q-0.5 -13 -1 -27.5q-0.5 -14.5 -0.5 -27q0 -12.5 1 -18.5q-17 -7 -34.5 -10q-17.5 -3 -33.5 -3q-33 0 -55 13q9 30 37 67q28 37 62 72q34 35 66 63.5q32 28.5 48 42.5l-68 184l-64 8v25q6 4 17.5 10.5q11.5 6.5 26 12.5q14.5 6 29.5 10q15 4 29 4q22 0 32 -11.5q10 -11.5 16 -26.5l49 -174q23 23 50.5 52q27.5 29 41.5 55q1 7 1 20q0 13 -1 27.5q-1 14.5 -2 27q-1 12.5 -2 18.5q17 6 33.5 9.5q16.5 3.5 33.5 3.5q32 0 56 -13q-6 -20 -20 -43q-14 -23 -33 -46q-19 -23 -40.5 -45.5q-21.5 -22.5 -41.5 -42q-20 -19.5 -37.5 -35q-17.5 -15.5 -27.5 -24.5l72 -195l65 -8v-25q-6 -4 -17.5 -10q-11.5 -6 -25 -12q-13.5 -6 -29 -10q-15.5 -4 -28.5 -4q-21 0 -32 11q-11 11 -16 27z" />
<glyph unicode="&#121;" horiz-adv-x="455" d="M88 442l-64 8v25q5 4 16.5 10q11.5 6 26.5 12q15 6 31 10.5q16 4.5 30 4.5q21 0 30.5 -10.5q9.5 -10.5 14.5 -27.5l83 -350l3 -60h2l23 59q13 28 26.5 61.5q13.5 33.5 26.5 67.5q13 34 24 67q11 33 19 61q0 11 -2.5 29q-2.5 18 -5.5 36q-3 18 -6 33.5q-3 15.5 -5 21.5q14 6 30 9q16 3 31 3q30 0 53 -12q-31 -124 -84.5 -248q-53.5 -124 -118.5 -252q-54 -105 -108 -157q-54 -52 -122 -52q-15 0 -28.5 4q-13.5 4 -28.5 12q-1 11 2 25q3 14 9.5 28q6.5 14 17 26q10.5 12 23.5 19l81 -42q7 5 18 14.5q11 9.5 23 26q12 16.5 24 40q12 23.5 23 56.5z" />
<glyph unicode="&#122;" horiz-adv-x="436" d="M116 180l220 243q-45 -3 -97.5 1.5q-52.5 4.5 -108.5 13.5l-46 -72l-25 6l14 102q6 39 54 39q36 0 104.5 -10.5q68.5 -10.5 163.5 -15.5l23 25q13 -2 24.5 -10q11.5 -8 13.5 -22l-344 -379q59 -11 115 -29.5q56 -18.5 104 -44.5l58 66l24 -14l-35 -102q-5 -15 -18 -25q-13 -10 -32 -10q-19 0 -47 12.5q-28 12.5 -63.5 28.5q-35.5 16 -76.5 32q-41 16 -86 23l-41 -44q-13 2 -25 10q-12 8 -13 23z" />
<glyph unicode="&#123;" horiz-adv-x="351" d="M111 112q5 23 5 39q0 33 -16 51.5q-16 18.5 -46 18.5l6 30q19 0 35.5 8q16.5 8 30 22.5q13.5 14.5 23 33.5q9.5 19 14.5 41l51 238q10 48 40 77q30 29 78 29h90l-8 -43h-49q-27 0 -42.5 -13.5q-15.5 -13.5 -22.5 -45.5l-49 -232q-7 -33 -22.5 -56q-15.5 -23 -34.5 -37.5q-19 -14.5 -40 -22q-21 -7.5 -39 -9.5l-2 -6q15 -2 30 -8.5q15 -6.5 27.5 -18.5q12.5 -12 20.5 -29.5q8 -17.5 8 -41.5q0 -15 -3 -31l-50 -235q-3 -12 -3 -23q0 -37 43 -35l48 0l-9 -43h-90q-37 0 -57.5 18q-20.5 18 -20.5 54q0 17 4 33z" />
<glyph unicode="&#124;" horiz-adv-x="237" d="M122 700h52v-830l-52 0z" />
<glyph unicode="&#125;" horiz-adv-x="351" d="M259 360q-5 -23 -5 -39q0 -70 62 -70l-6 -30q-19 0 -35.5 -8.5q-16.5 -8.5 -30 -22.5q-13.5 -14 -23 -33q-9.5 -19 -14.5 -41l-51 -240q-10 -48 -40 -77q-30 -29 -78 -29h-90l9 43h48q27 0 42.5 13q15.5 13 22.5 45l50 235q7 33 21 56q14 23 31.5 37.5q17.5 14.5 37 22q19.5 7.5 37.5 9.5l1 6q-14 1 -28 7.5q-14 6.5 -25 17.5q-11 11 -17.5 28q-6.5 17 -6.5 40q0 19 4 36l49 232q3 12 3 22q1 38 -43 37l-47 0l8 43h91q37 0 57 -18.5q20 -18.5 20 -53.5q0 -17 -4 -33z" />
<glyph unicode="&#126;" horiz-adv-x="524" d="M66 322q36 54 69 74.5q33 20.5 63 20.5q25 0 49 -10.5q24 -10.5 47 -23.5q23 -13 46.5 -23.5q23.5 -10.5 48.5 -10.5q18 0 37.5 7.5q19.5 7.5 39.5 26.5l13 -21q-29 -42 -57.5 -59.5q-28.5 -17.5 -55.5 -17.5q-26 0 -50.5 10.5q-24.5 10.5 -48.5 23.5q-24 13 -48 23.5q-24 10.5 -48 10.5q-22 0 -44.5 -12q-22.5 -12 -45.5 -43z" />
<glyph unicode="&#160;" horiz-adv-x="243" />
<glyph unicode="&#161;" horiz-adv-x="327" d="M197 286l-5 -176l-59 -296q-12 -6 -25 -8.5q-13 -2.5 -25 -2.5q-14 0 -25.5 2.5q-11.5 2.5 -20.5 8.5l65 296l69 176zM142 446q0 30 19 48q19 18 49 18q31 0 50 -18q19 -18 19 -48q0 -29 -19 -47q-19 -18 -50 -18q-30 0 -49 18t-19 47z" />
<glyph unicode="&#162;" horiz-adv-x="524" d="M430 89q-11 -18 -27 -34.5q-16 -16.5 -37 -30q-21 -13.5 -47 -23q-26 -9.5 -56 -11.5l-33 -160h-52l34 160q-85 8 -125 56q-40 48 -40 125q0 63 21.5 119q21.5 56 58.5 100.5q37 44.5 87 74q50 29.5 107 40.5l34 155h52l-32 -149q3 0 6 0.5q3 0.5 6 -0.5q18 0 39 -1.5q21 -1.5 39.5 -4.5q18.5 -3 33 -7q14.5 -4 20.5 -9q1 -11 -1.5 -24.5q-2.5 -13.5 -8 -26.5q-5.5 -13 -13.5 -24q-8 -11 -17 -15l-68 69q-25 0 -47 -3l-88 -413q51 2 85 20q34 18 54 36zM143 179q-1 -54 21.5 -84.5q22.5 -30.5 60.5 -39.5l86 396q-39 -15 -70.5 -41q-31.5 -26 -53.5 -61q-22 -35 -33.5 -78t-10.5 -92z" />
<glyph unicode="&#163;" horiz-adv-x="524" d="M52 381h85q-8 32 -11.5 63.5q-3.5 31.5 -3.5 53.5q0 49 13.5 88.5q13.5 39.5 44 67.5q30.5 28 78.5 43q48 15 117 15q61 0 110.5 -10q49.5 -10 76.5 -24q-4 -16 -11.5 -38.5q-7.5 -22.5 -16 -46q-8.5 -23.5 -17.5 -46.5q-9 -23 -16 -40l-25 0l-11 137q-19 8 -44.5 12q-25.5 4 -57.5 4q-47 0 -80 -15q-33 -15 -50 -48q-10 -20 -14 -45.5q-4 -25.5 -3 -46.5q1 -33 4.5 -60q3.5 -27 9.5 -64l156 0l-11 -52h-138q1 -11 2 -19.5q1 -8.5 1.5 -17q0.5 -8.5 0 -18q-0.5 -9.5 -2.5 -24.5q-2 -33 -24 -72.5q-22 -39.5 -64 -69.5l-39 -28v-4l55 6h200l73 112h25q-2 -22 -5.5 -48q-3.5 -26 -7.5 -52.5q-4 -26.5 -8.5 -51q-4.5 -24.5 -8.5 -42.5l-460 0l6 31q26 10 46 21q20 11 36 23.5q16 12.5 29.5 27.5q13.5 15 27.5 34q19 25 30 55q11 30 11 53q0 28 -3.5 48.5q-3.5 20.5 -8.5 35.5l-107 0z" />
<glyph unicode="&#164;" horiz-adv-x="524" d="M31 170l83 82l35 11q-14 17 -20 38q-6 21 -6 45q0 23 6 44.5q6 21.5 20 38.5l-35 11l-82 83l54 54l82 -83l12 -34q17 13 38 20q21 7 44 7q50 -2 83 -27l12 34l82 82l54 -54l-83 -82l-33 -11q12 -17 18 -38.5q6 -21.5 6 -44.5q0 -48 -24 -84l33 -10l82 -83l-54 -54l-82 82l-11 34q-35 -24 -83 -24q-23 0 -44 6.5q-21 6.5 -40 17.5l-10 -33l-83 -82zM262 264q36 0 60.5 23q24.5 23 24.5 59q0 36 -24.5 59.5q-24.5 23.5 -60.5 23.5q-36 1 -60.5 -23q-24.5 -24 -24.5 -60q0 -36 24.5 -59t60.5 -23z" />
<glyph unicode="&#165;" horiz-adv-x="524" d="M447 700h221l-6 -29q-43 -19 -81 -25l-227 -311h144l-10 -52h-163l-14 -63h163l-10 -52h-163l-24 -115q38 -5 69 -24l-5 -29h-254l5 29q40 18 89 24l24 115h-163l10 52h163l14 63h-163l11 52h142l-105 311q-22 5 -40.5 11q-18.5 6 -35.5 14l6 29h263l-6 -29q-16 -6 -36 -12q-20 -6 -46 -13l91 -295l207 295q-21 5 -40.5 11q-19.5 6 -35.5 14z" />
<glyph unicode="&#166;" horiz-adv-x="237" d="M120 190h52v-320h-52zM172 380h-52v320l52 0z" />
<glyph unicode="&#167;" horiz-adv-x="527" d="M379 44q1 30 -20.5 48q-21.5 18 -53.5 31.5q-32 13.5 -69.5 26q-37.5 12.5 -69.5 31q-32 18.5 -53.5 47.5q-21.5 29 -21.5 76q0 50 37.5 86q37.5 36 93.5 59q-21 10 -39 22q-18 12 -31.5 28.5q-13.5 16.5 -21.5 38q-8 21.5 -8 49.5q0 27 12 50q12 23 33.5 39.5q21.5 16.5 51.5 26q30 9.5 67 9.5q54 0 93 -5.5q39 -5.5 71 -17.5q-2 -16 -4.5 -27.5q-2.5 -11.5 -5.5 -22.5q-3 -11 -6.5 -23q-3.5 -12 -8.5 -28l-25 0l-56 72q-12 5 -22.5 6.5q-10.5 1.5 -26.5 2.5q-43 -1 -63.5 -24q-20.5 -23 -19.5 -49q-1 -30 20.5 -49.5q21.5 -19.5 53.5 -34.5q32 -15 69.5 -28.5q37.5 -13.5 69.5 -32.5q32 -19 53.5 -46q21.5 -27 21.5 -68q0 -29 -12 -52.5q-12 -23.5 -31 -42.5q-19 -19 -42 -33.5q-23 -14.5 -44 -24.5q20 -9 37.5 -19.5q17.5 -10.5 31 -24.5q13.5 -14 21.5 -31.5q8 -17.5 8 -40.5q0 -70 -53 -110q-53 -40 -142 -40q-84 0 -162 29q1 18 3 30.5q2 12.5 5 24q3 11.5 7.5 23q4.5 11.5 9.5 27.5l25 0l64 -79q11 -9 21.5 -10.5q10.5 -1.5 23.5 -1.5q49 0 79 24.5q30 24.5 29 58.5zt0 0zM410 313q1 24 -11.5 41.5q-12.5 17.5 -32.5 30q-20 12.5 -46 23q-26 10.5 -53 21.5q-33 -16 -60 -43.5q-27 -27.5 -26 -59.5q-1 -26 11.5 -45q12.5 -19 33 -33q20.5 -14 46.5 -25q26 -11 53 -21q17 10 32.5 24q15.5 14 27.5 28.5q12 14.5 19 29.5t6 29z" />
<glyph unicode="&#168;" horiz-adv-x="488" d="M179 662q0 24 15 38.5q15 14.5 40 14.5q24 0 39 -14.5q15 -14.5 15 -38.5q0 -23 -15 -37q-15 -14 -39 -14q-25 0 -40 14q-15 14 -15 37zt0 0zM381 662q0 24 15 38.5q15 14.5 39 14.5q25 0 40 -14.5q15 -14.5 15 -38.5q0 -23 -15 -37q-15 -14 -40 -14q-24 0 -39 14t-15 37z" />
<glyph unicode="&#169;" horiz-adv-x="807" d="M51 290q0 83 29.5 148.5q29.5 65.5 78.5 110.5q49 45 112.5 69q63.5 24 132.5 24q69 0 132.5 -24q63.5 -24 112 -69q48.5 -45 78 -110.5q29.5 -65.5 29.5 -148.5q0 -83 -29.5 -148.5q-29.5 -65.5 -78 -110.5q-48.5 -45 -112 -69q-63.5 -24 -132.5 -24q-72 0 -136.5 24q-64.5 24 -112.5 69q-48 45 -76 110.5q-28 65.5 -28 148.5zt0 0zM103 290q0 -69 23.5 -125.5q23.5 -56.5 64.5 -96q41 -39.5 96 -61.5q55 -22 117 -22q62 0 117 22q55 22 95.5 61.5q40.5 39.5 64 96q23.5 56.5 23.5 125.5q0 69 -25 125.5q-25 56.5 -66.5 96q-41.5 39.5 -96 61.5q-54.5 22 -112.5 22q-66 0 -121.5 -22q-55.5 -22 -95 -62q-39.5 -40 -62 -96q-22.5 -56 -22.5 -125zt0 0zM510 206h25q4 -15 6 -45.5q2 -30.5 -1 -54.5q-9 -7 -22.5 -11.5q-13.5 -4.5 -28.5 -7.5q-15 -3 -31 -4q-16 -1 -29 -1q-49 0 -89.5 13.5q-40.5 13.5 -70 40q-29.5 26.5 -46 65.5q-16.5 39 -16.5 90q0 52 18.5 91q18.5 39 48 65q29.5 26 67 39.5q37.5 13.5 75.5 13.5q39 0 70 -5.5q31 -5.5 51 -15.5q1 -9 1 -23.5q0 -14.5 -1 -30.5q-1 -16 -3 -31q-2 -15 -5 -25l-25 0l-30 83q-7 5 -22 5.5q-15 0.5 -29 1.5q-57 -1 -88.5 -45.5q-31.5 -44.5 -31.5 -122.5q0 -33 7 -63.5q7 -30.5 22.5 -54q15.5 -23.5 40.5 -37q25 -13.5 60 -13.5q20 0 32.5 4q12.5 4 16.5 8z" />
<glyph unicode="&#170;" horiz-adv-x="430" d="M283 488q-7 -14 -20 -33q-13 -19 -32 -36q-19 -17 -43 -29q-24 -12 -52 -12q-46 0 -71.5 30.5q-25.5 30.5 -25.5 85.5q0 49 17 89.5q17 40.5 46 69q29 28.5 67 44q38 15.5 80 15.5q20 0 41.5 -4.5q21.5 -4.5 38.5 -14.5l60 15l17 -8l-57 -269l51 -9v-18q-16 -11 -41 -18.5q-25 -7.5 -55 -7.5q-20 0 -26.5 11q-6.5 11 -4.5 25l14 74zM171 428q18 0 36.5 11.5q18.5 11.5 35.5 28q17 16.5 31 36q14 19.5 22 36.5l23 115q-14 6 -29.5 12q-15.5 6 -32.5 6q-25 0 -49 -11q-24 -11 -43 -33q-19 -22 -30.5 -54.5q-11.5 -32.5 -11.5 -74.5q0 -31 12 -51.5t36 -20.5z" />
<glyph unicode="&#171;" horiz-adv-x="461" d="M240 259l212 205l21 -19l-148 -187l76 -181l-29 -20zM46 259l257 207l21 -20l-181 -189l109 -181l-30 -21z" />
<glyph unicode="&#172;" horiz-adv-x="500" d="M37 387h425v-189h-62v126l-363 0z" />
<glyph unicode="&#173;" horiz-adv-x="425" d="M85 313h282l-13 -63l-283 0z" />
<glyph unicode="&#174;" horiz-adv-x="697" d="M127 451q0 64 21.5 113.5q21.5 49.5 58 83.5q36.5 34 85 51.5q48.5 17.5 102.5 17.5q56 0 104.5 -17.5q48.5 -17.5 84.5 -51.5q36 -34 57 -83.5q21 -49.5 21 -113.5q0 -65 -21.5 -114.5q-21.5 -49.5 -58 -83.5q-36.5 -34 -85 -51.5q-48.5 -17.5 -102.5 -17.5q-56 0 -104.5 17.5q-48.5 17.5 -84.5 51.5q-36 34 -57 83.5q-21 49.5 -21 114.5zt0 0zM174 451q0 -52 17.5 -93.5q17.5 -41.5 47.5 -71q30 -29.5 70 -45q40 -15.5 85 -14.5q47 -1 87.5 14.5q40.5 15.5 70 44.5q29.5 29 46 70.5q16.5 41.5 16.5 94.5q0 52 -17.5 93.5q-17.5 41.5 -47.5 70.5q-30 29 -70 45q-40 16 -85 15q-48 1 -88 -15q-40 -16 -69.5 -45q-29.5 -29 -46 -70.5q-16.5 -41.5 -16.5 -93.5zt0 0zM360 342q13 -1 21.5 -3.5q8.5 -2.5 15.5 -5.5l0 -24h-124v24q17 6 35 9l0 233q-11 1 -19 3.5q-8 2.5 -16 7.5l0 22h38q18 0 43 2q25 2 41 2q22 0 42.5 -4.5q20.5 -4.5 36.5 -15q16 -10.5 25 -26.5q9 -16 9 -38q0 -31 -21.5 -49q-21.5 -18 -49.5 -27q18 -29 34.5 -56.5q16.5 -27.5 45.5 -53.5l23 -12v-21h-50l-28 11q-25 30 -40 62q-15 32 -26 61l-36 0zM390 580q-11 0 -17.5 -0.5q-6.5 -0.5 -12.5 -2.5l0 -105h32q60 0 58 56q-1 26 -17.5 39t-42.5 13z" />
<glyph unicode="&#175;" horiz-adv-x="464" d="M206 637l10 52h254l-11 -52z" />
<glyph unicode="&#176;" horiz-adv-x="414" d="M127 571q0 31 11 57q11 26 30.5 44.5q19.5 18.5 45.5 29q26 10.5 55 10.5q29 0 55 -9q26 -9 45 -26.5q19 -17.5 30 -44q11 -26.5 11 -61.5q0 -33 -11 -59q-11 -26 -30 -44.5q-19 -18.5 -45 -28q-26 -9.5 -55 -9.5q-29 0 -55 9.5q-26 9.5 -45.5 28q-19.5 18.5 -30.5 44.5q-11 26 -11 59zt0 0zM183 571q0 -41 25.5 -66.5q25.5 -25.5 60.5 -25.5q38 0 61.5 24q23.5 24 23.5 68q0 42 -23.5 67q-23.5 25 -61.5 25q-39 0 -62.5 -25t-23.5 -67z" />
<glyph unicode="&#177;" horiz-adv-x="524" d="M37 490h198v210h53v-210h199v-53h-199v-154h-53v154h-198zM37 230h450v-53l-450 0z" />
<glyph unicode="&#178;" horiz-adv-x="421" d="M196 639h-22q-3 10 -7 27q-4 17 -7 36q-3 19 -4.5 36q-1.5 17 -1.5 27q20 11 38.5 20q18.5 9 38 15q19.5 6 41.5 9.5q22 3.5 51 3.5q40 0 67 -7.5q27 -7.5 43 -21q16 -13.5 23 -31.5q7 -18 7 -38q0 -37 -21.5 -73q-21.5 -36 -59 -70q-37.5 -34 -88 -65q-50.5 -31 -109.5 -59l0 -6l31 6h137l59 68h22q-1 -14 -3 -31.5q-2 -17.5 -4.5 -36q-2.5 -18.5 -5.5 -35q-3 -16.5 -6 -27.5l-339 0l8 33q61 34 115 70.5q54 36.5 94 73.5q40 37 63 74q23 37 23 71q0 26 -16 41.5q-16 15.5 -56 15.5q-19 0 -35 -3.5q-16 -3.5 -33 -11.5z" />
<glyph unicode="&#179;" horiz-adv-x="421" d="M250 423q30 0 51 10q21 10 33.5 24.5q12.5 14.5 18.5 31.5q6 17 6 31q0 28 -18 43q-18 15 -73 15h-34l6 26l106 109l56 42l1 2l-63 -5h-89l-56 -91h-22q-2 13 -2.5 32.5q-0.5 19.5 0.5 40.5q1 21 2 40q1 19 3 30l306 0l-7 -36l-111 -106l-49 -40l-1 -1l32 4q42 -3 69.5 -26q27.5 -23 27.5 -68q0 -32 -12 -60q-12 -28 -37.5 -49q-25.5 -21 -65.5 -33q-40 -12 -97 -12q-19 0 -40.5 3.5q-21.5 3.5 -41.5 10q-20 6.5 -37 15q-17 8.5 -28 17.5l54 92h18q4 -5 8 -15q4 -10 8 -21.5q4 -11.5 8 -23.5q4 -12 7 -22q8 -3 24 -6.5t39 -3.5z" />
<glyph unicode="&#180;" horiz-adv-x="512" d="M352 767q8 1 21 -0.5q13 -1.5 27 -4.5q14 -3 26 -7.5q12 -4.5 18 -9.5l0 -19l-197 -151l-22 18z" />
<glyph unicode="&#181;" horiz-adv-x="574" d="M157 15l4 -190l-5 -25q-51 -13 -91 0l135 642l-60 8v26q35 13 70 22q35 9 67 14l23 -11q-8 -37 -15 -68q-7 -31 -14.5 -63q-7.5 -32 -15.5 -68.5q-8 -36.5 -18 -85.5q-8 -39 -12 -70q-4 -31 -2.5 -52.5q1.5 -21.5 10.5 -32.5q9 -11 28 -11q22 0 48 17q26 17 51.5 47q25.5 30 49.5 70.5q24 40.5 42 88.5l42 223l85 5l-83 -445l74 -1l-1 -26q-23 -14 -42.5 -27.5q-19.5 -13.5 -39.5 -14.5q-13 0 -23 7l-53 37l29 164h-4q-51 -108 -103.5 -157.5q-52.5 -49.5 -112.5 -49.5q-17 0 -29 6q-12 6 -28 21z" />
<glyph unicode="&#182;" horiz-adv-x="511" d="M404 94q0 -67 -9 -109.5q-9 -42.5 -26 -68q-17 -25.5 -40.5 -37.5q-23.5 -12 -51.5 -18q-20 -32 -47 -48.5q-27 -16.5 -53 -24.5l-11 20q22 9 40.5 24.5q18.5 15.5 32 40.5q13.5 25 21 62q7.5 37 7.5 89v286q-32 0 -63.5 10q-31.5 10 -57 32.5q-25.5 22.5 -41.5 59q-16 36.5 -16 88.5q0 42 12.5 78.5q12.5 36.5 37 63.5q24.5 27 62.5 42.5q38 15.5 89 15.5h190v-30q-17 -8 -35 -14q-18 -6 -41 -10zM288 -116q42 17 56 69q14 52 14 141v557h-44v-627q0 -40 -6 -77t-20 -63z" />
<glyph unicode="&#183;" horiz-adv-x="230" d="M60 307q0 30 19 48q19 18 49 18q31 0 50 -18q19 -18 19 -48q0 -29 -19 -47q-19 -18 -50 -18q-30 0 -49 18t-19 47z" />
<glyph unicode="&#184;" horiz-adv-x="445" d="M196 -68q42 -2 60 -19.5q18 -17.5 20 -46.5q1 -31 -17.5 -53.5q-18.5 -22.5 -46.5 -37q-28 -14.5 -60.5 -21q-32.5 -6.5 -59.5 -5.5l0 30q19 3 38 8.5q19 5.5 34 13.5q15 8 24 19.5q9 11.5 8 25.5q0 9 -2.5 17q-2.5 8 -9 14.5q-6.5 6.5 -18.5 11q-12 4.5 -32 6.5l56 106l46 0z" />
<glyph unicode="&#185;" horiz-adv-x="421" d="M393 386h-280l5 21q58 24 109 34l52 247l15 45q-25 -7 -56.5 -9.5q-31.5 -2.5 -59.5 -1.5l6 29q44 9 86 25.5q42 16.5 83 36.5l31 0l-79 -372q25 -6 49 -14q24 -8 44 -20z" />
<glyph unicode="&#186;" horiz-adv-x="436" d="M39 500q0 46 18 85q18 39 48 67q30 28 69 44q39 16 81 16q69 0 106 -36q37 -36 37 -93q0 -52 -19.5 -91.5q-19.5 -39.5 -50 -66q-30.5 -26.5 -69 -40q-38.5 -13.5 -76.5 -13.5q-30 0 -56.5 9.5q-26.5 9.5 -46 26.5q-19.5 17 -30.5 40.5q-11 23.5 -11 51.5zt0 0zM122 499q0 -18 3.5 -34q3.5 -16 12 -28.5q8.5 -12.5 21.5 -20q13 -7.5 31 -7.5q22 0 44.5 11q22.5 11 40.5 34q18 23 29 58q11 35 11 83q0 15 -3.5 29q-3.5 14 -11.5 25.5q-8 11.5 -21 18q-13 6.5 -33 6.5q-22 0 -44 -13.5q-22 -13.5 -40 -36.5q-18 -23 -29 -55.5t-11 -69.5z" />
<glyph unicode="&#187;" horiz-adv-x="461" d="M261 262l-213 -205l-20 19l147 187l-75 181l28 20zM454 262l-256 -207l-21 20l181 189l-109 181l30 21z" />
<glyph unicode="&#188;" horiz-adv-x="929" d="M818 710l35 -31l-665 -686l-34 32zM348 282h-280l5 21q58 24 109 34l52 247l15 45q-25 -7 -56.5 -9.5q-31.5 -2.5 -59.5 -1.5l6 29q44 9 86 25.5q42 16.5 83 36.5l31 0l-79 -372q25 -6 49 -14q24 -8 44 -20zM836 0h-210l5 21q18 9 37.5 14.5q19.5 5.5 40.5 9.5l15 72h-240l4 24l345 286h35l-56 -263h94l-9 -47h-94l-15 -72q14 -3 26.5 -8q12.5 -5 26.5 -16zM761 294l21 43h-3l-42 -43l-132 -114l-40 -23l64 7l105 0z" />
<glyph unicode="&#189;" horiz-adv-x="994" d="M818 710l35 -31l-665 -686l-34 32zM348 282h-280l5 21q58 24 109 34l52 247l15 45q-25 -7 -56.5 -9.5q-31.5 -2.5 -59.5 -1.5l6 29q44 9 86 25.5q42 16.5 83 36.5l31 0l-79 -372q25 -6 49 -14q24 -8 44 -20zM696 253h-22q-3 10 -7 27q-4 17 -7 36q-3 19 -4.5 36q-1.5 17 -1.5 27q20 11 38.5 20q18.5 9 38 15q19.5 6 41.5 9.5q22 3.5 51 3.5q40 0 67 -7.5q27 -7.5 43 -21q16 -13.5 23 -31.5q7 -18 7 -38q0 -37 -21.5 -73q-21.5 -36 -59 -70q-37.5 -34 -88 -65q-50.5 -31 -109.5 -59l0 -6l31 6h137l59 68h22q-1 -14 -3 -31.5q-2 -17.5 -4.5 -36q-2.5 -18.5 -5.5 -35q-3 -16.5 -6 -27.5l-339 0l8 33q61 34 115 70.5q54 36.5 94 73.5q40 37 63 74q23 37 23 71q0 26 -16 41.5q-16 15.5 -56 15.5q-19 0 -35 -3.5q-16 -3.5 -33 -11.5z" />
<glyph unicode="&#190;" horiz-adv-x="981" d="M868 710l35 -31l-665 -686l-34 32zM240 319q30 0 51 10q21 10 33.5 24.5q12.5 14.5 18.5 31.5q6 17 6 31q0 28 -18 43q-18 15 -73 15h-34l6 26l106 109l56 42l1 2l-63 -5h-89l-56 -91h-22q-2 13 -2.5 32.5q-0.5 19.5 0.5 40.5q1 21 2 40q1 19 3 30l306 0l-7 -36l-111 -106l-49 -40l-1 -1l32 4q42 -3 69.5 -26q27.5 -23 27.5 -68q0 -32 -12 -60q-12 -28 -37.5 -49q-25.5 -21 -65.5 -33q-40 -12 -97 -12q-19 0 -40.5 3.5q-21.5 3.5 -41.5 10q-20 6.5 -37 15q-17 8.5 -28 17.5l54 92h18q4 -5 8 -15q4 -10 8 -21.5q4 -11.5 8 -23.5q4 -12 7 -22q8 -3 24 -6.5q16 -3.5 39 -3.5zt0 0zM894 0h-210l5 21q18 9 37.5 14.5q19.5 5.5 40.5 9.5l15 72h-240l4 24l345 286h35l-56 -263h94l-9 -47h-94l-15 -72q14 -3 26.5 -8q12.5 -5 26.5 -16zM819 294l21 43h-3l-42 -43l-132 -114l-40 -23l64 7l105 0z" />
<glyph unicode="&#191;" horiz-adv-x="473" d="M299 -15h25q3 -21 7 -50.5q4 -29.5 4 -60.5q0 -11 -0.5 -20.5q-0.5 -9.5 -1.5 -19.5q-43 -23 -86 -32.5q-43 -9.5 -95 -9.5q-80 0 -123 35q-43 35 -43 98q0 50 21 87q21 37 53 66.5q32 29.5 70 55q38 25.5 72 53q34 27.5 59 60q25 32.5 31 76.5l19 0q4 -52 -11 -91q-15 -39 -40.5 -70.5q-25.5 -31.5 -56 -57.5q-30.5 -26 -57.5 -52.5q-27 -26.5 -45 -55.5q-18 -29 -19 -65q1 -45 27 -66.5q26 -21.5 67 -20.5q32 -1 53 4.5q21 5.5 31 13.5zM242 446q0 30 19 48q19 18 49 18q31 0 50 -18q19 -18 19 -48q0 -29 -19 -47q-19 -18 -50 -18q-30 0 -49 18t-19 47z" />
<glyph unicode="&#192;" horiz-adv-x="674" d="M176 0h-225l6 29q39 16 78 24l395 659h26l113 -659q18 -4 36.5 -9.5q18.5 -5.5 33.5 -14.5l-5 -29h-254l5 29q45 17 88 24l-30 183h-235l-107 -183q43 -6 80 -24zM237 288h198l-32 212l-2 86h-2l-40 -88zM485 769l-17 -19l-226 91v20q6 7 19 13.5q13 6.5 28 11q15 4.5 29 6.5q14 2 22 1z" />
<glyph unicode="&#193;" horiz-adv-x="674" d="M176 0h-225l6 29q39 16 78 24l395 659h26l113 -659q18 -4 36.5 -9.5q18.5 -5.5 33.5 -14.5l-5 -29h-254l5 29q45 17 88 24l-30 183h-235l-107 -183q43 -6 80 -24zM237 288h198l-32 212l-2 86h-2l-40 -88zM567 893q9 1 23 -1q14 -2 28.5 -6.5q14.5 -4.5 27 -11q12.5 -6.5 18.5 -13.5l0 -20l-226 -91l-17 19z" />
<glyph unicode="&#194;" horiz-adv-x="674" d="M176 0h-225l6 29q39 16 78 24l395 659h26l113 -659q18 -4 36.5 -9.5q18.5 -5.5 33.5 -14.5l-5 -29h-254l5 29q45 17 88 24l-30 183h-235l-107 -183q43 -6 80 -24zM237 288h198l-32 212l-2 86h-2l-40 -88zM312 752l-14 19l167 112q5 4 14 4q8 0 12 -4l85 -109l-15 -21l-100 56z" />
<glyph unicode="&#195;" horiz-adv-x="674" d="M176 0h-225l6 29q39 16 78 24l395 659h26l113 -659q18 -4 36.5 -9.5q18.5 -5.5 33.5 -14.5l-5 -29h-254l5 29q45 17 88 24l-30 183h-235l-107 -183q43 -6 80 -24zM237 288h198l-32 212l-2 86h-2l-40 -88zM627 821q-32 -32 -59 -44q-27 -12 -52 -12q-19 0 -35.5 5.5q-16.5 5.5 -32.5 11.5q-16 6 -31 11.5q-15 5.5 -31 5.5q-14 0 -28 -5.5q-14 -5.5 -30 -19.5l-19 29q38 34 67.5 46.5q29.5 12.5 53.5 12.5q18 0 34.5 -5q16.5 -5 31.5 -11q15 -6 30 -11q15 -5 31 -5q13 0 27 4.5q14 4.5 30 15.5z" />
<glyph unicode="&#196;" horiz-adv-x="674" d="M176 0h-225l6 29q39 16 78 24l395 659h26l113 -659q18 -4 36.5 -9.5q18.5 -5.5 33.5 -14.5l-5 -29h-254l5 29q45 17 88 24l-30 183h-235l-107 -183q43 -6 80 -24zM237 288h198l-32 212l-2 86h-2l-40 -88zM283 789q0 24 16.5 36q16.5 12 40.5 12q25 0 41 -12q16 -12 16 -36q0 -23 -16 -35q-16 -12 -41 -12q-24 0 -40.5 12q-16.5 12 -16.5 35zt0 0zM506 789q0 24 16 36q16 12 41 12q24 0 40 -12q16 -12 17 -36q-1 -23 -17 -35q-16 -12 -40 -12q-25 0 -41 12t-16 35z" />
<glyph unicode="&#197;" horiz-adv-x="674" d="M346 778q0 20 11 37.5q11 17.5 29 30.5q18 13 42 20.5q24 7.5 51 7.5q17 0 33.5 -3q16.5 -3 29 -11.5q12.5 -8.5 20.5 -22.5q8 -14 8 -35q0 -19 -9.5 -35q-9.5 -16 -25.5 -28.5q-16 -12.5 -36.5 -20q-20.5 -7.5 -42.5 -9.5l113 -656q18 -4 36.5 -9.5q18.5 -5.5 33.5 -14.5l-5 -29h-254l5 29q45 17 88 24l-30 183h-235l-107 -183q43 -6 80 -24l-5 -29h-225l6 29q39 16 78 24l393 656q-38 2 -60 19.5q-22 17.5 -22 49.5zt0 0zM237 288h198l-32 212l-2 86h-2l-40 -88zM402 781q0 -17 13 -24q13 -7 32 -7q29 0 48 13.5q19 13.5 19 33.5q0 20 -13 28q-13 8 -32 8q-29 0 -48 -14.5t-19 -37.5z" />
<glyph unicode="&#198;" horiz-adv-x="913" d="M943 700q-15 -77 -46 -162l-26 0l-17 110h-219l-55 -265h162l55 74h25q-7 -50 -17 -102q-10 -52 -26 -100l-24 0l-24 76h-162l-60 -280h230l75 121h25q-2 -41 -8 -84.5q-6 -43.5 -17 -87.5l-493 0l5 29q41 17 88 24l43 203h-193l-157 -203q21 -3 40 -9q19 -6 39 -15l-5 -29h-230l6 29q39 16 78 24l479 599q-29 6 -54 19l7 29zM304 307h164l65 304h-2l-59 -93z" />
<glyph unicode="&#199;" horiz-adv-x="635" d="M557 182h25q0 -28 -5.5 -70.5q-5.5 -42.5 -16.5 -82.5q-38 -22 -86 -31q-48 -9 -90 -10l-37 -63q55 -1 73.5 -21.5q18.5 -20.5 18.5 -51.5q0 -32 -20.5 -55.5q-20.5 -23.5 -50.5 -38.5q-30 -15 -65 -22.5q-35 -7.5 -64 -7.5l0 33q19 3 39.5 8.5q20.5 5.5 36.5 14.5q16 9 26 22q10 13 10 31q0 10 -3 18.5q-3 8.5 -10.5 14q-7.5 5.5 -20.5 9q-13 3.5 -35 5.5l53 106q-74 6 -125 31.5q-51 25.5 -83 63q-32 37.5 -46.5 83q-14.5 45.5 -14.5 90.5q0 102 29 185.5q29 83.5 82.5 143q53.5 59.5 130 92.5q76.5 33 172.5 33q66 0 112 -9q46 -9 77 -25q-3 -16 -8.5 -37.5q-5.5 -21.5 -13 -45.5q-7.5 -24 -15.5 -47q-8 -23 -15 -42l-26 0l-21 144q-13 5 -39.5 7.5q-26.5 2.5 -51.5 2.5q-66 0 -122 -25.5q-56 -25.5 -97 -75.5q-41 -50 -64 -125q-23 -75 -23 -174q0 -62 21.5 -104.5q21.5 -42.5 54 -68.5q32.5 -26 70.5 -37q38 -11 72 -10q34 -1 57.5 5q23.5 6 34.5 13z" />
<glyph unicode="&#200;" horiz-adv-x="572" d="M601 700q-8 -40 -19 -81q-11 -41 -26 -81l-26 0l-17 110h-219l-55 -265h162l55 74h25q-8 -50 -18.5 -100.5q-10.5 -50.5 -24.5 -101.5l-25 0l-23 76h-163l-58 -279h229l75 120h25q-2 -39 -8 -83.5q-6 -44.5 -17 -88.5l-493 0l5 29q41 17 88 24l125 593q-20 5 -39 11q-19 6 -38 14l7 29zM458 769l-17 -19l-226 91v20q6 7 19 13.5q13 6.5 28 11q15 4.5 29 6.5q14 2 22 1z" />
<glyph unicode="&#201;" horiz-adv-x="572" d="M601 700q-8 -40 -19 -81q-11 -41 -26 -81l-26 0l-17 110h-219l-55 -265h162l55 74h25q-8 -50 -18.5 -100.5q-10.5 -50.5 -24.5 -101.5l-25 0l-23 76h-163l-58 -279h229l75 120h25q-2 -39 -8 -83.5q-6 -44.5 -17 -88.5l-493 0l5 29q41 17 88 24l125 593q-20 5 -39 11q-19 6 -38 14l7 29zM463 893q9 1 23 -1q14 -2 28.5 -6.5q14.5 -4.5 27 -11q12.5 -6.5 18.5 -13.5l0 -20l-226 -91l-17 19z" />
<glyph unicode="&#202;" horiz-adv-x="572" d="M601 700q-8 -40 -19 -81q-11 -41 -26 -81l-26 0l-17 110h-219l-55 -265h162l55 74h25q-8 -50 -18.5 -100.5q-10.5 -50.5 -24.5 -101.5l-25 0l-23 76h-163l-58 -279h229l75 120h25q-2 -39 -8 -83.5q-6 -44.5 -17 -88.5l-493 0l5 29q41 17 88 24l125 593q-20 5 -39 11q-19 6 -38 14l7 29zM276 752l-14 19l167 112q5 4 14 4q8 0 12 -4l85 -109l-15 -21l-100 56z" />
<glyph unicode="&#203;" horiz-adv-x="572" d="M601 700q-8 -40 -19 -81q-11 -41 -26 -81l-26 0l-17 110h-219l-55 -265h162l55 74h25q-8 -50 -18.5 -100.5q-10.5 -50.5 -24.5 -101.5l-25 0l-23 76h-163l-58 -279h229l75 120h25q-2 -39 -8 -83.5q-6 -44.5 -17 -88.5l-493 0l5 29q41 17 88 24l125 593q-20 5 -39 11q-19 6 -38 14l7 29zM229 789q0 24 16.5 36q16.5 12 40.5 12q25 0 41 -12q16 -12 16 -36q0 -23 -16 -35q-16 -12 -41 -12q-24 0 -40.5 12q-16.5 12 -16.5 35zt0 0zM452 789q0 24 16 36q16 12 41 12q24 0 40 -12q16 -12 17 -36q-1 -23 -17 -35q-16 -12 -40 -12q-25 0 -41 12t-16 35z" />
<glyph unicode="&#204;" horiz-adv-x="343" d="M255 0h-256l5 29q44 18 86 24l125 593q-20 4 -38 10.5q-18 6.5 -37 14.5l7 29h256l-6 -29q-20 -8 -43 -14.5q-23 -6.5 -43 -10.5l-125 -593q20 -4 39.5 -10q19.5 -6 34.5 -14zM358 769l-17 -19l-226 91v20q6 7 19 13.5q13 6.5 28 11q15 4.5 29 6.5q14 2 22 1z" />
<glyph unicode="&#205;" horiz-adv-x="343" d="M255 0h-256l5 29q44 18 86 24l125 593q-20 4 -38 10.5q-18 6.5 -37 14.5l7 29h256l-6 -29q-20 -8 -43 -14.5q-23 -6.5 -43 -10.5l-125 -593q20 -4 39.5 -10q19.5 -6 34.5 -14zM339 893q9 1 23 -1q14 -2 28.5 -6.5q14.5 -4.5 27 -11q12.5 -6.5 18.5 -13.5l0 -20l-226 -91l-17 19z" />
<glyph unicode="&#206;" horiz-adv-x="343" d="M255 0h-256l5 29q44 18 86 24l125 593q-20 4 -38 10.5q-18 6.5 -37 14.5l7 29h256l-6 -29q-20 -8 -43 -14.5q-23 -6.5 -43 -10.5l-125 -593q20 -4 39.5 -10q19.5 -6 34.5 -14zM151 752l-14 19l167 112q5 4 14 4q8 0 12 -4l85 -109l-15 -21l-100 56z" />
<glyph unicode="&#207;" horiz-adv-x="343" d="M255 0h-256l5 29q44 18 86 24l125 593q-20 4 -38 10.5q-18 6.5 -37 14.5l7 29h256l-6 -29q-20 -8 -43 -14.5q-23 -6.5 -43 -10.5l-125 -593q20 -4 39.5 -10q19.5 -6 34.5 -14zM112 789q0 24 16.5 36q16.5 12 40.5 12q25 0 41 -12q16 -12 16 -36q0 -23 -16 -35q-16 -12 -41 -12q-24 0 -40.5 12q-16.5 12 -16.5 35zt0 0zM335 789q0 24 16 36q16 12 41 12q24 0 40 -12q16 -12 17 -36q-1 -23 -17 -35q-16 -12 -40 -12q-25 0 -41 12t-16 35z" />
<glyph unicode="&#208;" horiz-adv-x="702" d="M-20 0l5 29q41 17 88 24l59 278h-90l11 52h89l56 263q-22 5 -41.5 11.5q-19.5 6.5 -35.5 13.5l7 29h101q17 0 40.5 1q23.5 1 48 2.5q24.5 1.5 47.5 3q23 1.5 38 1.5q80 0 136 -19q56 -19 90.5 -51.5q34.5 -32.5 50 -77q15.5 -44.5 15.5 -95.5q0 -51 -8.5 -106.5q-8.5 -55.5 -28.5 -108q-20 -52.5 -53.5 -99.5q-33.5 -47 -84 -82.5q-50.5 -35.5 -119.5 -56.5q-69 -21 -159 -21q-15 0 -35.5 1.5q-20.5 1.5 -43.5 3q-23 1.5 -46 3q-23 1.5 -42 1.5zM383 656q-26 0 -53 -1q-27 -1 -41 -3l-57 -269h167l-11 -52h-167l-60 -285q10 -1 24.5 -1.5q14.5 -0.5 29 -1q14.5 -0.5 26 -1q11.5 -0.5 17.5 0.5q94 -1 157.5 37q63.5 38 102 99.5q38.5 61.5 54.5 138q16 76.5 16 153.5q0 39 -9 73q-9 34 -32 58.5q-23 24.5 -62.5 39t-101.5 14.5z" />
<glyph unicode="&#209;" horiz-adv-x="723" d="M588 700h213l-6 -29q-20 -14 -44 -24q-24 -10 -46 -16l-137 -643h-54l-251 551l-21 78h-3l-10 -78l-100 -475q18 -5 36 -14q18 -9 33 -21l-6 -29h-212l5 29q43 26 90 35l122 573q-19 8 -36.5 17q-17.5 9 -31.5 18l5 28h166l215 -475l30 -86h4l16 86l86 406q-40 17 -69 40zM630 821q-32 -32 -59 -44q-27 -12 -52 -12q-19 0 -35.5 5.5q-16.5 5.5 -32.5 11.5q-16 6 -31 11.5q-15 5.5 -31 5.5q-14 0 -28 -5.5q-14 -5.5 -30 -19.5l-19 29q38 34 67.5 46.5q29.5 12.5 53.5 12.5q18 0 34.5 -5q16.5 -5 31.5 -11q15 -6 30 -11q15 -5 31 -5q13 0 27 4.5q14 4.5 30 15.5z" />
<glyph unicode="&#210;" horiz-adv-x="730" d="M66 278q0 91 27.5 170q27.5 79 79.5 137.5q52 58.5 125 92.5q73 34 165 34q73 0 123 -24q50 -24 80.5 -63q30.5 -39 44 -89.5q13.5 -50.5 13.5 -104.5q0 -80 -22.5 -159.5q-22.5 -79.5 -69.5 -142.5q-47 -63 -118.5 -102q-71.5 -39 -169.5 -39q-72 0 -124.5 23.5q-52.5 23.5 -86.5 63q-34 39.5 -50.5 92q-16.5 52.5 -16.5 111.5zt0 0zM173 277q0 -55 14.5 -99q14.5 -44 40 -75q25.5 -31 60 -47.5q34.5 -16.5 75.5 -15.5q73 -1 121.5 35.5q48.5 36.5 78 94q29.5 57.5 42 127q12.5 69.5 12.5 135.5q0 51 -11.5 93q-11.5 42 -34.5 72q-23 30 -56.5 46.5q-33.5 16.5 -77.5 16.5q-69 0 -119 -36q-50 -36 -82.5 -92q-32.5 -56 -47.5 -124q-15 -68 -15 -131zt0 0zM536 769l-17 -19l-226 91v20q6 7 19 13.5q13 6.5 28 11q15 4.5 29 6.5q14 2 22 1z" />
<glyph unicode="&#211;" horiz-adv-x="730" d="M66 278q0 91 27.5 170q27.5 79 79.5 137.5q52 58.5 125 92.5q73 34 165 34q73 0 123 -24q50 -24 80.5 -63q30.5 -39 44 -89.5q13.5 -50.5 13.5 -104.5q0 -80 -22.5 -159.5q-22.5 -79.5 -69.5 -142.5q-47 -63 -118.5 -102q-71.5 -39 -169.5 -39q-72 0 -124.5 23.5q-52.5 23.5 -86.5 63q-34 39.5 -50.5 92q-16.5 52.5 -16.5 111.5zt0 0zM173 277q0 -55 14.5 -99q14.5 -44 40 -75q25.5 -31 60 -47.5q34.5 -16.5 75.5 -15.5q73 -1 121.5 35.5q48.5 36.5 78 94q29.5 57.5 42 127q12.5 69.5 12.5 135.5q0 51 -11.5 93q-11.5 42 -34.5 72q-23 30 -56.5 46.5q-33.5 16.5 -77.5 16.5q-69 0 -119 -36q-50 -36 -82.5 -92q-32.5 -56 -47.5 -124q-15 -68 -15 -131zt0 0zM538 893q9 1 23 -1q14 -2 28.5 -6.5q14.5 -4.5 27 -11q12.5 -6.5 18.5 -13.5l0 -20l-226 -91l-17 19z" />
<glyph unicode="&#212;" horiz-adv-x="730" d="M66 278q0 91 27.5 170q27.5 79 79.5 137.5q52 58.5 125 92.5q73 34 165 34q73 0 123 -24q50 -24 80.5 -63q30.5 -39 44 -89.5q13.5 -50.5 13.5 -104.5q0 -80 -22.5 -159.5q-22.5 -79.5 -69.5 -142.5q-47 -63 -118.5 -102q-71.5 -39 -169.5 -39q-72 0 -124.5 23.5q-52.5 23.5 -86.5 63q-34 39.5 -50.5 92q-16.5 52.5 -16.5 111.5zt0 0zM173 277q0 -55 14.5 -99q14.5 -44 40 -75q25.5 -31 60 -47.5q34.5 -16.5 75.5 -15.5q73 -1 121.5 35.5q48.5 36.5 78 94q29.5 57.5 42 127q12.5 69.5 12.5 135.5q0 51 -11.5 93q-11.5 42 -34.5 72q-23 30 -56.5 46.5q-33.5 16.5 -77.5 16.5q-69 0 -119 -36q-50 -36 -82.5 -92q-32.5 -56 -47.5 -124q-15 -68 -15 -131zt0 0zM340 752l-14 19l167 112q5 4 14 4q8 0 12 -4l85 -109l-15 -21l-100 56z" />
<glyph unicode="&#213;" horiz-adv-x="730" d="M66 278q0 91 27.5 170q27.5 79 79.5 137.5q52 58.5 125 92.5q73 34 165 34q73 0 123 -24q50 -24 80.5 -63q30.5 -39 44 -89.5q13.5 -50.5 13.5 -104.5q0 -80 -22.5 -159.5q-22.5 -79.5 -69.5 -142.5q-47 -63 -118.5 -102q-71.5 -39 -169.5 -39q-72 0 -124.5 23.5q-52.5 23.5 -86.5 63q-34 39.5 -50.5 92q-16.5 52.5 -16.5 111.5zt0 0zM173 277q0 -55 14.5 -99q14.5 -44 40 -75q25.5 -31 60 -47.5q34.5 -16.5 75.5 -15.5q73 -1 121.5 35.5q48.5 36.5 78 94q29.5 57.5 42 127q12.5 69.5 12.5 135.5q0 51 -11.5 93q-11.5 42 -34.5 72q-23 30 -56.5 46.5q-33.5 16.5 -77.5 16.5q-69 0 -119 -36q-50 -36 -82.5 -92q-32.5 -56 -47.5 -124q-15 -68 -15 -131zt0 0zM632 821q-32 -32 -59 -44q-27 -12 -52 -12q-19 0 -35.5 5.5q-16.5 5.5 -32.5 11.5q-16 6 -31 11.5q-15 5.5 -31 5.5q-14 0 -28 -5.5q-14 -5.5 -30 -19.5l-19 29q38 34 67.5 46.5q29.5 12.5 53.5 12.5q18 0 34.5 -5q16.5 -5 31.5 -11q15 -6 30 -11q15 -5 31 -5q13 0 27 4.5q14 4.5 30 15.5z" />
<glyph unicode="&#214;" horiz-adv-x="730" d="M66 278q0 91 27.5 170q27.5 79 79.5 137.5q52 58.5 125 92.5q73 34 165 34q73 0 123 -24q50 -24 80.5 -63q30.5 -39 44 -89.5q13.5 -50.5 13.5 -104.5q0 -80 -22.5 -159.5q-22.5 -79.5 -69.5 -142.5q-47 -63 -118.5 -102q-71.5 -39 -169.5 -39q-72 0 -124.5 23.5q-52.5 23.5 -86.5 63q-34 39.5 -50.5 92q-16.5 52.5 -16.5 111.5zt0 0zM173 277q0 -55 14.5 -99q14.5 -44 40 -75q25.5 -31 60 -47.5q34.5 -16.5 75.5 -15.5q73 -1 121.5 35.5q48.5 36.5 78 94q29.5 57.5 42 127q12.5 69.5 12.5 135.5q0 51 -11.5 93q-11.5 42 -34.5 72q-23 30 -56.5 46.5q-33.5 16.5 -77.5 16.5q-69 0 -119 -36q-50 -36 -82.5 -92q-32.5 -56 -47.5 -124q-15 -68 -15 -131zt0 0zM299 789q0 24 16.5 36q16.5 12 40.5 12q25 0 41 -12q16 -12 16 -36q0 -23 -16 -35q-16 -12 -41 -12q-24 0 -40.5 12q-16.5 12 -16.5 35zt0 0zM522 789q0 24 16 36q16 12 41 12q24 0 40 -12q16 -12 17 -36q-1 -23 -17 -35q-16 -12 -40 -12q-25 0 -41 12t-16 35z" />
<glyph unicode="&#215;" horiz-adv-x="524" d="M83 204l140 140l-138 139l37 37l139 -138l140 140l37 -37l-140 -140l143 -143l-38 -38l-143 143l-140 -140z" />
<glyph unicode="&#216;" horiz-adv-x="730" d="M66 278q0 91 27.5 170q27.5 79 79.5 137.5q52 58.5 125 92.5q73 34 165 34q52 0 91.5 -12q39.5 -12 68.5 -33l39 46l40 -32l-41 -49q34 -39 48.5 -92q14.5 -53 14.5 -109q0 -80 -22.5 -159.5q-22.5 -79.5 -69.5 -142.5q-47 -63 -118.5 -102q-71.5 -39 -169.5 -39q-57 0 -101 14.5q-44 14.5 -77 40.5l-47 -56l-39 33l49 58q-32 40 -47.5 91.5q-15.5 51.5 -15.5 108.5zt0 0zM363 40q48 -1 85.5 15.5q37.5 16.5 65.5 45q28 28.5 47.5 66.5q19.5 38 31.5 81q12 43 17.5 88.5q5.5 45.5 6.5 89.5q-1 70 -24 125l-370 -441q52 -71 140 -70zt0 0zM437 660q-69 0 -118.5 -35.5q-49.5 -35.5 -81.5 -90q-32 -54.5 -47.5 -121.5q-15.5 -67 -16.5 -130q0 -35 6 -66.5q6 -31.5 17 -57.5l371 441q-23 29 -55.5 44.5t-74.5 15.5z" />
<glyph unicode="&#217;" horiz-adv-x="666" d="M112 700h254l-6 -29q-39 -17 -81 -25l-85 -397q-11 -53 -6 -90.5q5 -37.5 24 -61.5q19 -24 50 -35q31 -11 72 -11q81 0 129.5 45q48.5 45 68.5 142l85 399q-44 15 -72 34l6 29h214l-7 -29q-17 -11 -40 -20q-23 -9 -45 -14l-85 -401q-28 -131 -98.5 -188q-70.5 -57 -181.5 -57q-66 0 -111.5 19q-45.5 19 -71.5 52.5q-26 33.5 -33 80q-7 46.5 5 100.5l86 403q-20 4 -41 10.5q-21 6.5 -36 14.5zM504 769l-17 -19l-226 91v20q6 7 19 13.5q13 6.5 28 11q15 4.5 29 6.5q14 2 22 1z" />
<glyph unicode="&#218;" horiz-adv-x="666" d="M112 700h254l-6 -29q-39 -17 -81 -25l-85 -397q-11 -53 -6 -90.5q5 -37.5 24 -61.5q19 -24 50 -35q31 -11 72 -11q81 0 129.5 45q48.5 45 68.5 142l85 399q-44 15 -72 34l6 29h214l-7 -29q-17 -11 -40 -20q-23 -9 -45 -14l-85 -401q-28 -131 -98.5 -188q-70.5 -57 -181.5 -57q-66 0 -111.5 19q-45.5 19 -71.5 52.5q-26 33.5 -33 80q-7 46.5 5 100.5l86 403q-20 4 -41 10.5q-21 6.5 -36 14.5zM569 893q9 1 23 -1q14 -2 28.5 -6.5q14.5 -4.5 27 -11q12.5 -6.5 18.5 -13.5l0 -20l-226 -91l-17 19z" />
<glyph unicode="&#219;" horiz-adv-x="666" d="M112 700h254l-6 -29q-39 -17 -81 -25l-85 -397q-11 -53 -6 -90.5q5 -37.5 24 -61.5q19 -24 50 -35q31 -11 72 -11q81 0 129.5 45q48.5 45 68.5 142l85 399q-44 15 -72 34l6 29h214l-7 -29q-17 -11 -40 -20q-23 -9 -45 -14l-85 -401q-28 -131 -98.5 -188q-70.5 -57 -181.5 -57q-66 0 -111.5 19q-45.5 19 -71.5 52.5q-26 33.5 -33 80q-7 46.5 5 100.5l86 403q-20 4 -41 10.5q-21 6.5 -36 14.5zM326 752l-14 19l167 112q5 4 14 4q8 0 12 -4l85 -109l-15 -21l-100 56z" />
<glyph unicode="&#220;" horiz-adv-x="666" d="M112 700h254l-6 -29q-39 -17 -81 -25l-85 -397q-11 -53 -6 -90.5q5 -37.5 24 -61.5q19 -24 50 -35q31 -11 72 -11q81 0 129.5 45q48.5 45 68.5 142l85 399q-44 15 -72 34l6 29h214l-7 -29q-17 -11 -40 -20q-23 -9 -45 -14l-85 -401q-28 -131 -98.5 -188q-70.5 -57 -181.5 -57q-66 0 -111.5 19q-45.5 19 -71.5 52.5q-26 33.5 -33 80q-7 46.5 5 100.5l86 403q-20 4 -41 10.5q-21 6.5 -36 14.5zM302 789q0 24 16.5 36q16.5 12 40.5 12q25 0 41 -12q16 -12 16 -36q0 -23 -16 -35q-16 -12 -41 -12q-24 0 -40.5 12q-16.5 12 -16.5 35zt0 0zM525 789q0 24 16 36q16 12 41 12q24 0 40 -12q16 -12 17 -36q-1 -23 -17 -35q-16 -12 -40 -12q-25 0 -41 12t-16 35z" />
<glyph unicode="&#221;" horiz-adv-x="635" d="M520 700h223l-7 -29q-20 -10 -40 -15.5q-20 -5.5 -40 -9.5l-263 -348l-52 -245q37 -5 70 -24l-5 -29h-254l5 29q40 18 88 24l52 244l-129 349q-22 4 -40.5 10.5q-18.5 6.5 -35.5 14.5l7 29h264l-6 -29q-16 -6 -36 -13q-20 -7 -46 -12l101 -294l212 294q-21 5 -39.5 11q-18.5 6 -34.5 14zM526 893q9 1 23 -1q14 -2 28.5 -6.5q14.5 -4.5 27 -11q12.5 -6.5 18.5 -13.5l0 -20l-226 -91l-17 19z" />
<glyph unicode="&#222;" horiz-adv-x="584" d="M169 53q26 -4 48.5 -10q22.5 -6 41.5 -15l-5 -28h-274l5 28q23 11 44.5 16q21.5 5 43.5 9l125 594q-20 4 -39 10q-19 6 -38 15l7 28h258l-6 -28q-20 -9 -43 -15q-23 -6 -43 -10l-10 -49q23 2 46 3q23 1 44 1q105 0 162.5 -41q57.5 -41 57.5 -127q0 -45 -19 -91q-19 -46 -58 -83.5q-39 -37.5 -100 -61q-61 -23.5 -145 -23.5q-5 0 -15.5 0q-10.5 0 -22.5 0.5q-12 0.5 -23 1.5q-11 1 -16 2zM343 550q-25 0 -40.5 -1q-15.5 -1 -29.5 -5l-67 -312q5 -2 14.5 -2.5q9.5 -0.5 20 -1.5q10.5 -1 20 -1q9.5 0 15.5 0q49 0 88.5 14q39.5 14 66.5 40q27 26 41.5 62.5q14.5 36.5 14.5 80.5q0 66 -32.5 96t-111.5 30z" />
<glyph unicode="&#223;" horiz-adv-x="611" d="M282 387q0 33 13 63.5q13 30.5 38.5 57.5q25.5 27 62.5 48q37 21 85 34q4 22 0.5 43q-3.5 21 -15.5 37.5q-12 16.5 -31.5 27q-19.5 10.5 -45.5 11.5q-23 -1 -47 -8q-24 -7 -45.5 -25q-21.5 -18 -38 -48.5q-16.5 -30.5 -24.5 -77.5l-84 -507q-11 -71 -37 -118q-26 -47 -55.5 -76q-29.5 -29 -57.5 -43q-28 -14 -43 -18l-9 22q12 6 29 21.5q17 15.5 33.5 41.5q16.5 26 31 63.5q14.5 37.5 22.5 87.5l65 426h-73v26q20 11 42.5 19.5q22.5 8.5 42.5 13.5l7 35q12 62 42 102.5q30 40.5 67.5 64q37.5 23.5 77 32.5q39.5 9 72.5 9q45 0 76.5 -11q31.5 -11 51 -29.5q19.5 -18.5 28 -43.5q8.5 -25 8.5 -52q0 -10 -1 -20.5q-1 -10.5 -3 -21.5q-39 -5 -74.5 -17.5q-35.5 -12.5 -62.5 -32q-27 -19.5 -43.5 -47.5q-16.5 -28 -16.5 -65q0 -24 13 -43.5q13 -19.5 32.5 -37q19.5 -17.5 42 -34.5q22.5 -17 42 -38.5q19.5 -21.5 32.5 -48q13 -26.5 13 -61.5q0 -36 -16.5 -65.5q-16.5 -29.5 -45 -51q-28.5 -21.5 -66 -33q-37.5 -11.5 -79.5 -11.5q-42 0 -76 8q-34 8 -54 21q5 27 12 51q7 24 29 44l89 -81q20 0 41 6.5q21 6.5 37.5 19.5q16.5 13 27 31q10.5 18 11.5 41q-1 29 -13.5 50.5q-12.5 21.5 -32 39q-19.5 17.5 -41.5 33.5q-22 16 -41.5 35q-19.5 19 -32 42.5t-12.5 57.5z" />
<glyph unicode="&#224;" horiz-adv-x="535" d="M189 50q27 0 54 25.5q27 25.5 51 61.5q24 36 43 75q19 39 30 65l32 171q-14 10 -27 14q-13 4 -36 4q-46 0 -83.5 -28.5q-37.5 -28.5 -64 -73.5q-26.5 -45 -41 -100q-14.5 -55 -14.5 -108q0 -51 12.5 -78.5q12.5 -27.5 43.5 -27.5zt0 0zM347 196q-13 -36 -32.5 -73q-19.5 -37 -45 -67q-25.5 -30 -56.5 -49q-31 -19 -66 -19q-104 0 -104 151q0 70 20 136.5q20 66.5 58 118.5q38 52 92.5 83.5q54.5 31.5 123.5 31.5q25 0 40 -4.5q15 -4.5 36 -13.5q40 21 84 21l-90 -457h73v-25q-20 -16 -48 -26q-28 -10 -55 -10q-29 0 -41.5 12.5q-12.5 12.5 -12.5 26.5q0 18 7 59q7 41 21 104zM374 593l-22 -17l-166 149v20q6 5 19.5 9.5q13.5 4.5 29.5 7.5q16 3 30.5 4.5q14.5 1.5 22.5 0.5z" />
<glyph unicode="&#225;" horiz-adv-x="535" d="M189 50q27 0 54 25.5q27 25.5 51 61.5q24 36 43 75q19 39 30 65l32 171q-14 10 -27 14q-13 4 -36 4q-46 0 -83.5 -28.5q-37.5 -28.5 -64 -73.5q-26.5 -45 -41 -100q-14.5 -55 -14.5 -108q0 -51 12.5 -78.5q12.5 -27.5 43.5 -27.5zt0 0zM347 196q-13 -36 -32.5 -73q-19.5 -37 -45 -67q-25.5 -30 -56.5 -49q-31 -19 -66 -19q-104 0 -104 151q0 70 20 136.5q20 66.5 58 118.5q38 52 92.5 83.5q54.5 31.5 123.5 31.5q25 0 40 -4.5q15 -4.5 36 -13.5q40 21 84 21l-90 -457h73v-25q-20 -16 -48 -26q-28 -10 -55 -10q-29 0 -41.5 12.5q-12.5 12.5 -12.5 26.5q0 18 7 59q7 41 21 104zM413 767q8 1 21 -0.5q13 -1.5 27 -4.5q14 -3 26 -7.5q12 -4.5 18 -9.5l0 -19l-197 -151l-22 18z" />
<glyph unicode="&#226;" horiz-adv-x="535" d="M189 50q27 0 54 25.5q27 25.5 51 61.5q24 36 43 75q19 39 30 65l32 171q-14 10 -27 14q-13 4 -36 4q-46 0 -83.5 -28.5q-37.5 -28.5 -64 -73.5q-26.5 -45 -41 -100q-14.5 -55 -14.5 -108q0 -51 12.5 -78.5q12.5 -27.5 43.5 -27.5zt0 0zM347 196q-13 -36 -32.5 -73q-19.5 -37 -45 -67q-25.5 -30 -56.5 -49q-31 -19 -66 -19q-104 0 -104 151q0 70 20 136.5q20 66.5 58 118.5q38 52 92.5 83.5q54.5 31.5 123.5 31.5q25 0 40 -4.5q15 -4.5 36 -13.5q40 21 84 21l-90 -457h73v-25q-20 -16 -48 -26q-28 -10 -55 -10q-29 0 -41.5 12.5q-12.5 12.5 -12.5 26.5q0 18 7 59q7 41 21 104zM245 590l-29 16l151 186q5 4 13 4q8 0 12 -4l73 -185l-27 -17l-78 107z" />
<glyph unicode="&#227;" horiz-adv-x="535" d="M189 50q27 0 54 25.5q27 25.5 51 61.5q24 36 43 75q19 39 30 65l32 171q-14 10 -27 14q-13 4 -36 4q-46 0 -83.5 -28.5q-37.5 -28.5 -64 -73.5q-26.5 -45 -41 -100q-14.5 -55 -14.5 -108q0 -51 12.5 -78.5q12.5 -27.5 43.5 -27.5zt0 0zM347 196q-13 -36 -32.5 -73q-19.5 -37 -45 -67q-25.5 -30 -56.5 -49q-31 -19 -66 -19q-104 0 -104 151q0 70 20 136.5q20 66.5 58 118.5q38 52 92.5 83.5q54.5 31.5 123.5 31.5q25 0 40 -4.5q15 -4.5 36 -13.5q40 21 84 21l-90 -457h73v-25q-20 -16 -48 -26q-28 -10 -55 -10q-29 0 -41.5 12.5q-12.5 12.5 -12.5 26.5q0 18 7 59q7 41 21 104zM494 672q-32 -32 -58.5 -44.5q-26.5 -12.5 -49.5 -12.5q-18 0 -34 5.5q-16 5.5 -31 11.5q-15 6 -29.5 11.5q-14.5 5.5 -29.5 5.5q-13 0 -26.5 -5q-13.5 -5 -29.5 -19l-19 28q37 35 66 47q29 12 52 12q18 0 33.5 -5q15.5 -5 29.5 -11q14 -6 28.5 -11q14.5 -5 29.5 -5q13 0 26 4.5q13 4.5 29 15.5z" />
<glyph unicode="&#228;" horiz-adv-x="535" d="M189 50q27 0 54 25.5q27 25.5 51 61.5q24 36 43 75q19 39 30 65l32 171q-14 10 -27 14q-13 4 -36 4q-46 0 -83.5 -28.5q-37.5 -28.5 -64 -73.5q-26.5 -45 -41 -100q-14.5 -55 -14.5 -108q0 -51 12.5 -78.5q12.5 -27.5 43.5 -27.5zt0 0zM347 196q-13 -36 -32.5 -73q-19.5 -37 -45 -67q-25.5 -30 -56.5 -49q-31 -19 -66 -19q-104 0 -104 151q0 70 20 136.5q20 66.5 58 118.5q38 52 92.5 83.5q54.5 31.5 123.5 31.5q25 0 40 -4.5q15 -4.5 36 -13.5q40 21 84 21l-90 -457h73v-25q-20 -16 -48 -26q-28 -10 -55 -10q-29 0 -41.5 12.5q-12.5 12.5 -12.5 26.5q0 18 7 59q7 41 21 104zM194 662q0 24 15 38.5q15 14.5 40 14.5q24 0 39 -14.5q15 -14.5 15 -38.5q0 -23 -15 -37q-15 -14 -39 -14q-25 0 -40 14q-15 14 -15 37zt0 0zM396 662q0 24 15 38.5q15 14.5 39 14.5q25 0 40 -14.5q15 -14.5 15 -38.5q0 -23 -15 -37q-15 -14 -40 -14q-24 0 -39 14t-15 37z" />
<glyph unicode="&#229;" horiz-adv-x="535" d="M189 50q27 0 54 25.5q27 25.5 51 61.5q24 36 43 75q19 39 30 65l32 171q-14 10 -27 14q-13 4 -36 4q-46 0 -83.5 -28.5q-37.5 -28.5 -64 -73.5q-26.5 -45 -41 -100q-14.5 -55 -14.5 -108q0 -51 12.5 -78.5q12.5 -27.5 43.5 -27.5zt0 0zM347 196q-13 -36 -32.5 -73q-19.5 -37 -45 -67q-25.5 -30 -56.5 -49q-31 -19 -66 -19q-104 0 -104 151q0 70 20 136.5q20 66.5 58 118.5q38 52 92.5 83.5q54.5 31.5 123.5 31.5q25 0 40 -4.5q15 -4.5 36 -13.5q40 21 84 21l-90 -457h73v-25q-20 -16 -48 -26q-28 -10 -55 -10q-29 0 -41.5 12.5q-12.5 12.5 -12.5 26.5q0 18 7 59q7 41 21 104zM262 666q0 23 8 44q8 21 23 36.5q15 15.5 36 24.5q21 9 47 9q38 0 59 -21q21 -21 21 -54q0 -24 -9 -44.5q-9 -20.5 -24 -35.5q-15 -15 -35.5 -23.5q-20.5 -8.5 -43.5 -8.5q-38 0 -60 19q-22 19 -22 54zt0 0zM314 670q0 -18 10.5 -27q10.5 -9 23.5 -9q19 0 37 18.5q18 18.5 18 53.5q0 33 -29 33q-31 0 -45.5 -22.5t-14.5 -46.5z" />
<glyph unicode="&#230;" horiz-adv-x="739" d="M197 50q22 0 42.5 10.5q20.5 10.5 37 27q16.5 16.5 29 37q12.5 20.5 19.5 40.5q-1 16 0.5 38q1.5 22 3.5 38q-51 6 -89 -2q-38 -8 -63 -24.5q-25 -16.5 -37 -39q-12 -22.5 -12 -45.5q0 -44 21 -62q21 -18 48 -18zt0 0zM332 106q-28 -53 -71 -85.5q-43 -32.5 -102 -32.5q-27 0 -50.5 9.5q-23.5 9.5 -41 26.5q-17.5 17 -28 42q-10.5 25 -10.5 55q0 38 21.5 69.5q21.5 31.5 62 53.5q40.5 22 97.5 31.5q57 9.5 128 3.5q12 42 18 77q6 35 1.5 60q-4.5 25 -20 39q-15.5 14 -45.5 14q-14 0 -31.5 -1.5q-17.5 -1.5 -35.5 -8.5l-53 -110h-26q-19 55 -20 114q43 23 91.5 36q48.5 13 105.5 13q56 0 83.5 -17q27.5 -17 33.5 -42q32 27 73 43q41 16 89 16q48 0 82.5 -24.5q34.5 -24.5 34.5 -72.5q0 -71 -70.5 -112q-70.5 -41 -227.5 -53q-4 -17 -5.5 -33q-1.5 -16 -1.5 -31q0 -60 30.5 -98q30.5 -38 89.5 -38q19 0 37.5 6q18.5 6 35 15q16.5 9 30 19q13.5 10 23.5 18l16 -19q-9 -19 -26 -37q-17 -18 -40 -32.5q-23 -14.5 -52 -23q-29 -8.5 -62 -8.5q-64 0 -106 29.5q-42 29.5 -58 88.5zt0 0zM571 469q-43 0 -80 -40q-37 -40 -63 -136q97 3 151 33.5q54 30.5 54 84.5q0 21 -12.5 39.5t-49.5 18.5z" />
<glyph unicode="&#231;" horiz-adv-x="428" d="M382 89q-19 -33 -57.5 -62q-38.5 -29 -94.5 -37l-33 -58q42 -2 60 -19.5q18 -17.5 20 -46.5q1 -31 -17.5 -53.5q-18.5 -22.5 -46.5 -37q-28 -14.5 -60.5 -21q-32.5 -6.5 -59.5 -5.5l0 30q19 3 38 8.5q19 5.5 34 13.5q15 8 24 19.5q9 11.5 8 25.5q0 9 -2.5 17q-2.5 8 -9 14.5q-6.5 6.5 -18.5 11q-12 4.5 -32 6.5l50 94q-67 5 -106 50.5q-39 45.5 -39 123.5q0 72 23 135.5q23 63.5 62.5 111q39.5 47.5 93 75q53.5 27.5 114.5 27.5q38 0 62 -6q24 -6 36 -17q1 -11 -1.5 -24.5q-2.5 -13.5 -8 -26.5q-5.5 -13 -14 -24q-8.5 -11 -17.5 -15l-68 70q-34 -1 -67.5 -21q-33.5 -20 -60 -57q-26.5 -37 -43 -89.5q-16.5 -52.5 -15.5 -118.5q-1 -69 27.5 -101q28.5 -32 77.5 -31q21 -1 39.5 5q18.5 6 34.5 15q16 9 29 19q13 10 23 18z" />
<glyph unicode="&#232;" horiz-adv-x="454" d="M392 89q-9 -19 -26 -37q-17 -18 -40 -32.5q-23 -14.5 -52 -23q-29 -8.5 -62 -8.5q-83 0 -127.5 47.5q-44.5 47.5 -44.5 131.5q0 71 20 134q20 63 56 110q36 47 87.5 74q51.5 27 114.5 27q48 0 82.5 -24.5q34.5 -24.5 34.5 -72.5q0 -71 -70.5 -112q-70.5 -41 -227.5 -53q-4 -17 -5.5 -33q-1.5 -16 -1.5 -31q0 -60 30.5 -98q30.5 -38 89.5 -38q19 0 37.5 6q18.5 6 35 15q16.5 9 30 19q13.5 10 23.5 18zM287 469q-43 -1 -80 -40.5q-37 -39.5 -63 -135.5q97 3 151 33.5q54 30.5 54 84.5q0 21 -12.5 39q-12.5 18 -49.5 19zt0 0zM364 593l-22 -17l-166 149v20q6 5 19.5 9.5q13.5 4.5 29.5 7.5q16 3 30.5 4.5q14.5 1.5 22.5 0.5z" />
<glyph unicode="&#233;" horiz-adv-x="454" d="M392 89q-9 -19 -26 -37q-17 -18 -40 -32.5q-23 -14.5 -52 -23q-29 -8.5 -62 -8.5q-83 0 -127.5 47.5q-44.5 47.5 -44.5 131.5q0 71 20 134q20 63 56 110q36 47 87.5 74q51.5 27 114.5 27q48 0 82.5 -24.5q34.5 -24.5 34.5 -72.5q0 -71 -70.5 -112q-70.5 -41 -227.5 -53q-4 -17 -5.5 -33q-1.5 -16 -1.5 -31q0 -60 30.5 -98q30.5 -38 89.5 -38q19 0 37.5 6q18.5 6 35 15q16.5 9 30 19q13.5 10 23.5 18zM287 469q-43 -1 -80 -40.5q-37 -39.5 -63 -135.5q97 3 151 33.5q54 30.5 54 84.5q0 21 -12.5 39q-12.5 18 -49.5 19zt0 0zM382 767q8 1 21 -0.5q13 -1.5 27 -4.5q14 -3 26 -7.5q12 -4.5 18 -9.5l0 -19l-197 -151l-22 18z" />
<glyph unicode="&#234;" horiz-adv-x="454" d="M392 89q-9 -19 -26 -37q-17 -18 -40 -32.5q-23 -14.5 -52 -23q-29 -8.5 -62 -8.5q-83 0 -127.5 47.5q-44.5 47.5 -44.5 131.5q0 71 20 134q20 63 56 110q36 47 87.5 74q51.5 27 114.5 27q48 0 82.5 -24.5q34.5 -24.5 34.5 -72.5q0 -71 -70.5 -112q-70.5 -41 -227.5 -53q-4 -17 -5.5 -33q-1.5 -16 -1.5 -31q0 -60 30.5 -98q30.5 -38 89.5 -38q19 0 37.5 6q18.5 6 35 15q16.5 9 30 19q13.5 10 23.5 18zM287 469q-43 -1 -80 -40.5q-37 -39.5 -63 -135.5q97 3 151 33.5q54 30.5 54 84.5q0 21 -12.5 39q-12.5 18 -49.5 19zt0 0zM215 590l-29 16l151 186q5 4 13 4q8 0 12 -4l73 -185l-27 -17l-78 107z" />
<glyph unicode="&#235;" horiz-adv-x="454" d="M392 89q-9 -19 -26 -37q-17 -18 -40 -32.5q-23 -14.5 -52 -23q-29 -8.5 -62 -8.5q-83 0 -127.5 47.5q-44.5 47.5 -44.5 131.5q0 71 20 134q20 63 56 110q36 47 87.5 74q51.5 27 114.5 27q48 0 82.5 -24.5q34.5 -24.5 34.5 -72.5q0 -71 -70.5 -112q-70.5 -41 -227.5 -53q-4 -17 -5.5 -33q-1.5 -16 -1.5 -31q0 -60 30.5 -98q30.5 -38 89.5 -38q19 0 37.5 6q18.5 6 35 15q16.5 9 30 19q13.5 10 23.5 18zM287 469q-43 -1 -80 -40.5q-37 -39.5 -63 -135.5q97 3 151 33.5q54 30.5 54 84.5q0 21 -12.5 39q-12.5 18 -49.5 19zt0 0zM161 662q0 24 15 38.5q15 14.5 40 14.5q24 0 39 -14.5q15 -14.5 15 -38.5q0 -23 -15 -37q-15 -14 -39 -14q-25 0 -40 14q-15 14 -15 37zt0 0zM363 662q0 24 15 38.5q15 14.5 39 14.5q25 0 40 -14.5q15 -14.5 15 -38.5q0 -23 -15 -37q-15 -14 -40 -14q-24 0 -39 14t-15 37z" />
<glyph unicode="&#236;" horiz-adv-x="277" d="M71 451v25q15 6 34 12.5q19 6.5 39 11.5q20 5 38 8.5q18 3.5 32 3.5l18 -12l-94 -444h74v-26q-21 -16 -49 -26q-28 -10 -55 -10q-29 0 -41.5 13q-12.5 13 -12.5 30q0 20 3 39q3 19 8 42l70 323zM240 593l-22 -17l-166 149v20q6 5 19.5 9.5q13.5 4.5 29.5 7.5q16 3 30.5 4.5q14.5 1.5 22.5 0.5z" />
<glyph unicode="&#237;" horiz-adv-x="277" d="M71 451v25q15 6 34 12.5q19 6.5 39 11.5q20 5 38 8.5q18 3.5 32 3.5l18 -12l-94 -444h74v-26q-21 -16 -49 -26q-28 -10 -55 -10q-29 0 -41.5 13q-12.5 13 -12.5 30q0 20 3 39q3 19 8 42l70 323zM278 767q8 1 21 -0.5q13 -1.5 27 -4.5q14 -3 26 -7.5q12 -4.5 18 -9.5l0 -19l-197 -151l-22 18z" />
<glyph unicode="&#238;" horiz-adv-x="277" d="M71 451v25q15 6 34 12.5q19 6.5 39 11.5q20 5 38 8.5q18 3.5 32 3.5l18 -12l-94 -444h74v-26q-21 -16 -49 -26q-28 -10 -55 -10q-29 0 -41.5 13q-12.5 13 -12.5 30q0 20 3 39q3 19 8 42l70 323zM114 590l-29 16l151 186q5 4 13 4q8 0 12 -4l73 -185l-27 -17l-78 107z" />
<glyph unicode="&#239;" horiz-adv-x="277" d="M71 451v25q15 6 34 12.5q19 6.5 39 11.5q20 5 38 8.5q18 3.5 32 3.5l18 -12l-94 -444h74v-26q-21 -16 -49 -26q-28 -10 -55 -10q-29 0 -41.5 13q-12.5 13 -12.5 30q0 20 3 39q3 19 8 42l70 323zM44 662q0 24 15 38.5q15 14.5 40 14.5q24 0 39 -14.5q15 -14.5 15 -38.5q0 -23 -15 -37q-15 -14 -39 -14q-25 0 -40 14q-15 14 -15 37zt0 0zM246 662q0 24 15 38.5q15 14.5 39 14.5q25 0 40 -14.5q15 -14.5 15 -38.5q0 -23 -15 -37q-15 -14 -40 -14q-24 0 -39 14t-15 37z" />
<glyph unicode="&#240;" horiz-adv-x="496" d="M227 609l111 50q-21 27 -47 44.5q-26 17.5 -53 25.5l0 21h90q18 -7 39.5 -21.5q21.5 -14.5 41.5 -37.5l99 45l21 -38l-95 -44q20 -33 32.5 -79q12.5 -46 12.5 -108q0 -102 -24.5 -189.5q-24.5 -87.5 -65.5 -152q-41 -64.5 -96.5 -101q-55.5 -36.5 -116.5 -36.5q-72 0 -109.5 47.5q-37.5 47.5 -37.5 132.5q0 61 20.5 121.5q20.5 60.5 59 108.5q38.5 48 93 78q54.5 30 122.5 30q18 0 36 -4q18 -4 29 -12q0 40 -7.5 72.5q-7.5 32.5 -21.5 59.5l-110 -50zM314 463q-55 0 -92 -30.5q-37 -30.5 -60 -75.5q-23 -45 -33 -97q-10 -52 -10 -97q0 -23 3 -46q3 -23 12 -42.5q9 -19.5 25 -31.5q16 -12 42 -12q33 0 66.5 31.5q33.5 31.5 60.5 87q27 55.5 44 130.5q17 75 17 163q-22 12 -39 16t-36 4z" />
<glyph unicode="&#241;" horiz-adv-x="552" d="M386 285q7 31 12.5 57.5q5.5 26.5 5.5 52.5q0 23 -10.5 39q-10.5 16 -33.5 16q-27 0 -55 -22q-28 -22 -52 -53q-24 -31 -43.5 -64.5q-19.5 -33.5 -29.5 -55.5l-53 -255h-84l88 442l-61 9l2 25q14 7 31.5 13.5q17.5 6.5 36 11.5q18.5 5 36 8q17.5 3 32.5 3l20 -12l-38 -177h5q19 40 43.5 74.5q24.5 34.5 52 60q27.5 25.5 57.5 40q30 14.5 61 14.5q42 0 61.5 -26.5q19.5 -26.5 19.5 -66.5q0 -22 -5 -55q-5 -33 -12 -62l-57 -246h74v-26q-20 -16 -48.5 -26q-28.5 -10 -55.5 -10q-29 0 -40 12q-11 12 -11 26q0 19 5 41.5q5 22.5 10 45.5zM500 672q-32 -32 -58.5 -44.5q-26.5 -12.5 -49.5 -12.5q-18 0 -34 5.5q-16 5.5 -31 11.5q-15 6 -29.5 11.5q-14.5 5.5 -29.5 5.5q-13 0 -26.5 -5q-13.5 -5 -29.5 -19l-19 28q37 35 66 47q29 12 52 12q18 0 33.5 -5q15.5 -5 29.5 -11q14 -6 28.5 -11q14.5 -5 29.5 -5q13 0 26 4.5q13 4.5 29 15.5z" />
<glyph unicode="&#242;" horiz-adv-x="509" d="M41 186q0 53 16.5 110.5q16.5 57.5 50.5 105.5q34 48 85 79q51 31 119 31q78 0 117.5 -48q39.5 -48 39.5 -142q0 -66 -19 -126.5q-19 -60.5 -53 -106.5q-34 -46 -82 -73.5q-48 -27.5 -106 -27.5q-77 0 -122.5 49.5q-45.5 49.5 -45.5 148.5zt0 0zM292 469q-49 -1 -80 -32q-31 -31 -49 -77q-18 -46 -25 -99q-7 -53 -7 -97q0 -59 26 -96q26 -37 70 -37q35 0 62.5 26.5q27.5 26.5 47 70q19.5 43.5 30 98.5q10.5 55 10.5 111q0 59 -20.5 95q-20.5 36 -64.5 37zt0 0zM351 593l-22 -17l-166 149v20q6 5 19.5 9.5q13.5 4.5 29.5 7.5q16 3 30.5 4.5q14.5 1.5 22.5 0.5z" />
<glyph unicode="&#243;" horiz-adv-x="509" d="M41 186q0 53 16.5 110.5q16.5 57.5 50.5 105.5q34 48 85 79q51 31 119 31q78 0 117.5 -48q39.5 -48 39.5 -142q0 -66 -19 -126.5q-19 -60.5 -53 -106.5q-34 -46 -82 -73.5q-48 -27.5 -106 -27.5q-77 0 -122.5 49.5q-45.5 49.5 -45.5 148.5zt0 0zM292 469q-49 -1 -80 -32q-31 -31 -49 -77q-18 -46 -25 -99q-7 -53 -7 -97q0 -59 26 -96q26 -37 70 -37q35 0 62.5 26.5q27.5 26.5 47 70q19.5 43.5 30 98.5q10.5 55 10.5 111q0 59 -20.5 95q-20.5 36 -64.5 37zt0 0zM388 767q8 1 21 -0.5q13 -1.5 27 -4.5q14 -3 26 -7.5q12 -4.5 18 -9.5l0 -19l-197 -151l-22 18z" />
<glyph unicode="&#244;" horiz-adv-x="509" d="M41 186q0 53 16.5 110.5q16.5 57.5 50.5 105.5q34 48 85 79q51 31 119 31q78 0 117.5 -48q39.5 -48 39.5 -142q0 -66 -19 -126.5q-19 -60.5 -53 -106.5q-34 -46 -82 -73.5q-48 -27.5 -106 -27.5q-77 0 -122.5 49.5q-45.5 49.5 -45.5 148.5zt0 0zM292 469q-49 -1 -80 -32q-31 -31 -49 -77q-18 -46 -25 -99q-7 -53 -7 -97q0 -59 26 -96q26 -37 70 -37q35 0 62.5 26.5q27.5 26.5 47 70q19.5 43.5 30 98.5q10.5 55 10.5 111q0 59 -20.5 95q-20.5 36 -64.5 37zt0 0zM229 590l-29 16l151 186q5 4 13 4q8 0 12 -4l73 -185l-27 -17l-78 107z" />
<glyph unicode="&#245;" horiz-adv-x="509" d="M41 186q0 53 16.5 110.5q16.5 57.5 50.5 105.5q34 48 85 79q51 31 119 31q78 0 117.5 -48q39.5 -48 39.5 -142q0 -66 -19 -126.5q-19 -60.5 -53 -106.5q-34 -46 -82 -73.5q-48 -27.5 -106 -27.5q-77 0 -122.5 49.5q-45.5 49.5 -45.5 148.5zt0 0zM292 469q-49 -1 -80 -32q-31 -31 -49 -77q-18 -46 -25 -99q-7 -53 -7 -97q0 -59 26 -96q26 -37 70 -37q35 0 62.5 26.5q27.5 26.5 47 70q19.5 43.5 30 98.5q10.5 55 10.5 111q0 59 -20.5 95q-20.5 36 -64.5 37zt0 0zM488 672q-32 -32 -58.5 -44.5q-26.5 -12.5 -49.5 -12.5q-18 0 -34 5.5q-16 5.5 -31 11.5q-15 6 -29.5 11.5q-14.5 5.5 -29.5 5.5q-13 0 -26.5 -5q-13.5 -5 -29.5 -19l-19 28q37 35 66 47q29 12 52 12q18 0 33.5 -5q15.5 -5 29.5 -11q14 -6 28.5 -11q14.5 -5 29.5 -5q13 0 26 4.5q13 4.5 29 15.5z" />
<glyph unicode="&#246;" horiz-adv-x="509" d="M41 186q0 53 16.5 110.5q16.5 57.5 50.5 105.5q34 48 85 79q51 31 119 31q78 0 117.5 -48q39.5 -48 39.5 -142q0 -66 -19 -126.5q-19 -60.5 -53 -106.5q-34 -46 -82 -73.5q-48 -27.5 -106 -27.5q-77 0 -122.5 49.5q-45.5 49.5 -45.5 148.5zt0 0zM292 469q-49 -1 -80 -32q-31 -31 -49 -77q-18 -46 -25 -99q-7 -53 -7 -97q0 -59 26 -96q26 -37 70 -37q35 0 62.5 26.5q27.5 26.5 47 70q19.5 43.5 30 98.5q10.5 55 10.5 111q0 59 -20.5 95q-20.5 36 -64.5 37zt0 0zM160 662q0 24 15 38.5q15 14.5 40 14.5q24 0 39 -14.5q15 -14.5 15 -38.5q0 -23 -15 -37q-15 -14 -39 -14q-25 0 -40 14q-15 14 -15 37zt0 0zM362 662q0 24 15 38.5q15 14.5 39 14.5q25 0 40 -14.5q15 -14.5 15 -38.5q0 -23 -15 -37q-15 -14 -40 -14q-24 0 -39 14t-15 37z" />
<glyph unicode="&#247;" horiz-adv-x="524" d="M37 372h450v-53h-450zM194 535q0 30 19 48q19 18 49 18q31 0 50 -18q19 -18 19 -48q0 -29 -19 -47q-19 -18 -50 -18q-30 0 -49 18q-19 18 -19 47zt0 0zM194 154q0 30 19 48q19 18 49 18q31 0 50 -18q19 -18 19 -48q0 -29 -19 -47q-19 -18 -50 -18q-30 0 -49 18t-19 47z" />
<glyph unicode="&#248;" horiz-adv-x="509" d="M41 186q0 53 16.5 110.5q16.5 57.5 50.5 105.5q34 48 85 79q51 31 119 31q64 0 105 -36l71 82l38 -31l-79 -92q11 -23 16.5 -50.5q5.5 -27.5 5.5 -62.5q0 -66 -19 -126.5q-19 -60.5 -53 -106.5q-34 -46 -82 -73.5q-48 -27.5 -106 -27.5q-70 0 -114 41l-78 -91l-36 32l85 99q-25 44 -25 117zt0 0zM227 31q34 0 61.5 26q27.5 26 47 68.5q19.5 42.5 30 96q10.5 53.5 10.5 108.5v24l-229 -266q11 -27 31.5 -42q20.5 -15 48.5 -15zt0 0zM292 469q-48 -1 -79 -31q-31 -30 -49 -75q-18 -45 -25 -97q-7 -52 -8 -95q0 -7 0 -13q0 -6 1 -13l233 269q-22 54 -73 55z" />
<glyph unicode="&#249;" horiz-adv-x="542" d="M488 55v-25q-20 -16 -48.5 -26q-28.5 -10 -55.5 -10q-29 0 -41.5 12q-12.5 12 -12.5 26q0 18 5 60.5q5 42.5 22 103.5l-4 0q-13 -28 -32.5 -64q-19.5 -36 -46.5 -68q-27 -32 -61.5 -54q-34.5 -22 -76.5 -22q-35 0 -59 24.5q-24 24.5 -24 69.5q0 22 7 65q7 43 17 94q10 51 21.5 104.5q11.5 53.5 20.5 96.5l-61 9v25q16 6 34.5 12q18.5 6 37 11q18.5 5 35.5 8.5q17 3.5 31 4.5l22 -12q-16 -75 -32.5 -142.5q-16.5 -67.5 -30.5 -142.5q-5 -24 -10.5 -53.5q-5.5 -29.5 -5.5 -64.5q0 -21 11.5 -34q11.5 -13 26.5 -13q22 0 44 13q22 13 41.5 34q19.5 21 37 46.5q17.5 25.5 31.5 50.5q14 25 23.5 46.5q9.5 21.5 14.5 34.5l44 225h83l-82 -445zM352 593l-22 -17l-166 149v20q6 5 19.5 9.5q13.5 4.5 29.5 7.5q16 3 30.5 4.5q14.5 1.5 22.5 0.5z" />
<glyph unicode="&#250;" horiz-adv-x="542" d="M488 55v-25q-20 -16 -48.5 -26q-28.5 -10 -55.5 -10q-29 0 -41.5 12q-12.5 12 -12.5 26q0 18 5 60.5q5 42.5 22 103.5l-4 0q-13 -28 -32.5 -64q-19.5 -36 -46.5 -68q-27 -32 -61.5 -54q-34.5 -22 -76.5 -22q-35 0 -59 24.5q-24 24.5 -24 69.5q0 22 7 65q7 43 17 94q10 51 21.5 104.5q11.5 53.5 20.5 96.5l-61 9v25q16 6 34.5 12q18.5 6 37 11q18.5 5 35.5 8.5q17 3.5 31 4.5l22 -12q-16 -75 -32.5 -142.5q-16.5 -67.5 -30.5 -142.5q-5 -24 -10.5 -53.5q-5.5 -29.5 -5.5 -64.5q0 -21 11.5 -34q11.5 -13 26.5 -13q22 0 44 13q22 13 41.5 34q19.5 21 37 46.5q17.5 25.5 31.5 50.5q14 25 23.5 46.5q9.5 21.5 14.5 34.5l44 225h83l-82 -445zM408 767q8 1 21 -0.5q13 -1.5 27 -4.5q14 -3 26 -7.5q12 -4.5 18 -9.5l0 -19l-197 -151l-22 18z" />
<glyph unicode="&#251;" horiz-adv-x="542" d="M488 55v-25q-20 -16 -48.5 -26q-28.5 -10 -55.5 -10q-29 0 -41.5 12q-12.5 12 -12.5 26q0 18 5 60.5q5 42.5 22 103.5l-4 0q-13 -28 -32.5 -64q-19.5 -36 -46.5 -68q-27 -32 -61.5 -54q-34.5 -22 -76.5 -22q-35 0 -59 24.5q-24 24.5 -24 69.5q0 22 7 65q7 43 17 94q10 51 21.5 104.5q11.5 53.5 20.5 96.5l-61 9v25q16 6 34.5 12q18.5 6 37 11q18.5 5 35.5 8.5q17 3.5 31 4.5l22 -12q-16 -75 -32.5 -142.5q-16.5 -67.5 -30.5 -142.5q-5 -24 -10.5 -53.5q-5.5 -29.5 -5.5 -64.5q0 -21 11.5 -34q11.5 -13 26.5 -13q22 0 44 13q22 13 41.5 34q19.5 21 37 46.5q17.5 25.5 31.5 50.5q14 25 23.5 46.5q9.5 21.5 14.5 34.5l44 225h83l-82 -445zM229 590l-29 16l151 186q5 4 13 4q8 0 12 -4l73 -185l-27 -17l-78 107z" />
<glyph unicode="&#252;" horiz-adv-x="542" d="M488 55v-25q-20 -16 -48.5 -26q-28.5 -10 -55.5 -10q-29 0 -41.5 12q-12.5 12 -12.5 26q0 18 5 60.5q5 42.5 22 103.5l-4 0q-13 -28 -32.5 -64q-19.5 -36 -46.5 -68q-27 -32 -61.5 -54q-34.5 -22 -76.5 -22q-35 0 -59 24.5q-24 24.5 -24 69.5q0 22 7 65q7 43 17 94q10 51 21.5 104.5q11.5 53.5 20.5 96.5l-61 9v25q16 6 34.5 12q18.5 6 37 11q18.5 5 35.5 8.5q17 3.5 31 4.5l22 -12q-16 -75 -32.5 -142.5q-16.5 -67.5 -30.5 -142.5q-5 -24 -10.5 -53.5q-5.5 -29.5 -5.5 -64.5q0 -21 11.5 -34q11.5 -13 26.5 -13q22 0 44 13q22 13 41.5 34q19.5 21 37 46.5q17.5 25.5 31.5 50.5q14 25 23.5 46.5q9.5 21.5 14.5 34.5l44 225h83l-82 -445zM174 662q0 24 15 38.5q15 14.5 40 14.5q24 0 39 -14.5q15 -14.5 15 -38.5q0 -23 -15 -37q-15 -14 -39 -14q-25 0 -40 14q-15 14 -15 37zt0 0zM376 662q0 24 15 38.5q15 14.5 39 14.5q25 0 40 -14.5q15 -14.5 15 -38.5q0 -23 -15 -37q-15 -14 -40 -14q-24 0 -39 14t-15 37z" />
<glyph unicode="&#253;" horiz-adv-x="455" d="M88 442l-64 8v25q5 4 16.5 10q11.5 6 26.5 12q15 6 31 10.5q16 4.5 30 4.5q21 0 30.5 -10.5q9.5 -10.5 14.5 -27.5l83 -350l3 -60h2l23 59q13 28 26.5 61.5q13.5 33.5 26.5 67.5q13 34 24 67q11 33 19 61q0 11 -2.5 29q-2.5 18 -5.5 36q-3 18 -6 33.5q-3 15.5 -5 21.5q14 6 30 9q16 3 31 3q30 0 53 -12q-31 -124 -84.5 -248q-53.5 -124 -118.5 -252q-54 -105 -108 -157q-54 -52 -122 -52q-15 0 -28.5 4q-13.5 4 -28.5 12q-1 11 2 25q3 14 9.5 28q6.5 14 17 26q10.5 12 23.5 19l81 -42q7 5 18 14.5q11 9.5 23 26q12 16.5 24 40q12 23.5 23 56.5zM375 767q8 1 21 -0.5q13 -1.5 27 -4.5q14 -3 26 -7.5q12 -4.5 18 -9.5l0 -19l-197 -151l-22 18z" />
<glyph unicode="&#254;" horiz-adv-x="542" d="M97 -146q35 -6 70 -25l0 -29h-157l-9 9l183 883l-61 9v25q33 14 69.5 25q36.5 11 68.5 11l20 -12l-88 -426h4q18 40 39.5 74q21.5 34 46.5 59.5q25 25.5 54 40q29 14.5 62 14.5q22 0 42 -8.5q20 -8.5 35 -26q15 -17.5 23.5 -43.5q8.5 -26 8.5 -60q0 -77 -23 -147q-23 -70 -62.5 -123q-39.5 -53 -92.5 -84.5q-53 -31.5 -114 -31.5q-17 0 -29 1q-12 1 -21 3.5q-9 2.5 -17.5 6.5q-8.5 4 -18.5 9zM352 450q-29 0 -55 -22.5q-26 -22.5 -48.5 -54.5q-22.5 -32 -40.5 -67.5q-18 -35.5 -29 -62.5l-39 -189q14 -12 29.5 -17.5q15.5 -5.5 49.5 -5.5q40 0 75.5 29.5q35.5 29.5 62 75.5q26.5 46 42 102.5q15.5 56.5 15.5 111.5q0 48 -16.5 74t-45.5 26z" />
<glyph unicode="&#255;" horiz-adv-x="455" d="M88 442l-64 8v25q5 4 16.5 10q11.5 6 26.5 12q15 6 31 10.5q16 4.5 30 4.5q21 0 30.5 -10.5q9.5 -10.5 14.5 -27.5l83 -350l3 -60h2l23 59q13 28 26.5 61.5q13.5 33.5 26.5 67.5q13 34 24 67q11 33 19 61q0 11 -2.5 29q-2.5 18 -5.5 36q-3 18 -6 33.5q-3 15.5 -5 21.5q14 6 30 9q16 3 31 3q30 0 53 -12q-31 -124 -84.5 -248q-53.5 -124 -118.5 -252q-54 -105 -108 -157q-54 -52 -122 -52q-15 0 -28.5 4q-13.5 4 -28.5 12q-1 11 2 25q3 14 9.5 28q6.5 14 17 26q10.5 12 23.5 19l81 -42q7 5 18 14.5q11 9.5 23 26q12 16.5 24 40q12 23.5 23 56.5zM137 662q0 24 15 38.5q15 14.5 40 14.5q24 0 39 -14.5q15 -14.5 15 -38.5q0 -23 -15 -37q-15 -14 -39 -14q-25 0 -40 14q-15 14 -15 37zt0 0zM339 662q0 24 15 38.5q15 14.5 39 14.5q25 0 40 -14.5q15 -14.5 15 -38.5q0 -23 -15 -37q-15 -14 -40 -14q-24 0 -39 14t-15 37z" />
<glyph unicode="&#256;" horiz-adv-x="674" d="M176 0h-225l6 29q39 16 78 24l395 659h26l113 -659q18 -4 36.5 -9.5q18.5 -5.5 33.5 -14.5l-5 -29h-254l5 29q45 17 88 24l-30 183h-235l-107 -183q43 -6 80 -24zM237 288h198l-32 212l-2 86h-2l-40 -88zM307 788l10 52h302l-11 -52z" />
<glyph unicode="&#257;" horiz-adv-x="535" d="M189 50q27 0 54 25.5q27 25.5 51 61.5q24 36 43 75q19 39 30 65l32 171q-14 10 -27 14q-13 4 -36 4q-46 0 -83.5 -28.5q-37.5 -28.5 -64 -73.5q-26.5 -45 -41 -100q-14.5 -55 -14.5 -108q0 -51 12.5 -78.5q12.5 -27.5 43.5 -27.5zt0 0zM347 196q-13 -36 -32.5 -73q-19.5 -37 -45 -67q-25.5 -30 -56.5 -49q-31 -19 -66 -19q-104 0 -104 151q0 70 20 136.5q20 66.5 58 118.5q38 52 92.5 83.5q54.5 31.5 123.5 31.5q25 0 40 -4.5q15 -4.5 36 -13.5q40 21 84 21l-90 -457h73v-25q-20 -16 -48 -26q-28 -10 -55 -10q-29 0 -41.5 12.5q-12.5 12.5 -12.5 26.5q0 18 7 59q7 41 21 104zM238 637l10 52h254l-11 -52z" />
<glyph unicode="&#258;" horiz-adv-x="674" d="M176 0h-225l6 29q39 16 78 24l395 659h26l113 -659q18 -4 36.5 -9.5q18.5 -5.5 33.5 -14.5l-5 -29h-254l5 29q45 17 88 24l-30 183h-235l-107 -183q43 -6 80 -24zM237 288h198l-32 212l-2 86h-2l-40 -88zM587 883q16 2 32 -14q-8 -18 -27.5 -37.5q-19.5 -19.5 -44.5 -35.5q-25 -16 -53 -26.5q-28 -10.5 -53 -10.5q-54 0 -85 29.5q-31 29.5 -39 82.5q12 19 42 15q8 -24 34 -40q26 -16 57 -17q44 -1 79 14t58 40z" />
<glyph unicode="&#259;" horiz-adv-x="535" d="M189 50q27 0 54 25.5q27 25.5 51 61.5q24 36 43 75q19 39 30 65l32 171q-14 10 -27 14q-13 4 -36 4q-46 0 -83.5 -28.5q-37.5 -28.5 -64 -73.5q-26.5 -45 -41 -100q-14.5 -55 -14.5 -108q0 -51 12.5 -78.5q12.5 -27.5 43.5 -27.5zt0 0zM347 196q-13 -36 -32.5 -73q-19.5 -37 -45 -67q-25.5 -30 -56.5 -49q-31 -19 -66 -19q-104 0 -104 151q0 70 20 136.5q20 66.5 58 118.5q38 52 92.5 83.5q54.5 31.5 123.5 31.5q25 0 40 -4.5q15 -4.5 36 -13.5q40 21 84 21l-90 -457h73v-25q-20 -16 -48 -26q-28 -10 -55 -10q-29 0 -41.5 12.5q-12.5 12.5 -12.5 26.5q0 18 7 59q7 41 21 104zM506 719q-9 -23 -24.5 -44.5q-15.5 -21.5 -36 -39q-20.5 -17.5 -44.5 -28q-24 -10.5 -49 -10.5q-54 0 -83.5 35q-29.5 35 -34.5 89l28 13q11 -25 36 -44.5q25 -19.5 55 -20.5q16 0 34.5 3.5q18.5 3.5 36 11q17.5 7.5 33 19.5q15.5 12 25.5 27z" />
<glyph unicode="&#260;" horiz-adv-x="674" d="M176 0h-225l6 29q39 16 78 24l395 659h26l113 -659q18 -4 36.5 -9.5q18.5 -5.5 33.5 -14.5l-2 -11l-3 -18h-40q-23 -12 -43 -26.5q-20 -14.5 -35.5 -31.5q-15.5 -17 -24.5 -36.5q-9 -19.5 -9 -40.5q0 -28 18 -46q18 -18 49 -18q31 0 55 6l0 -29q-14 -11 -36 -20q-22 -9 -55 -9q-23 0 -43.5 7q-20.5 7 -36 20q-15.5 13 -24.5 31.5q-9 18.5 -9 40.5q0 51 38 88q38 37 100 64l-158 0l5 29q45 17 88 24l-30 183h-235l-107 -183q43 -6 80 -24zM237 288h198l-32 212l-2 86h-2l-40 -88z" />
<glyph unicode="&#261;" horiz-adv-x="535" d="M347 196q-13 -36 -32.5 -73q-19.5 -37 -45 -67q-25.5 -30 -56.5 -49q-31 -19 -66 -19q-104 0 -104 151q0 70 20 136.5q20 66.5 58 118.5q38 52 92.5 83.5q54.5 31.5 123.5 31.5q25 0 40 -4.5q15 -4.5 36 -13.5q40 21 84 21l-90 -457h73v-25q-21 -16 -46 -25q-16 -9 -32 -21.5q-16 -12.5 -29 -28q-13 -15.5 -21.5 -34q-8.5 -18.5 -8.5 -39.5q0 -26 14 -43q14 -17 47 -18q11 1 19 3.5q8 2.5 22 6.5l0 -32q-14 -8 -35.5 -14.5q-21.5 -6.5 -39.5 -6.5q-60 0 -85 25q-25 25 -25 63q0 44 28 75q28 31 81 54q-25 2 -35.5 13q-10.5 11 -10.5 25q0 18 7 59q7 41 21 104zM189 50q27 0 54 25.5q27 25.5 51 61.5q24 36 43 75q19 39 30 65l32 171q-14 10 -27 14q-13 4 -36 4q-46 0 -83.5 -28.5q-37.5 -28.5 -64 -73.5q-26.5 -45 -41 -100q-14.5 -55 -14.5 -108q0 -51 12.5 -78.5t43.5 -27.5z" />
<glyph unicode="&#262;" horiz-adv-x="635" d="M557 182h25q0 -28 -5.5 -70.5q-5.5 -42.5 -16.5 -82.5q-20 -11 -43 -19q-23 -8 -48 -13q-25 -5 -49 -7q-24 -2 -45 -2q-85 0 -144 24q-59 24 -95.5 63q-36.5 39 -53 87q-16.5 48 -16.5 96q0 102 29 185.5q29 83.5 82.5 143q53.5 59.5 130 92.5q76.5 33 172.5 33q66 0 112 -9q46 -9 77 -25q-3 -16 -8.5 -37.5q-5.5 -21.5 -13 -45.5q-7.5 -24 -15.5 -47q-8 -23 -15 -42l-26 0l-21 144q-13 5 -39.5 7.5q-26.5 2.5 -51.5 2.5q-66 0 -122 -25.5q-56 -25.5 -97 -75.5q-41 -50 -64 -125q-23 -75 -23 -174q0 -62 21.5 -104.5q21.5 -42.5 54 -68.5q32.5 -26 70.5 -37q38 -11 72 -10q34 -1 57.5 5q23.5 6 34.5 13zM541 893q9 1 23 -1q14 -2 28.5 -6.5q14.5 -4.5 27 -11q12.5 -6.5 18.5 -13.5l0 -20l-226 -91l-17 19z" />
<glyph unicode="&#263;" horiz-adv-x="428" d="M382 89q-11 -19 -28 -37q-17 -18 -40 -32.5q-23 -14.5 -51.5 -23q-28.5 -8.5 -62.5 -8.5q-74 0 -117 47q-43 47 -43 128q0 72 23 135.5q23 63.5 62.5 111q39.5 47.5 93 75q53.5 27.5 114.5 27.5q38 0 62 -6q24 -6 36 -17q1 -11 -1.5 -24.5q-2.5 -13.5 -8 -26.5q-5.5 -13 -14 -24q-8.5 -11 -17.5 -15l-68 70q-34 -1 -67.5 -21q-33.5 -20 -60 -57q-26.5 -37 -43 -89.5q-16.5 -52.5 -15.5 -118.5q-1 -69 27.5 -101q28.5 -32 77.5 -32q21 0 39.5 6q18.5 6 34.5 15q16 9 29 19q13 10 23 18zM393 767q8 1 21 -0.5q13 -1.5 27 -4.5q14 -3 26 -7.5q12 -4.5 18 -9.5l0 -19l-197 -151l-22 18z" />
</font>
</defs>
</svg>
