<?xml version="1.0" standalone="no"?>
<!DOCTYPE svg PUBLIC "-//W3C//DTD SVG 1.1//EN" "http://www.w3.org/Graphics/SVG/1.1/DTD/svg11.dtd" >
<svg xmlns="http://www.w3.org/2000/svg">
<metadata>
Generated by SVGconv.
Copyright   : Copyright  2009 ParaType Ltd. All rights reserved.
Designer    : A.Korolkova, O.Umpeleva, V.Yefimov
Foundry     : ParaType Ltd
Foundry URL : http://www.paratype.com
</metadata>
<defs>
<font id="PTSans-Caption" horiz-adv-x="591" >
<font-face units-per-em="1000" ascent="1018" descent="276" />
<missing-glyph horiz-adv-x="750" />
<glyph unicode="&#32;" horiz-adv-x="291" />
<glyph unicode="&#33;" horiz-adv-x="331" d="M133 700h100v-343l-20 -173h-60l-20 173zM115 51q0 29 18.5 46q18.5 17 48.5 17q30 0 48.5 -17q18.5 -17 18.5 -46q0 -27 -18.5 -45q-18.5 -18 -48.5 -18q-30 0 -48.5 18t-18.5 45z" />
<glyph unicode="&#34;" horiz-adv-x="375" d="M98 700h92l-35 -198h-57zM228 700h92l-35 -198l-57 0z" />
<glyph unicode="&#35;" horiz-adv-x="594" d="M305 221h-113l-42 -164h-81l42 164h-85l17 72h87l32 124h-81l17 72h83l40 154h81l-40 -154h113l40 154h81l-40 -154h83l-19 -72h-83l-32 -124h79l-19 -72h-79l-43 -164h-80zM211 293h113l32 124l-113 0z" />
<glyph unicode="&#36;" horiz-adv-x="594" d="M263 -13q-61 2 -108 11.5q-47 9.5 -75 23.5l31 84q23 -12 60.5 -22.5q37.5 -10.5 91.5 -12.5l0 250q-33 14 -65.5 30.5q-32.5 16.5 -58 40q-25.5 23.5 -41 56q-15.5 32.5 -15.5 78.5q0 78 45 125.5q45 47.5 135 58.5l0 90h79v-88q55 -2 91 -10q36 -8 65 -21v-82q-49 10 -80 18q-31 8 -76 11l0 -229q34 -15 68 -32.5q34 -17.5 61 -41.5q27 -24 43.5 -56q16.5 -32 16.5 -77q0 -83 -48.5 -134.5q-48.5 -51.5 -140.5 -65.5l0 -92h-79zM320 73q51 6 82 32.5q31 26.5 31 76.5q0 22 -9 39q-9 17 -24.5 30.5q-15.5 13.5 -36 24.5q-20.5 11 -43.5 21zM285 628q-58 -5 -81 -31.5q-23 -26.5 -23 -63.5q0 -40 30 -64.5q30 -24.5 74 -44.5z" />
<glyph unicode="&#37;" horiz-adv-x="854" d="M74 542q0 44 13 76q13 32 36 53q23 21 54.5 31q31.5 10 68.5 10q37 0 68.5 -9.5q31.5 -9.5 55 -29.5q23.5 -20 36.5 -52.5q13 -32.5 13 -78.5q0 -46 -13 -78.5q-13 -32.5 -36.5 -52.5q-23.5 -20 -55 -29.5q-31.5 -9.5 -68.5 -9.5q-37 0 -68.5 9.5q-31.5 9.5 -54.5 29.5q-23 20 -36 52.5q-13 32.5 -13 78.5zt0 0zM162 542q0 -54 21.5 -79.5q21.5 -25.5 62.5 -25.5q40 0 62.5 23q22.5 23 22.5 82q0 60 -22 82.5q-22 22.5 -63 22.5q-40 0 -62 -22.5q-22 -22.5 -22 -82.5zt0 0zM473 170q0 44 13 76q13 32 36 53q23 21 54.5 31q31.5 10 68.5 10q37 0 68.5 -9.5q31.5 -9.5 55 -29.5q23.5 -20 36.5 -52.5q13 -32.5 13 -78.5q0 -46 -13 -78.5q-13 -32.5 -36.5 -52.5q-23.5 -20 -55 -29.5q-31.5 -9.5 -68.5 -9.5q-37 0 -68.5 9.5q-31.5 9.5 -54.5 29.5q-23 20 -36 52.5q-13 32.5 -13 78.5zt0 0zM561 170q0 -54 21.5 -79.5q21.5 -25.5 62.5 -25.5q40 0 62.5 23q22.5 23 22.5 82q0 60 -22 82.5q-22 22.5 -63 22.5q-40 0 -62 -22.5q-22 -22.5 -22 -82.5zt0 0zM704 713l58 -48l-572 -678l-57 49z" />
<glyph unicode="&#38;" horiz-adv-x="891" d="M125 189q0 40 15 75.5q15 35.5 40.5 67q25.5 31.5 59 57.5q33.5 26 70.5 46q-26 35 -44.5 70.5q-18.5 35.5 -18.5 76.5q0 24 9 47.5q9 23.5 28.5 42q19.5 18.5 50.5 30q31 11.5 75 11.5q46 0 77.5 -11q31.5 -11 50.5 -28.5q19 -17.5 27 -39.5q8 -22 8 -44q0 -41 -34.5 -86q-34.5 -45 -111.5 -84q38 -58 89 -116q51 -58 104 -108q12 12 24.5 30q12.5 18 23.5 39q11 21 21 42.5q10 21.5 17 41.5l72 -37q-6 -17 -18 -40q-12 -23 -26.5 -46.5q-14.5 -23.5 -29.5 -45q-15 -21.5 -28 -36.5q22 -19 39.5 -32.5q17.5 -13.5 33 -23.5q15.5 -10 29.5 -18q14 -8 29 -15l-56 -68q-28 14 -61.5 37q-33.5 23 -68.5 55q-20 -18 -43.5 -34.5q-23.5 -16.5 -53 -29q-29.5 -12.5 -65.5 -20.5q-36 -8 -79 -8q-52 0 -98 13.5q-46 13.5 -81 39.5q-35 26 -55.5 63.5q-20.5 37.5 -20.5 85.5zt0 0zM563 136q-30 28 -60.5 61q-30.5 33 -57.5 65.5q-27 32.5 -50.5 62.5q-23.5 30 -40.5 53q-59 -40 -96.5 -83.5q-37.5 -43.5 -37.5 -101.5q0 -29 14 -52.5q14 -23.5 37.5 -40q23.5 -16.5 55 -25q31.5 -8.5 66.5 -8.5q26 0 51.5 6q25.5 6 48 15.5q22.5 9.5 40.5 22q18 12.5 30 25.5zt0 0zM342 580q0 -28 12.5 -55.5q12.5 -27.5 33.5 -56.5q56 32 78.5 58q22.5 26 22.5 46q0 32 -16.5 50.5q-16.5 18.5 -58.5 18.5q-38 0 -55 -16.5t-17 -44.5z" />
<glyph unicode="&#39;" horiz-adv-x="244" d="M98 700h92l-35 -198l-57 0z" />
<glyph unicode="&#40;" horiz-adv-x="314" d="M249 -220q-51 48 -85.5 105.5q-34.5 57.5 -56.5 118q-22 60.5 -31.5 122q-9.5 61.5 -9.5 117.5q0 55 9.5 116q9.5 61 31.5 122.5q22 61.5 57.5 120.5q35.5 59 87.5 110l58 -43q-43 -50 -72 -103.5q-29 -53.5 -46 -108q-17 -54.5 -24.5 -109q-7.5 -54.5 -7.5 -105.5q0 -48 8.5 -103q8.5 -55 27 -110.5q18.5 -55.5 47 -108.5q28.5 -53 68.5 -96z" />
<glyph unicode="&#41;" horiz-adv-x="314" d="M3 -175q40 43 68.5 96q28.5 53 47 108.5q18.5 55.5 27 110.5q8.5 55 8.5 103q0 51 -7.5 105.5q-7.5 54.5 -24.5 109q-17 54.5 -46 108q-29 53.5 -72 103.5l58 43q52 -51 87.5 -110q35.5 -59 57.5 -120.5q22 -61.5 31.5 -122.5q9.5 -61 9.5 -116q0 -56 -9.5 -117.5q-9.5 -61.5 -31.5 -122q-22 -60.5 -56.5 -118q-34.5 -57.5 -85.5 -105.5z" />
<glyph unicode="&#42;" horiz-adv-x="387" d="M144 724l28 -44l19 -59l21 58l27 45l54 -30l-29 -47l-50 -49l74 14h53v-63h-51l-69 14l50 -50l25 -41l-53 -31l-28 45l-25 63l-19 -60l-27 -45l-57 31l30 45l46 43l-63 -14h-55v63h55l68 -14l-50 47l-29 48z" />
<glyph unicode="&#43;" horiz-adv-x="554" d="M43 379h191v190h86v-190h191v-84h-191v-191h-86v191l-191 0z" />
<glyph unicode="&#44;" horiz-adv-x="225" d="M59 47q0 26 19 42.5q19 16.5 46 16.5q35 0 57 -23.5q22 -23.5 22 -65.5q0 -39 -11.5 -67.5q-11.5 -28.5 -29.5 -49q-18 -20.5 -39.5 -32.5q-21.5 -12 -42.5 -18l-28 46q38 13 57.5 41.5q19.5 28.5 18.5 57.5q-27 -8 -48 6t-21 46z" />
<glyph unicode="&#45;" horiz-adv-x="394" d="M64 332h266v-86l-266 0z" />
<glyph unicode="&#46;" horiz-adv-x="238" d="M52 51q0 29 18.5 46q18.5 17 48.5 17q30 0 48.5 -17q18.5 -17 18.5 -46q0 -27 -18.5 -45q-18.5 -18 -48.5 -18q-30 0 -48.5 18t-18.5 45z" />
<glyph unicode="&#47;" horiz-adv-x="396" d="M360 712l74 -34l-399 -818l-73 36z" />
<glyph unicode="&#48;" horiz-adv-x="594" d="M44 350q0 175 64 269q64 94 189 94q132 0 193 -93q61 -93 61 -270q0 -174 -65 -268.5q-65 -94.5 -190 -94.5q-66 0 -113.5 26q-47.5 26 -78 73.5q-30.5 47.5 -45.5 114.5q-15 67 -15 149zt0 0zM142 350q0 -61 9 -112.5q9 -51.5 27.5 -89.5q18.5 -38 48 -59.5q29.5 -21.5 70.5 -21.5q81 0 118.5 70q37.5 70 37.5 213q0 61 -8 112.5q-8 51.5 -26.5 89.5q-18.5 38 -48.5 59.5q-30 21.5 -73 21.5q-81 0 -118 -71t-37 -212z" />
<glyph unicode="&#49;" horiz-adv-x="594" d="M113 84h152v465l12 61l-44 -50l-119 -80l-42 59l241 173h44v-628h150v-84l-394 0z" />
<glyph unicode="&#50;" horiz-adv-x="594" d="M489 536q0 -51 -21 -104.5q-21 -53.5 -54.5 -106.5q-33.5 -53 -75 -105q-41.5 -52 -83.5 -100l-54 -43v-4l72 11h233v-84h-441v36q24 23 57.5 56.5q33.5 33.5 70 74q36.5 40.5 72 85.5q35.5 45 63.5 91.5q28 46.5 45.5 91.5q17.5 45 17.5 85q0 47 -29 78q-29 31 -89 31q-42 0 -81 -16q-39 -16 -67 -39l-41 67q41 33 93 52.5q52 19.5 115 19.5q93 0 145 -48.5t52 -128.5z" />
<glyph unicode="&#51;" horiz-adv-x="594" d="M255 69q37 0 68 10q31 10 53 28q22 18 34.5 43q12.5 25 12.5 55q0 66 -44 98q-44 32 -125 32h-81v38l153 208l52 44l-74 -9h-210v84h395v-39l-169 -227l-40 -29v-3l38 7q43 -1 79.5 -15q36.5 -14 63.5 -39.5q27 -25.5 42 -61q15 -35.5 15 -79.5q0 -56 -21 -98q-21 -42 -57 -71q-36 -29 -84 -43.5q-48 -14.5 -103 -14.5q-49 0 -90 7.5q-41 7.5 -71 20.5l25 82q26 -12 60.5 -20t77.5 -8z" />
<glyph unicode="&#52;" horiz-adv-x="594" d="M576 211h-128v-211h-92v211h-337v42l362 457h67v-421h128zM356 492l9 80h-3l-37 -65l-148 -179l-53 -47l75 8l157 0z" />
<glyph unicode="&#53;" horiz-adv-x="594" d="M106 90q25 -9 53.5 -14q28.5 -5 72.5 -5q75 0 123 36.5q48 36.5 48 107.5q0 69 -48.5 103.5q-48.5 34.5 -134.5 34.5l-91 -4v351h347v-88h-259v-181l47 2q54 0 97 -15q43 -15 73.5 -42q30.5 -27 47 -66.5q16.5 -39.5 16.5 -89.5q0 -57 -21 -100.5q-21 -43.5 -57.5 -73q-36.5 -29.5 -85.5 -44.5q-49 -15 -105 -15q-48 0 -83.5 6q-35.5 6 -65.5 17l26 80z" />
<glyph unicode="&#54;" horiz-adv-x="594" d="M540 212q0 -44 -16 -84.5q-16 -40.5 -46 -72q-30 -31.5 -74 -50q-44 -18.5 -100 -18.5q-54 0 -98.5 17q-44.5 17 -76.5 49q-32 32 -49.5 79q-17.5 47 -17.5 107q0 96 28 178.5q28 82.5 77.5 145.5q49.5 63 117 102q67.5 39 147.5 48l19 -76q-60 -8 -109.5 -35.5q-49.5 -27.5 -87 -67q-37.5 -39.5 -61.5 -88q-24 -48.5 -32 -98.5q9 13 23.5 26q14.5 13 34.5 23q20 10 45 16q25 6 54 6q51 0 92.5 -14.5q41.5 -14.5 70 -41.5q28.5 -27 44 -65q15.5 -38 15.5 -86zt0 0zM445 205q0 66 -36.5 100q-36.5 34 -109.5 34q-53 0 -90.5 -23q-37.5 -23 -52.5 -52q-2 -13 -2 -20.5q0 -7.5 0 -17.5q0 -29 9 -57.5q9 -28.5 28 -51q19 -22.5 47.5 -36.5q28.5 -14 66.5 -14q31 0 56.5 11q25.5 11 44 30q18.5 19 29 44t10.5 53z" />
<glyph unicode="&#55;" horiz-adv-x="594" d="M115 0l270 573l48 49l-65 -10h-306v88h464v-29l-315 -671z" />
<glyph unicode="&#56;" horiz-adv-x="594" d="M217 360q-27 15 -50.5 31.5q-23.5 16.5 -41 37.5q-17.5 21 -27.5 47q-10 26 -10 59q0 38 15 70.5q15 32.5 43 56.5q28 24 68 37.5q40 13.5 90 13.5q46 0 83.5 -12q37.5 -12 64 -34q26.5 -22 41 -51.5q14.5 -29.5 14.5 -64.5q0 -57 -28 -100q-28 -43 -93 -83q29 -16 54.5 -33.5q25.5 -17.5 44 -39.5q18.5 -22 29 -49q10.5 -27 10.5 -61q0 -43 -15.5 -79q-15.5 -36 -45.5 -62.5q-30 -26.5 -73.5 -41.5q-43.5 -15 -98.5 -15q-53 0 -93.5 14.5q-40.5 14.5 -69 39q-28.5 24.5 -43 58q-14.5 33.5 -14.5 71.5q0 63 36 108q36 45 110 82zt0 0zM279 329q-64 -32 -91 -71.5q-27 -39.5 -27 -74.5q0 -23 9 -44q9 -21 26 -37q17 -16 42 -25.5q25 -9.5 58 -9.5q27 0 52 7.5q25 7.5 43.5 21.5q18.5 14 29.5 35.5q11 21.5 11 49.5q0 27 -13 48.5q-13 21.5 -34.5 39q-21.5 17.5 -49 32q-27.5 14.5 -56.5 28.5zt0 0zM324 395q46 33 69 66q23 33 23 71q0 24 -9.5 42.5q-9.5 18.5 -25 31.5q-15.5 13 -36.5 20q-21 7 -44 7q-29 0 -51 -8.5q-22 -8.5 -37.5 -22q-15.5 -13.5 -23.5 -30.5q-8 -17 -8 -35q0 -27 12 -48q12 -21 31.5 -37.5q19.5 -16.5 45.5 -30t54 -26.5z" />
<glyph unicode="&#57;" horiz-adv-x="594" d="M53 487q0 47 15.5 88.5q15.5 41.5 45.5 72q30 30.5 75 48q45 17.5 104 17.5q56 0 100.5 -18q44.5 -18 75.5 -51q31 -33 47.5 -80q16.5 -47 16.5 -106q0 -113 -28.5 -198q-28.5 -85 -79 -143.5q-50.5 -58.5 -118 -90.5q-67.5 -32 -145.5 -39l-20 75q63 7 113 30.5q50 23.5 86 60q36 36.5 59 83q23 46.5 32 100.5q-15 -16 -30.5 -27q-15.5 -11 -34 -17.5q-18.5 -6.5 -41 -9q-22.5 -2.5 -51.5 -2.5q-44 0 -84.5 14q-40.5 14 -71 40q-30.5 26 -48.5 64.5q-18 38.5 -18 88.5zt0 0zM149 494q0 -67 41 -101.5q41 -34.5 106 -34.5q53 0 89.5 17q36.5 17 53.5 41q2 12 2 21q0 9 0 20q0 33 -9 65q-9 32 -27.5 57q-18.5 25 -47.5 40.5q-29 15.5 -69 15.5q-66 0 -102.5 -37.5t-36.5 -103.5z" />
<glyph unicode="&#58;" horiz-adv-x="273" d="M99 445q0 29 18.5 46q18.5 17 48.5 17q30 0 48.5 -17q18.5 -17 18.5 -46q0 -27 -18.5 -45q-18.5 -18 -48.5 -18q-30 0 -48.5 18q-18.5 18 -18.5 45zt0 0zM99 51q0 29 18.5 46q18.5 17 48.5 17q30 0 48.5 -17q18.5 -17 18.5 -46q0 -27 -18.5 -45q-18.5 -18 -48.5 -18q-30 0 -48.5 18t-18.5 45z" />
<glyph unicode="&#59;" horiz-adv-x="277" d="M93 47q0 26 19 42.5q19 16.5 46 16.5q35 0 57 -23.5q22 -23.5 22 -65.5q0 -39 -11.5 -67.5q-11.5 -28.5 -29.5 -49q-18 -20.5 -39.5 -32.5q-21.5 -12 -42.5 -18l-28 46q38 13 57.5 41.5q19.5 28.5 18.5 57.5q-27 -8 -48 6q-21 14 -21 46zt0 0zM98 445q0 29 18.5 46q18.5 17 48.5 17q30 0 48.5 -17q18.5 -17 18.5 -46q0 -27 -18.5 -45q-18.5 -18 -48.5 -18q-30 0 -48.5 18t-18.5 45z" />
<glyph unicode="&#60;" horiz-adv-x="554" d="M44 300v38l419 236l42 -72l-256 -144l-100 -37l99 -32l262 -143l-41 -70z" />
<glyph unicode="&#61;" horiz-adv-x="554" d="M43 465h468v-84h-468zM43 293h468v-84l-468 0z" />
<glyph unicode="&#62;" horiz-adv-x="554" d="M510 348v-38l-420 -235l-41 72l256 144l100 37l-99 32l-262 143l40 71z" />
<glyph unicode="&#63;" horiz-adv-x="479" d="M160 184q-4 50 7.5 86q11.5 36 31.5 64q20 28 44.5 50q24.5 22 46 44q21.5 22 36 47q14.5 25 14.5 58q0 44 -26.5 72q-26.5 28 -92.5 28q-40 0 -81.5 -15q-41.5 -15 -70.5 -32l-32 72q42 26 89 40.5q47 14.5 116 14.5q49 0 86 -13q37 -13 62 -35.5q25 -22.5 37.5 -53q12.5 -30.5 12.5 -65.5q0 -47 -15 -80.5q-15 -33.5 -37 -59.5q-22 -26 -48 -48q-26 -22 -48 -46.5q-22 -24.5 -37 -54.5q-15 -30 -15 -73zM138 51q0 29 18.5 46q18.5 17 48.5 17q30 0 48.5 -17q18.5 -17 18.5 -46q0 -27 -18.5 -45q-18.5 -18 -48.5 -18q-30 0 -48.5 18t-18.5 45z" />
<glyph unicode="&#64;" horiz-adv-x="1163" d="M770 490h42l-56 -282q-12 -63 -8 -93q4 -30 40 -30q36 0 71.5 17q35.5 17 63 48.5q27.5 31.5 45 76q17.5 44.5 17.5 99.5q0 79 -29 139.5q-29 60.5 -80 101.5q-51 41 -121.5 62q-70.5 21 -152.5 21q-89 0 -166 -31q-77 -31 -134 -85.5q-57 -54.5 -90 -129q-33 -74.5 -33 -162.5q0 -87 29 -157.5q29 -70.5 83.5 -120q54.5 -49.5 132 -76q77.5 -26.5 173.5 -26.5q32 0 71.5 7.5q39.5 7.5 72.5 21.5l23 -75q-48 -20 -90 -27q-42 -7 -92 -7q-104 0 -193 30.5q-89 30.5 -155 88.5q-66 58 -103.5 142.5q-37.5 84.5 -37.5 192.5q0 112 41 203q41 91 111.5 155.5q70.5 64.5 163.5 100q93 35.5 198 35.5q98 0 182.5 -28.5q84.5 -28.5 147 -81q62.5 -52.5 98 -127q35.5 -74.5 35.5 -167.5q0 -62 -24 -119.5q-24 -57.5 -65.5 -102q-41.5 -44.5 -96.5 -71q-55 -26.5 -117 -26.5q-28 0 -49.5 6.5q-21.5 6.5 -35 22q-13.5 15.5 -17.5 41.5q-4 26 3 65l-4 0q-16 -24 -37 -48q-21 -24 -46 -43.5q-25 -19.5 -54.5 -31.5q-29.5 -12 -62.5 -12q-26 0 -49 11q-23 11 -40.5 31.5q-17.5 20.5 -27.5 48.5q-10 28 -10 62q0 60 22.5 120q22.5 60 61.5 108q39 48 90.5 78q51.5 30 108.5 30q40 0 65 -11.5q25 -11.5 48 -27.5zM706 383q-18 19 -36 27q-18 8 -46 8q-42 0 -77.5 -23q-35.5 -23 -61.5 -58.5q-26 -35.5 -41 -78q-15 -42.5 -15 -82.5q0 -36 16.5 -63.5q16.5 -27.5 61.5 -27.5q21 0 44 14q23 14 45.5 37q22.5 23 43 52q20.5 29 36.5 59z" />
<glyph unicode="&#65;" horiz-adv-x="645" d="M457 183h-277l-74 -183h-98l288 710h52l289 -710h-104zM210 267h218l-81 199l-27 107h-2l-27 -109z" />
<glyph unicode="&#66;" horiz-adv-x="641" d="M559 538q0 -26 -8.5 -51.5q-8.5 -25.5 -26 -48q-17.5 -22.5 -44.5 -39.5q-27 -17 -64 -25l0 -4q32 -4 62 -16q30 -12 53 -33q23 -21 37 -51q14 -30 14 -71q0 -54 -25 -93.5q-25 -39.5 -66 -65q-41 -25.5 -92.5 -37.5q-51.5 -12 -103.5 -12q-18 0 -44 0.5q-26 0.5 -54.5 2q-28.5 1.5 -57 4q-28.5 2.5 -50.5 7.5l0 689q41 7 96 11q55 4 118 4q43 0 88.5 -7.5q45.5 -7.5 82.5 -26.5q37 -19 61 -52q24 -33 24 -85zt0 0zM187 82q7 -2 21 -3q14 -1 30.5 -2q16.5 -1 33 -1.5q16.5 -0.5 30.5 -0.5q34 0 65.5 7q31.5 7 55.5 22q24 15 38.5 38q14.5 23 14.5 55q0 40 -17.5 63.5q-17.5 23.5 -45.5 36q-28 12.5 -63 16q-35 3.5 -69 3.5h-94zM242 394q19 0 44 1.5q25 1.5 42 3.5q25 7 47.5 17.5q22.5 10.5 39.5 25q17 14.5 27 34q10 19.5 10 44.5q0 34 -13.5 54.5q-13.5 20.5 -35.5 31.5q-22 11 -50 15q-28 4 -57 4q-35 0 -64.5 -1.5q-29.5 -1.5 -44.5 -3.5l0 -226z" />
<glyph unicode="&#67;" horiz-adv-x="624" d="M584 30q-33 -24 -84 -33.5q-51 -9.5 -108 -9.5q-67 0 -127.5 21.5q-60.5 21.5 -106.5 66q-46 44.5 -73 113q-27 68.5 -27 162.5q0 98 30 167q30 69 78 112.5q48 43.5 108 63.5q60 20 119 20q66 0 108 -7q42 -7 71 -18l-22 -86q-49 23 -149 23q-45 0 -87.5 -14.5q-42.5 -14.5 -76 -47q-33.5 -32.5 -53.5 -85q-20 -52.5 -20 -128.5q0 -68 19 -119.5q19 -51.5 52.5 -86q33.5 -34.5 79 -52q45.5 -17.5 99.5 -17.5q49 0 85 9q36 9 61 23z" />
<glyph unicode="&#68;" horiz-adv-x="715" d="M89 700q20 3 46.5 4.5q26.5 1.5 55 2.5q28.5 1 56 1.5q27.5 0.5 50.5 0.5q92 0 159.5 -26.5q67.5 -26.5 112 -73.5q44.5 -47 66.5 -112q22 -65 22 -142q0 -70 -20.5 -135.5q-20.5 -65.5 -65.5 -116.5q-45 -51 -115.5 -82q-70.5 -31 -170.5 -31q-17 0 -45.5 1q-28.5 1 -58.5 2q-30 1 -55.5 2.5q-25.5 1.5 -36.5 3.5zM300 621q-14 0 -30 0q-16 0 -32 -1q-16 -1 -29 -2q-13 -1 -20 -2l0 -534q5 -1 19.5 -1.5q14.5 -0.5 30.5 -1q16 -0.5 30 -1q14 -0.5 20 -0.5q75 0 125.5 23.5q50.5 23.5 81 62.5q30.5 39 43 88.5q12.5 49.5 12.5 102.5q0 45 -12 92q-12 47 -41 85.5q-29 38.5 -77 63.5t-121 25z" />
<glyph unicode="&#69;" horiz-adv-x="585" d="M89 700h423v-86h-323v-213h295v-86h-295v-229h328v-86l-428 0z" />
<glyph unicode="&#70;" horiz-adv-x="565" d="M89 700h423v-86h-323v-223h300v-86h-300v-305l-100 0z" />
<glyph unicode="&#71;" horiz-adv-x="668" d="M348 353h262v-309q-18 -14 -43 -24.5q-25 -10.5 -53.5 -17.5q-28.5 -7 -58.5 -11q-30 -4 -59 -4q-72 0 -133.5 21.5q-61.5 21.5 -107 66.5q-45.5 45 -71.5 113.5q-26 68.5 -26 161.5q0 97 31.5 166q31.5 69 81.5 113q50 44 111.5 64q61.5 20 122.5 20q66 0 109.5 -7.5q43.5 -7.5 72.5 -18.5l-24 -85q-52 23 -150 23q-45 0 -89.5 -14q-44.5 -14 -80 -46.5q-35.5 -32.5 -57.5 -85q-22 -52.5 -22 -129.5q0 -71 18.5 -123q18.5 -52 51.5 -86q33 -34 78 -50q45 -16 98 -16q33 0 63.5 6.5q30.5 6.5 53.5 18.5l0 177l-179 18z" />
<glyph unicode="&#72;" horiz-adv-x="733" d="M544 313h-355v-313h-100v700h100v-299h355v299h100v-700l-100 0z" />
<glyph unicode="&#73;" horiz-adv-x="398" d="M149 634h-80v66h260v-66h-80v-568h80v-66h-260v66l80 0z" />
<glyph unicode="&#74;" horiz-adv-x="325" d="M125 700h100v-540q0 -78 -40.5 -124q-40.5 -46 -119.5 -46q-10 0 -23.5 1q-13.5 1 -27.5 3.5q-14 2.5 -27 5.5q-13 3 -22 7l19 83q28 -12 67 -12q45 0 59.5 29q14.5 29 14.5 80z" />
<glyph unicode="&#75;" horiz-adv-x="669" d="M238 318h-49v-318h-100v700h100v-322l46 14l252 308h114l-252 -300l-47 -34l55 -40l278 -326l-126 0z" />
<glyph unicode="&#76;" horiz-adv-x="566" d="M547 0h-458v700h100v-612l358 0z" />
<glyph unicode="&#77;" horiz-adv-x="868" d="M679 451l11 112h-4l-43 -97l-195 -310h-30l-205 311l-41 95h-5l16 -110v-452h-94v700h75l237 -357l37 -76h2l35 78l225 355h79v-700l-100 0z" />
<glyph unicode="&#78;" horiz-adv-x="735" d="M235 445l-60 98h-4l12 -98v-445h-94v710h56l357 -454l57 -93h5l-12 93v444h94v-710l-56 0z" />
<glyph unicode="&#79;" horiz-adv-x="747" d="M58 350q0 86 21.5 153.5q21.5 67.5 62 114q40.5 46.5 99 71q58.5 24.5 132.5 24.5q79 0 138.5 -26.5q59.5 -26.5 99 -74q39.5 -47.5 59 -114.5q19.5 -67 19.5 -148q0 -86 -21.5 -153.5q-21.5 -67.5 -62.5 -114q-41 -46.5 -99.5 -71q-58.5 -24.5 -132.5 -24.5q-80 0 -139 26.5q-59 26.5 -98 74q-39 47.5 -58.5 114.5q-19.5 67 -19.5 148zt0 0zM164 350q0 -57 12.5 -107q12.5 -50 38 -88q25.5 -38 65 -60q39.5 -22 93.5 -22q97 0 153.5 67q56.5 67 56.5 210q0 56 -12.5 106q-12.5 50 -38 88q-25.5 38 -65 60.5q-39.5 22.5 -94.5 22.5q-96 0 -152.5 -68t-56.5 -209z" />
<glyph unicode="&#80;" horiz-adv-x="614" d="M89 693q42 9 91.5 12.5q49.5 3.5 97.5 3.5q51 0 103.5 -9q52.5 -9 95.5 -33q43 -24 70.5 -66.5q27.5 -42.5 27.5 -109.5q0 -63 -25 -107.5q-25 -44.5 -66.5 -72.5q-41.5 -28 -95 -41q-53.5 -13 -110.5 -13q-6 0 -18.5 0.5q-12.5 0.5 -26 1q-13.5 0.5 -26 1.5q-12.5 1 -18.5 2l0 -262h-100zM281 623q-27 0 -52.5 -1q-25.5 -1 -39.5 -5l0 -269q5 -2 16.5 -2.5q11.5 -0.5 24 -1.5q12.5 -1 24 -1q11.5 0 17.5 0q36 0 71 5.5q35 5.5 63.5 21.5q28.5 16 46 45q17.5 29 17.5 75q0 40 -17 66q-17 26 -44 41q-27 15 -60.5 20.5t-66.5 5.5z" />
<glyph unicode="&#81;" horiz-adv-x="747" d="M771 -181q-26 -7 -52 -9.5q-26 -2.5 -52 -2.5q-55 0 -107.5 10.5q-52.5 10.5 -101 23q-48.5 12.5 -93.5 23q-45 10.5 -85 10.5q-25 0 -49 -6l0 86q30 6 60 6q45 0 90.5 -10.5q45.5 -10.5 92 -22.5q46.5 -12 96 -22.5q49.5 -10.5 103.5 -10.5q23 0 47.5 2.5q24.5 2.5 50.5 8.5zM58 350q0 86 21.5 153.5q21.5 67.5 62 114q40.5 46.5 99 71q58.5 24.5 132.5 24.5q79 0 138.5 -26.5q59.5 -26.5 99 -74q39.5 -47.5 59 -114.5q19.5 -67 19.5 -148q0 -86 -21.5 -153.5q-21.5 -67.5 -62.5 -114q-41 -46.5 -99.5 -71q-58.5 -24.5 -132.5 -24.5q-80 0 -139 26.5q-59 26.5 -98 74q-39 47.5 -58.5 114.5q-19.5 67 -19.5 148zt0 0zM164 350q0 -57 12.5 -107q12.5 -50 38 -88q25.5 -38 65 -60q39.5 -22 93.5 -22q97 0 153.5 67q56.5 67 56.5 210q0 56 -12.5 106q-12.5 50 -38 88q-25.5 38 -65 60.5q-39.5 22.5 -94.5 22.5q-96 0 -152.5 -68t-56.5 -209z" />
<glyph unicode="&#82;" horiz-adv-x="653" d="M89 693q21 4 46.5 7q25.5 3 51.5 5q26 2 52 3q26 1 49 1q50 0 96.5 -10q46.5 -10 82 -33q35.5 -23 57 -60q21.5 -37 21.5 -91q0 -42 -13 -76q-13 -34 -36 -60q-23 -26 -54.5 -43.5q-31.5 -17.5 -68.5 -26.5l52 -35l188 -274h-115l-208 295l-101 14v-309h-100zM291 623q-14 0 -28.5 0q-14.5 0 -28.5 -1q-14 -1 -26 -2q-12 -1 -19 -3l0 -242h82q36 0 66.5 7.5q30.5 7.5 53 23q22.5 15.5 35.5 40.5q13 25 13 61q0 54 -38 85t-110 31z" />
<glyph unicode="&#83;" horiz-adv-x="581" d="M433 184q0 41 -27 65q-27 24 -68 41.5q-41 17.5 -88 33q-47 15.5 -88 39.5q-41 24 -68 62q-27 38 -27 99q0 85 62.5 137q62.5 52 178.5 52q67 0 123 -10q56 -10 88 -26l-31 -84q-25 13 -75 23.5q-50 10.5 -110 10.5q-68 0 -102 -29q-34 -29 -34 -67q0 -39 27 -63q27 -24 68 -42.5q41 -18.5 88 -35.5q47 -17 88 -42q41 -25 68 -61.5q27 -36.5 27 -93.5q0 -47 -18 -85q-18 -38 -52 -65q-34 -27 -82 -41.5q-48 -14.5 -109 -14.5q-82 0 -138.5 12.5q-56.5 12.5 -85.5 26.5l33 87q25 -13 75.5 -26.5q50.5 -13.5 111.5 -13.5q35 0 65 6.5q30 6.5 52.5 20q22.5 13.5 35 34.5t12.5 50z" />
<glyph unicode="&#84;" horiz-adv-x="610" d="M591 612h-236v-612h-100v612h-236v88l572 0z" />
<glyph unicode="&#85;" horiz-adv-x="710" d="M527 700h94v-457q0 -65 -18.5 -112q-18.5 -47 -52.5 -78.5q-34 -31.5 -80.5 -46.5q-46.5 -15 -103.5 -15q-135 0 -206 58.5q-71 58.5 -71 173.5v477h100v-439q0 -102 44.5 -142q44.5 -40 131.5 -40q84 0 123 44q39 44 39 141z" />
<glyph unicode="&#86;" horiz-adv-x="628" d="M296 234l26 -109h2l27 111l180 464h100l-290 -710h-50l-294 710l110 0z" />
<glyph unicode="&#87;" horiz-adv-x="913" d="M247 246l16 -117h2l18 119l155 452h50l156 -454l18 -117h2l19 119l124 452h98l-213 -710h-57l-153 455l-21 106h-5l-20 -107l-153 -454h-58l-217 710l105 0z" />
<glyph unicode="&#88;" horiz-adv-x="678" d="M280 356l-231 344h119l151 -230l27 -58l26 58l158 230h110l-238 -337l249 -363h-117l-167 244l-31 61l-28 -61l-171 -244l-110 0z" />
<glyph unicode="&#89;" horiz-adv-x="617" d="M261 274l-254 426h117l175 -297l17 -64h2l19 66l167 295h106l-249 -425v-275l-100 0z" />
<glyph unicode="&#90;" horiz-adv-x="596" d="M39 88l377 484l49 40h-426v88h518v-88l-380 -487l-47 -37h427v-88l-518 0z" />
<glyph unicode="&#91;" horiz-adv-x="336" d="M89 700h206v-80h-114v-770h114v-80l-206 0z" />
<glyph unicode="&#92;" horiz-adv-x="421" d="M442 -103l-76 -37l-402 816l76 36z" />
<glyph unicode="&#93;" horiz-adv-x="336" d="M247 -230h-206v80h114v770h-114v80l206 0z" />
<glyph unicode="&#94;" horiz-adv-x="554" d="M266 710h38l188 -280h-98l-85 132l-26 69l-32 -70l-100 -131l-90 0z" />
<glyph unicode="&#95;" horiz-adv-x="452" d="M0 -131h452v-78l-452 0z" />
<glyph unicode="&#96;" horiz-adv-x="301" d="M241 570h-54l-127 127v23l110 0z" />
<glyph unicode="&#97;" horiz-adv-x="582" d="M82 492q90 43 223 43q60 0 96.5 -15.5q36.5 -15.5 56.5 -39.5q20 -24 26.5 -53.5q6.5 -29.5 6.5 -58.5q0 -55 -4 -110.5q-4 -55.5 -4 -120.5q0 -38 3.5 -73.5q3.5 -35.5 11.5 -65.5l-67 0l-25 80h-10q-11 -15 -27 -30.5q-16 -15.5 -38 -27.5q-22 -12 -50.5 -20q-28.5 -8 -65.5 -8q-37 0 -68 10.5q-31 10.5 -53.5 29.5q-22.5 19 -35.5 46.5q-13 27.5 -13 61.5q0 45 19.5 78q19.5 33 50.5 54q31 21 70.5 31q39.5 10 78.5 10q31 0 52.5 -1q21.5 -1 36 -2.5q14.5 -1.5 24.5 -3q10 -1.5 18 -2.5q2 15 3 26q1 11 1 28q0 28 -6 47q-6 19 -19.5 30.5q-13.5 11.5 -36.5 16.5q-23 5 -56 5q-19 0 -42 -3q-23 -3 -46 -8.5q-23 -5.5 -45.5 -13.5q-22.5 -8 -40.5 -17zM395 238q-8 1 -17 3q-9 2 -22.5 3q-13.5 1 -32 2q-18.5 1 -45.5 1q-62 0 -98.5 -22q-36.5 -22 -36.5 -75q0 -40 28.5 -60q28.5 -20 73.5 -20q33 0 58.5 8.5q25.5 8.5 44 21q18.5 12.5 30 28q11.5 15.5 17.5 30.5z" />
<glyph unicode="&#98;" horiz-adv-x="629" d="M88 700h92v-240h10q23 40 66 59.5q43 19.5 91 19.5q109 0 165.5 -66.5q56.5 -66.5 56.5 -200.5q0 -137 -74 -209q-74 -72 -208 -72q-66 0 -119.5 11q-53.5 11 -79.5 26zM334 461q-32 0 -56.5 -10q-24.5 -10 -43.5 -27.5q-19 -17.5 -32.5 -40q-13.5 -22.5 -21.5 -46.5l0 -249q49 -19 119 -19q79 0 125.5 48.5q46.5 48.5 46.5 155.5q0 40 -8 74.5q-8 34.5 -25 59.5q-17 25 -42.5 39.5t-61.5 14.5z" />
<glyph unicode="&#99;" horiz-adv-x="529" d="M484 36q-35 -25 -82 -37.5q-47 -12.5 -99 -12.5q-66 0 -112.5 20q-46.5 20 -75.5 56q-29 36 -42 87q-13 51 -13 113q0 133 64.5 205.5q64.5 72.5 185.5 72.5q53 0 92 -9.5q39 -9.5 70 -23.5l-24 -75q-27 14 -58.5 22q-31.5 8 -68.5 8q-163 0 -163 -200q0 -38 9 -73.5q9 -35.5 29 -63q20 -27.5 52.5 -44.5q32.5 -17 79.5 -17q42 0 73.5 11.5q31.5 11.5 52.5 27.5z" />
<glyph unicode="&#100;" horiz-adv-x="629" d="M538 181q0 -51 1.5 -95.5q1.5 -44.5 9.5 -87.5l-61 0l-23 80h-10q-23 -40 -67.5 -66q-44.5 -26 -103.5 -26q-113 0 -168.5 67q-55.5 67 -55.5 206q0 134 68.5 205.5q68.5 71.5 192.5 71.5q21 0 37.5 -1.5q16.5 -1.5 31 -3.5q14.5 -2 28 -6q13.5 -4 28.5 -8l0 183h92zM446 428q-23 17 -49.5 23.5q-26.5 6.5 -70.5 6.5q-81 0 -125.5 -47q-44.5 -47 -44.5 -153q0 -42 8 -77.5q8 -35.5 25 -61.5q17 -26 45 -40.5q28 -14.5 69 -14.5q61 0 95 30.5q34 30.5 48 90.5z" />
<glyph unicode="&#101;" horiz-adv-x="598" d="M515 43q-35 -26 -87 -41.5q-52 -15.5 -113 -15.5q-66 0 -114.5 19.5q-48.5 19.5 -79.5 55.5q-31 36 -46 87q-15 51 -15 114q0 135 66.5 206.5q66.5 71.5 189.5 71.5q39 0 78 -8.5q39 -8.5 70 -32q31 -23.5 50.5 -64.5q19.5 -41 19.5 -107q0 -16 -1 -37q-1 -21 -4 -41l-375 0q2 -92 44 -139q42 -47 143 -47q42 0 80 14.5q38 14.5 59 34.5zM446 316q2 80 -32.5 113q-34.5 33 -96.5 33q-70 0 -111 -33q-41 -33 -48 -113z" />
<glyph unicode="&#102;" horiz-adv-x="364" d="M24 525h89v14q0 49 9 82.5q9 33.5 28.5 54q19.5 20.5 51 29.5q31.5 9 76.5 9q38 0 66.5 -4.5q28.5 -4.5 59.5 -15.5l-20 -75q-26 11 -48.5 14q-22.5 3 -43.5 3q-28 0 -45 -5q-17 -5 -26.5 -17.5q-9.5 -12.5 -12.5 -34q-3 -21.5 -3 -54.5l154 0v-78h-154v-447h-92v447l-89 0z" />
<glyph unicode="&#103;" horiz-adv-x="627" d="M537 -3q0 -103 -60.5 -153.5q-60.5 -50.5 -177.5 -50.5q-68 0 -110 8q-42 8 -72 22l22 83q13 -6 30 -12.5q17 -6.5 36 -11.5q19 -5 38.5 -8q19.5 -3 37.5 -3q49 0 81 8.5q32 8.5 51 26.5q19 18 26 46q7 28 7 67v37h-11q-16 -26 -56 -42q-40 -16 -97 -16q-114 0 -168 61.5q-54 61.5 -54 198.5q0 135 70 208q70 73 208 73q66 0 113.5 -8q47.5 -8 85.5 -21zM302 76q61 0 95.5 31q34.5 31 47.5 81l0 258q-23 7 -53 11q-30 4 -68 4q-78 0 -122 -49.5q-44 -49.5 -44 -151.5q0 -88 32.5 -136t111.5 -48z" />
<glyph unicode="&#104;" horiz-adv-x="641" d="M461 0v290q0 43 -5.5 74.5q-5.5 31.5 -20 52.5q-14.5 21 -39 31q-24.5 10 -61.5 10q-26 0 -51 -9q-25 -9 -46 -25q-21 -16 -36 -38.5q-15 -22.5 -22 -50.5l0 -335h-92v700h92v-240h11q30 36 72 58q42 22 104 22q48 0 83 -10.5q35 -10.5 58 -37q23 -26.5 34 -71q11 -44.5 11 -111.5l0 -310z" />
<glyph unicode="&#105;" horiz-adv-x="317" d="M114 525h92v-525h-92zM95 650q0 23 18 41.5q18 18.5 47 18.5q29 0 48 -18.5q19 -18.5 19 -41.5q0 -23 -19 -40.5q-19 -17.5 -48 -17.5q-29 0 -47 17.5t-18 40.5z" />
<glyph unicode="&#106;" horiz-adv-x="312" d="M112 525h92v-543q0 -97 -36.5 -144.5q-36.5 -47.5 -117.5 -47.5q-8 0 -17.5 0q-9.5 0 -20.5 2l0 76q33 -1 52.5 8q19.5 9 30 27.5q10.5 18.5 14 46q3.5 27.5 3.5 65.5zM91 650q0 23 18 41.5q18 18.5 47 18.5q29 0 48 -18.5q19 -18.5 19 -41.5q0 -23 -19 -40.5q-19 -17.5 -48 -17.5q-29 0 -47 17.5t-18 40.5z" />
<glyph unicode="&#107;" horiz-adv-x="557" d="M237 236h-57v-236h-92v700h92v-414l52 17l174 222h108l-167 -203h1l-55 -40l63 -45l185 -237l-116 0z" />
<glyph unicode="&#108;" horiz-adv-x="336" d="M192 139q0 -41 15.5 -58q15.5 -17 41.5 -17q16 0 31 2q15 2 36 8l12 -68q-10 -4 -24 -7.5q-14 -3.5 -29 -6.5q-15 -3 -30 -4.5q-15 -1.5 -27 -1.5q-54 0 -86 27.5q-32 27.5 -32 91.5v595l92 0z" />
<glyph unicode="&#109;" horiz-adv-x="948" d="M428 0v288q0 42 -4 74q-4 32 -16 53.5q-12 21.5 -33.5 32q-21.5 10.5 -55.5 10.5q-53 0 -88.5 -29.5q-35.5 -29.5 -50.5 -75.5l0 -353h-92v525h63l18 -70h10q32 36 73.5 60.5q41.5 24.5 105.5 24.5q54 0 90.5 -23q36.5 -23 55.5 -77q30 46 76 73q46 27 103 27q48 0 81.5 -11q33.5 -11 54.5 -38q21 -27 31 -73q10 -46 10 -116v-302h-92v302q0 40 -4.5 69q-4.5 29 -16.5 48.5q-12 19.5 -33.5 29q-21.5 9.5 -56.5 9.5q-57 0 -90 -30q-33 -30 -47 -90l0 -338z" />
<glyph unicode="&#110;" horiz-adv-x="641" d="M461 0v290q0 84 -27 126q-27 42 -96 42q-61 0 -101.5 -31.5q-40.5 -31.5 -56.5 -80.5l0 -346h-92v525h64l18 -70h9q29 36 75.5 60.5q46.5 24.5 111.5 24.5q46 0 81 -10.5q35 -10.5 58.5 -37q23.5 -26.5 35.5 -71q12 -44.5 12 -112.5l0 -309z" />
<glyph unicode="&#111;" horiz-adv-x="631" d="M60 262q0 65 17 116.5q17 51.5 50 87.5q33 36 80.5 55q47.5 19 108.5 19q64 0 112 -21q48 -21 80 -58.5q32 -37.5 47.5 -88q15.5 -50.5 15.5 -110.5q0 -64 -17.5 -115q-17.5 -51 -50 -87q-32.5 -36 -80 -55q-47.5 -19 -107.5 -19q-66 0 -114 21q-48 21 -79.5 58q-31.5 37 -47 87.5q-15.5 50.5 -15.5 109.5zt0 0zM158 262q0 -37 8.5 -72.5q8.5 -35.5 27.5 -63.5q19 -28 49 -45q30 -17 74 -17q156 0 156 198q0 39 -8.5 75q-8.5 36 -27 63.5q-18.5 27.5 -48.5 44.5q-30 17 -72 17q-78 0 -118.5 -49.5t-40.5 -150.5z" />
<glyph unicode="&#112;" horiz-adv-x="630" d="M88 525h62l18 -67h9q27 39 70 60.5q43 21.5 97 21.5q114 0 170 -63.5q56 -63.5 56 -202.5q0 -66 -18.5 -119.5q-18.5 -53.5 -53 -91q-34.5 -37.5 -84 -57.5q-49.5 -20 -110.5 -20q-20 0 -36.5 1.5q-16.5 1.5 -30.5 5q-14 3.5 -28 8q-14 4.5 -29 10.5l0 -211h-92zM323 462q-60 0 -94 -30q-34 -30 -49 -92l0 -242q23 -16 50 -25q27 -9 69 -9q81 0 127 53q46 53 46 158q0 85 -34 136t-115 51z" />
<glyph unicode="&#113;" horiz-adv-x="625" d="M537 -200h-91l-1 257h-11q-23 -34 -58.5 -52.5q-35.5 -18.5 -92.5 -18.5q-223 0 -223 272q0 137 71.5 207.5q71.5 70.5 210.5 70.5q30 0 59 -3q29 -3 55 -7.5q26 -4.5 46.5 -10q20.5 -5.5 34.5 -11.5zM445 438q-46 20 -120 20q-81 0 -124 -49q-43 -49 -43 -149q0 -44 7.5 -80q7.5 -36 25 -61.5q17.5 -25.5 45 -40q27.5 -14.5 67.5 -14.5q60 0 93.5 30q33.5 30 48.5 90z" />
<glyph unicode="&#114;" horiz-adv-x="380" d="M362 438q-17 5 -33 9q-16 4 -30 4q-53 0 -82.5 -27q-29.5 -27 -36.5 -68l0 -356h-92v525h64l18 -70h9q23 39 53.5 60.5q30.5 21.5 76.5 21.5q14 0 33 -2.5q19 -2.5 38 -8.5z" />
<glyph unicode="&#115;" horiz-adv-x="499" d="M353 147q0 20 -9.5 33.5q-9.5 13.5 -25.5 23q-16 9.5 -37 16.5q-21 7 -44 14q-29 8 -58.5 17.5q-29.5 9.5 -53 26q-23.5 16.5 -38.5 42.5q-15 26 -15 66q0 78 46.5 116q46.5 38 130.5 38q63 0 106 -12q43 -12 75 -26l-22 -78q-27 13 -64.5 25.5q-37.5 12.5 -82.5 12.5q-49 0 -73 -16q-24 -16 -24 -58q0 -17 9 -28.5q9 -11.5 24 -20q15 -8.5 35 -15q20 -6.5 42 -12.5q30 -8 60 -18.5q30 -10.5 55 -28q25 -17.5 40.5 -44.5q15.5 -27 15.5 -68q0 -74 -50 -120.5q-50 -46.5 -150 -46.5q-64 0 -111.5 13q-47.5 13 -79.5 30l26 80q28 -15 72 -30q44 -15 89 -15q49 0 80.5 17.5t31.5 65.5z" />
<glyph unicode="&#116;" horiz-adv-x="405" d="M24 525h89v106l92 24v-130h158v-78h-158v-268q0 -63 16 -89q16 -26 55 -26q25 0 45.5 5.5q20.5 5.5 46.5 14.5l21 -65q-32 -14 -68.5 -23.5q-36.5 -9.5 -78.5 -9.5q-70 0 -99.5 38q-29.5 38 -29.5 124v299l-89 0z" />
<glyph unicode="&#117;" horiz-adv-x="644" d="M180 525v-289q0 -42 5 -74q5 -32 18 -53.5q13 -21.5 35.5 -33q22.5 -11.5 57.5 -11.5q60 0 98 34q38 34 58 84l0 343h92v-376q0 -38 3 -77.5q3 -39.5 9 -71.5l-62 0l-24 87h-10q-26 -45 -72 -73q-46 -28 -115 -28q-46 0 -80.5 11q-34.5 11 -58 37.5q-23.5 26.5 -35 70.5q-11.5 44 -11.5 110l0 310z" />
<glyph unicode="&#118;" horiz-adv-x="535" d="M242 223l35 -108l33 110l125 300h100l-245 -536h-40l-250 536l108 0z" />
<glyph unicode="&#119;" horiz-adv-x="840" d="M468 525l86 -199l43 -101l27 -101h7l23 104l98 297h88l-191 -536h-50l-147 339v-1l-26 97l-30 -98v1l-141 -338h-48l-199 536h101l111 -297l19 -105h9l28 107l121 295z" />
<glyph unicode="&#120;" horiz-adv-x="592" d="M233 269l-189 256h117l102 -134l35 -71l41 71l106 134h104l-191 -252q50 -67 102 -136q52 -69 102 -137l-114 0l-115 149l-40 75l-41 -75l-116 -149l-106 0z" />
<glyph unicode="&#121;" horiz-adv-x="531" d="M251 193l31 -101h13l25 102l109 331h94l-172 -475q-19 -49 -38.5 -95q-19.5 -46 -43 -81.5q-23.5 -35.5 -52 -57q-28.5 -21.5 -65.5 -21.5q-40 0 -68 9l15 78q15 -5 30 -5q20 0 36.5 5q16.5 5 30.5 18q14 13 25.5 36.5q11.5 23.5 21.5 60.5l-235 528l109 0z" />
<glyph unicode="&#122;" horiz-adv-x="515" d="M48 79l259 316l70 52h-329v78h413v-79l-262 -319l-70 -49h332v-78l-413 0z" />
<glyph unicode="&#123;" horiz-adv-x="383" d="M146 108q0 51 -22.5 70q-22.5 19 -64.5 19l0 76q42 0 64.5 20.5q22.5 20.5 22.5 64.5v233q0 48 26 79q26 31 79 31h100v-80h-56q-57 0 -57 -62v-224q0 -44 -23.5 -66.5q-23.5 -22.5 -53.5 -27.5l0 -8q29 -4 53 -30q24 -26 24 -68v-223q0 -31 13.5 -46.5q13.5 -15.5 44.5 -15.5h55v-80h-100q-49 0 -77 28q-28 28 -28 81z" />
<glyph unicode="&#124;" horiz-adv-x="258" d="M89 700h80v-830l-80 0z" />
<glyph unicode="&#125;" horiz-adv-x="383" d="M263 363q0 -51 23 -70q23 -19 65 -19l0 -76q-42 0 -65 -20.5q-23 -20.5 -23 -64.5v-233q0 -48 -26.5 -79q-26.5 -31 -80.5 -31h-97v80h55q57 0 57 62v224q0 44 23.5 66.5q23.5 22.5 52.5 27.5l0 8q-29 4 -52.5 30q-23.5 26 -23.5 68v223q0 62 -58 62h-54v80h98q49 0 77.5 -28q28.5 -28 28.5 -81z" />
<glyph unicode="&#126;" horiz-adv-x="554" d="M34 365q48 34 86 47q38 13 70 13q31 0 57 -8.5q26 -8.5 50.5 -18.5q24.5 -10 47.5 -18.5q23 -8.5 48 -8.5q20 0 42 7.5q22 7.5 48 27.5l37 -71q-41 -26 -73 -36.5q-32 -10.5 -59 -10.5q-29 0 -53.5 8.5q-24.5 8.5 -48 19q-23.5 10.5 -46.5 19.5q-23 9 -50 9q-25 0 -54 -11q-29 -11 -66 -38z" />
<glyph unicode="&#160;" horiz-adv-x="291" />
<glyph unicode="&#161;" horiz-adv-x="329" d="M195 -200h-100v343l20 173h60l20 -173zM76 463q0 29 18.5 46q18.5 17 48.5 17q30 0 48.5 -17q18.5 -17 18.5 -46q0 -27 -18.5 -45q-18.5 -18 -48.5 -18q-30 0 -48.5 18t-18.5 45z" />
<glyph unicode="&#162;" horiz-adv-x="594" d="M517 34q-27 -16 -62 -27.5q-35 -11.5 -73 -16.5l0 -97h-79v95q-58 4 -99 26q-41 22 -66.5 57.5q-25.5 35.5 -37.5 83.5q-12 48 -12 106q0 122 55 192.5q55 70.5 160 82.5l0 94h79v-93q38 -2 68.5 -9.5q30.5 -7.5 56.5 -18.5l-27 -76q-24 12 -51.5 18q-27.5 6 -54.5 8l0 -396q34 2 64 13q30 11 53 24zM314 457q-136 -18 -136 -196q0 -33 7 -65q7 -32 23.5 -58q16.5 -26 42 -45.5q25.5 -19.5 63.5 -26.5z" />
<glyph unicode="&#163;" horiz-adv-x="594" d="M44 385h72q-13 26 -22 55.5q-9 29.5 -9 70.5q0 49 16.5 86.5q16.5 37.5 46.5 63q30 25.5 72.5 39q42.5 13.5 95.5 13.5q67 0 117.5 -11q50.5 -11 82.5 -25l-30 -85q-23 12 -65.5 23.5q-42.5 11.5 -103.5 11.5q-63 0 -97.5 -31.5q-34.5 -31.5 -34.5 -81.5q0 -39 12 -69.5q12 -30.5 27 -59.5l171 0v-80h-133q6 -19 10 -40q4 -21 4 -45q0 -30 -10.5 -61q-10.5 -31 -30.5 -52l-40 -32v-5l64 14h277v-84h-492v84h2q34 1 59 12q25 11 41 28.5q16 17.5 23.5 40q7.5 22.5 7.5 46.5q0 28 -6 51q-6 23 -14 43l-113 0z" />
<glyph unicode="&#164;" horiz-adv-x="594" d="M94 602l78 -77l21 -35q21 16 47.5 23.5q26.5 7.5 56.5 7.5q61 0 103 -31l22 35l78 77l54 -56l-77 -78l-35 -21q31 -43 31 -102q0 -30 -7.5 -56q-7.5 -26 -23.5 -46l35 -20l77 -78l-54 -56l-78 77l-21 34q-20 -14 -47.5 -22.5q-27.5 -8.5 -56.5 -8.5q-61 0 -104 31l-21 -34l-78 -77l-54 56l77 78l34 20q-30 44 -30 102q0 29 8 54.5q8 25.5 22 48.5l-34 20l-77 78zM199 345q0 -44 27 -73q27 -29 71 -29q43 0 70.5 29q27.5 29 27.5 73q0 43 -27.5 72.5q-27.5 29.5 -70.5 29.5q-44 0 -71 -29.5t-27 -72.5z" />
<glyph unicode="&#165;" horiz-adv-x="594" d="M114 331h102l-220 369h117l175 -297l17 -64h2l19 66l167 295h106l-216 -369h103v-66h-136v-73h136v-66h-136v-126h-100v126h-136v66h136v73l-136 0z" />
<glyph unicode="&#166;" horiz-adv-x="258" d="M89 208h80v-338h-80zM169 362h-80v338l80 0z" />
<glyph unicode="&#167;" horiz-adv-x="554" d="M64 353q0 31 16.5 60q16.5 29 43.5 52l44 14q-28 15 -45.5 40q-17.5 25 -17.5 65q0 57 45 93q45 36 127 36q62 0 105 -10q43 -10 73 -24l-24 -77q-24 11 -61.5 21q-37.5 10 -78.5 10q-48 0 -70 -15q-22 -15 -22 -41q0 -24 21.5 -37q21.5 -13 54 -23q32.5 -10 70 -20q37.5 -10 70 -27.5q32.5 -17.5 54 -46.5q21.5 -29 21.5 -76q0 -31 -16 -59q-16 -28 -43 -51l-50 -14q30 -16 49 -41q19 -25 19 -66q0 -32 -13 -56q-13 -24 -36.5 -40.5q-23.5 -16.5 -55 -24.5q-31.5 -8 -67.5 -8q-66 0 -107.5 12q-41.5 12 -71.5 26l24 75q26 -11 61 -22q35 -11 80 -11q43 0 67.5 12.5q24.5 12.5 24.5 43.5q0 25 -21.5 38.5q-21.5 13.5 -54 23.5q-32.5 10 -70 20q-37.5 10 -70 27.5q-32.5 17.5 -54 45.5q-21.5 28 -21.5 75zt0 0zM395 345q0 24 -14 39.5q-14 15.5 -36.5 26q-22.5 10.5 -51.5 18.5q-29 8 -60 18q-30 -13 -52 -36q-22 -23 -22 -56q0 -24 13 -39.5q13 -15.5 35 -25.5q22 -10 50.5 -18q28.5 -8 58.5 -17q14 6 28 15q14 9 25.5 21q11.5 12 18.5 25.5t7 28.5z" />
<glyph unicode="&#168;" horiz-adv-x="449" d="M60 653q0 24 16 40q16 16 42 16q25 0 40.5 -16q15.5 -16 15.5 -40q0 -23 -15.5 -39q-15.5 -16 -40.5 -16q-26 0 -42 16q-16 16 -16 39zt0 0zM275 653q0 24 15.5 40q15.5 16 41.5 16q26 0 41.5 -16q15.5 -16 15.5 -40q0 -23 -15.5 -39q-15.5 -16 -41.5 -16q-26 0 -41.5 16t-15.5 39z" />
<glyph unicode="&#169;" horiz-adv-x="868" d="M53 288q0 89 30 160q30 71 81.5 120q51.5 49 121 75q69.5 26 148.5 26q79 0 148 -26q69 -26 121 -75q52 -49 82 -120q30 -71 30 -160q0 -89 -30 -160q-30 -71 -82 -120q-52 -49 -121 -75q-69 -26 -148 -26q-87 0 -157 26q-70 26 -120 75q-50 49 -77 120q-27 71 -27 160zt0 0zM135 288q0 -73 23 -129.5q23 -56.5 63.5 -95q40.5 -38.5 95 -58.5q54.5 -20 117.5 -20q63 0 117.5 20q54.5 20 95 58.5q40.5 38.5 63.5 95q23 56.5 23 129.5q0 73 -23 129.5q-23 56.5 -63.5 95q-40.5 38.5 -95 58.5q-54.5 20 -117.5 20q-63 0 -117.5 -20q-54.5 -20 -95 -58.5q-40.5 -38.5 -63.5 -95q-23 -56.5 -23 -129.5zt0 0zM560 114q-24 -14 -56 -22q-32 -8 -73 -8q-87 0 -132.5 55q-45.5 55 -45.5 149q0 98 48.5 151q48.5 53 129.5 53q20 0 35.5 -2q15.5 -2 29.5 -6q14 -4 27.5 -9.5q13.5 -5.5 29.5 -12.5l-29 -69q-23 11 -43 16q-20 5 -36 5q-42 0 -69.5 -27q-27.5 -27 -27.5 -99q0 -59 26.5 -92.5q26.5 -33.5 78.5 -33.5q26 0 46 5q20 5 37 14z" />
<glyph unicode="&#170;" horiz-adv-x="437" d="M78 675q27 14 73.5 23.5q46.5 9.5 102.5 9.5q70 0 96 -26.5q26 -26.5 26 -77.5q0 -38 -1.5 -72.5q-1.5 -34.5 -1.5 -66.5q0 -23 1.5 -44.5q1.5 -21.5 6.5 -40.5l-69 0l-14 48h-4q-7 -8 -17 -17.5q-10 -9.5 -23.5 -17q-13.5 -7.5 -31.5 -12.5q-18 -5 -42 -5q-56 0 -90 26q-34 26 -34 70q0 31 16 52q16 21 44.5 34q28.5 13 66 19q37.5 6 81.5 6q8 0 15 -0.5q7 -0.5 15 -0.5q4 36 -7.5 50.5q-11.5 14.5 -54.5 14.5q-45 0 -81.5 -8.5q-36.5 -8.5 -56.5 -18.5zM294 527q-12 1 -24 1.5q-12 0.5 -24 0.5q-21 0 -40.5 -2q-19.5 -2 -34 -8q-14.5 -6 -23 -15.5q-8.5 -9.5 -8.5 -24.5q0 -19 15 -29.5q15 -10.5 41 -10.5q23 0 40 5q17 5 28.5 13q11.5 8 18.5 17.5q7 9.5 11 18.5z" />
<glyph unicode="&#171;" horiz-adv-x="524" d="M242 260l174 225l58 -51l-101 -134l-52 -40l52 -36l107 -132l-58 -50zM40 259l176 230l60 -52l-102 -136l-53 -41l53 -36l109 -133l-61 -53z" />
<glyph unicode="&#172;" horiz-adv-x="554" d="M45 398h467v-201h-86v117l-381 0z" />
<glyph unicode="&#173;" horiz-adv-x="394" d="M64 332h266v-86l-266 0z" />
<glyph unicode="&#174;" horiz-adv-x="751" d="M86 432q0 70 23 124q23 54 62.5 90.5q39.5 36.5 92 55.5q52.5 19 111.5 19q61 0 113.5 -19q52.5 -19 91.5 -55.5q39 -36.5 61.5 -90.5q22.5 -54 22.5 -124q0 -70 -23 -123.5q-23 -53.5 -62.5 -90q-39.5 -36.5 -92 -55.5q-52.5 -19 -111.5 -19q-60 0 -113 19q-53 19 -92 55.5q-39 36.5 -61.5 90q-22.5 53.5 -22.5 123.5zt0 0zM160 432q0 -55 17.5 -96q17.5 -41 46.5 -68q29 -27 68 -40.5q39 -13.5 83 -13.5q46 0 85.5 13q39.5 13 68 40q28.5 27 45 68q16.5 41 16.5 97q0 55 -17 96q-17 41 -46.5 68.5q-29.5 27.5 -68.5 41q-39 13.5 -83 13.5q-47 0 -86.5 -14q-39.5 -14 -68 -41.5q-28.5 -27.5 -44.5 -68.5q-16 -41 -16 -95zt0 0zM265 572q17 5 48.5 8q31.5 3 58.5 3q22 0 42 -4.5q20 -4.5 35 -14.5q15 -10 24 -26q9 -16 9 -39q0 -34 -22.5 -52.5q-22.5 -18.5 -54.5 -20.5l31 -15l77 -117h-66l-75 112l-52 16v-128h-55zM360 535q-11 0 -22 -0.5q-11 -0.5 -18 -4.5l0 -76h37q32 0 49 10q17 10 17 33q0 18 -16.5 28t-46.5 10z" />
<glyph unicode="&#175;" horiz-adv-x="448" d="M60 666h328v-69l-328 0z" />
<glyph unicode="&#176;" horiz-adv-x="467" d="M90 566q0 32 13 59q13 27 34.5 46.5q21.5 19.5 50 30.5q28.5 11 60.5 11q32 0 61 -10q29 -10 50.5 -29q21.5 -19 34.5 -46.5q13 -27.5 13 -61.5q0 -34 -13 -61q-13 -27 -34.5 -46q-21.5 -19 -50.5 -29q-29 -10 -61 -10q-32 0 -60.5 10q-28.5 10 -50 29q-21.5 19 -34.5 46q-13 27 -13 61zt0 0zM165 566q0 -36 25.5 -55.5q25.5 -19.5 57.5 -19.5q16 0 31 5q15 5 27 14.5q12 9.5 19 23.5q7 14 7 32q0 18 -7 32q-7 14 -19 24q-12 10 -27 15q-15 5 -31 5q-32 0 -57.5 -20t-25.5 -56z" />
<glyph unicode="&#177;" horiz-adv-x="554" d="M43 512h191v187h86v-187h191v-84h-191v-125h-86v125h-191zM43 252h468v-84l-468 0z" />
<glyph unicode="&#178;" horiz-adv-x="436" d="M355 685q0 -30 -10.5 -57q-10.5 -27 -29 -53q-18.5 -26 -43.5 -51.5q-25 -25.5 -53 -51.5l-50 -30v-2l63 13h144v-73h-321v42q25 18 62 48q37 30 71 65q34 35 58.5 71q24.5 36 24.5 67q0 30 -20.5 44.5q-20.5 14.5 -52.5 14.5q-30 0 -57.5 -10.5q-27.5 -10.5 -47.5 -22.5l-27 66q30 20 68.5 31q38.5 11 78.5 11q69 0 105.5 -32.5t36.5 -89.5z" />
<glyph unicode="&#179;" horiz-adv-x="436" d="M185 442q107 0 107 69q0 30 -24.5 48.5q-24.5 18.5 -81.5 18.5h-57v26l101 107l38 26l-55 -6h-139v69h285v-40l-110 -115l-29 -18v-3l26 3q61 -1 95 -32.5q34 -31.5 34 -85.5q0 -64 -50 -100q-50 -36 -131 -36q-40 0 -69.5 6.5q-29.5 6.5 -52.5 14.5l18 68q19 -8 42.5 -14t52.5 -6z" />
<glyph unicode="&#180;" horiz-adv-x="288" d="M124 720h104v-23l-112 -127l-56 0z" />
<glyph unicode="&#181;" horiz-adv-x="636" d="M171 525v-286q0 -88 28.5 -132.5q28.5 -44.5 100.5 -44.5q66 0 111 38.5q45 38.5 62 100.5l0 324h92v-356q0 -42 2.5 -85.5q2.5 -43.5 12.5 -83.5l-60 0l-33 86h-12q-12 -19 -30 -37q-18 -18 -41 -31.5q-23 -13.5 -52 -22q-29 -8.5 -62 -8.5q-53 0 -82 15.5q-29 15.5 -50 40.5l-14 0l27 -120v-124h-92l0 726z" />
<glyph unicode="&#182;" horiz-adv-x="546" d="M376 700h80v-830h-80zM202 307q-35 0 -64.5 17q-29.5 17 -51.5 45q-22 28 -34 63.5q-12 35.5 -12 71.5q0 36 13 71.5q13 35.5 37.5 63q24.5 27.5 59.5 44.5q35 17 79 17h53v-830l-80 0z" />
<glyph unicode="&#183;" horiz-adv-x="290" d="M78 301q0 29 18.5 46q18.5 17 48.5 17q30 0 48.5 -17q18.5 -17 18.5 -46q0 -27 -18.5 -45q-18.5 -18 -48.5 -18q-30 0 -48.5 18t-18.5 45z" />
<glyph unicode="&#184;" horiz-adv-x="325" d="M197 0l-32 -53q49 -8 72.5 -26q23.5 -18 23.5 -51q0 -42 -37 -67.5q-37 -25.5 -103 -25.5q-13 0 -26.5 1q-13.5 1 -27.5 4l9 36q35 -2 55 1q20 3 30 10q10 7 12.5 15.5q2.5 8.5 2.5 16.5q0 17 -25.5 26.5q-25.5 9.5 -73.5 14.5l59 98z" />
<glyph unicode="&#185;" horiz-adv-x="436" d="M80 452h115v232l8 38l-30 -29l-83 -48l-32 59l168 103h53v-355h102v-72l-301 0z" />
<glyph unicode="&#186;" horiz-adv-x="445" d="M50 542q0 44 13 76q13 32 36 53q23 21 54.5 31q31.5 10 68.5 10q37 0 68.5 -9.5q31.5 -9.5 55 -29.5q23.5 -20 36.5 -52.5q13 -32.5 13 -78.5q0 -46 -13 -78.5q-13 -32.5 -36.5 -52.5q-23.5 -20 -55 -29.5q-31.5 -9.5 -68.5 -9.5q-37 0 -68.5 9.5q-31.5 9.5 -54.5 29.5q-23 20 -36 52.5q-13 32.5 -13 78.5zt0 0zM138 542q0 -54 21.5 -79.5q21.5 -25.5 62.5 -25.5q40 0 62.5 23q22.5 23 22.5 82q0 60 -22 82.5q-22 22.5 -63 22.5q-40 0 -62 -22.5t-22 -82.5z" />
<glyph unicode="&#187;" horiz-adv-x="524" d="M281 267l-173 -225l-58 51l100 134l52 40l-52 36l-106 131l57 51zM483 268l-175 -230l-61 53l103 135l52 41l-52 36l-109 133l60 53z" />
<glyph unicode="&#188;" horiz-adv-x="922" d="M685 714l60 -43l-524 -684l-60 45zM861 92h-90v-92h-78v92h-224v45l247 299h55v-277h90zM693 279l7 48h-3l-24 -45l-80 -97l-37 -32l56 6h81zM176 583l8 39l-30 -28l-83 -49l-33 58l169 104h52v-427l-83 0z" />
<glyph unicode="&#189;" horiz-adv-x="935" d="M685 714l60 -43l-524 -684l-60 45zM853 305q0 -30 -10.5 -57q-10.5 -27 -29 -53q-18.5 -26 -43.5 -51.5q-25 -25.5 -53 -51.5l-50 -30v-2l63 13h144v-73h-321v42q25 18 62 48q37 30 71 65q34 35 58.5 71q24.5 36 24.5 67q0 30 -20.5 44.5q-20.5 14.5 -52.5 14.5q-30 0 -57.5 -10.5q-27.5 -10.5 -47.5 -22.5l-27 66q30 20 68.5 31q38.5 11 78.5 11q69 0 105.5 -32.5q36.5 -32.5 36.5 -89.5zt0 0zM176 583l8 39l-30 -28l-83 -49l-33 58l169 104h52v-427l-83 0z" />
<glyph unicode="&#190;" horiz-adv-x="962" d="M725 714l60 -43l-524 -684l-60 45zM901 92h-90v-92h-78v92h-224v45l247 299h55v-277h90zM733 279l7 48h-3l-24 -45l-80 -97l-37 -32l56 6h81zM173 342q107 0 107 69q0 30 -24.5 48.5q-24.5 18.5 -81.5 18.5h-57v26l101 107l38 26l-55 -6h-139v69h285v-40l-110 -115l-29 -18v-3l26 3q61 -1 95 -32.5q34 -31.5 34 -85.5q0 -64 -50 -100q-50 -36 -131 -36q-40 0 -69.5 6.5q-29.5 6.5 -52.5 14.5l18 68q19 -8 42.5 -14t52.5 -6z" />
<glyph unicode="&#191;" horiz-adv-x="478" d="M318 317q4 -49 -7.5 -84q-11.5 -35 -31.5 -62.5q-20 -27.5 -44.5 -50q-24.5 -22.5 -46 -45q-21.5 -22.5 -36 -47.5q-14.5 -25 -14.5 -59q0 -45 26.5 -72q26.5 -27 92.5 -27q19 0 40 4q21 4 40.5 11q19.5 7 37.5 15q18 8 33 17l34 -71q-42 -26 -89.5 -41q-47.5 -15 -117.5 -15q-48 0 -85 12.5q-37 12.5 -62 34.5q-25 22 -37.5 52q-12.5 30 -12.5 66q0 47 15 81q15 34 37 60q22 26 48.5 48q26.5 22 48.5 46.5q22 24.5 37 54.5q15 30 15 72zM206 463q0 29 18.5 46q18.5 17 48.5 17q30 0 48.5 -17q18.5 -17 18.5 -46q0 -27 -18.5 -45q-18.5 -18 -48.5 -18q-30 0 -48.5 18t-18.5 45z" />
<glyph unicode="&#192;" horiz-adv-x="645" d="M457 183h-277l-74 -183h-98l288 710h52l289 -710h-104zM210 267h218l-81 199l-27 107h-2l-27 -109zM379 752h-86l-173 95v23l132 0z" />
<glyph unicode="&#193;" horiz-adv-x="645" d="M457 183h-277l-74 -183h-98l288 710h52l289 -710h-104zM210 267h218l-81 199l-27 107h-2l-27 -109zM392 870h132v-23l-178 -95l-81 0z" />
<glyph unicode="&#194;" horiz-adv-x="645" d="M457 183h-277l-74 -183h-98l288 710h52l289 -710h-104zM210 267h218l-81 199l-27 107h-2l-27 -109zM289 870h73l139 -100v-25h-92l-65 47l-20 35l-21 -34l-70 -48h-90l0 26z" />
<glyph unicode="&#195;" horiz-adv-x="645" d="M457 183h-277l-74 -183h-98l288 710h52l289 -710h-104zM210 267h218l-81 199l-27 107h-2l-27 -109zM147 791q32 32 61 43.5q29 11.5 55 11.5q21 0 41.5 -5.5q20.5 -5.5 39.5 -12q19 -6.5 37 -12q18 -5.5 36 -5.5q14 0 28.5 5q14.5 5 28.5 17l25 -51q-29 -24 -54.5 -33q-25.5 -9 -49.5 -9q-21 0 -41 5q-20 5 -39 11.5q-19 6.5 -37 11.5q-18 5 -36 5q-17 0 -35 -6.5q-18 -6.5 -36 -24.5z" />
<glyph unicode="&#196;" horiz-adv-x="645" d="M457 183h-277l-74 -183h-98l288 710h52l289 -710h-104zM210 267h218l-81 199l-27 107h-2l-27 -109zM153 795q0 23 16.5 36q16.5 13 45.5 13q28 0 45 -13q17 -13 17 -36q0 -22 -17 -35.5q-17 -13.5 -45 -13.5q-29 0 -45.5 13.5q-16.5 13.5 -16.5 35.5zt0 0zM367 795q0 23 16.5 36q16.5 13 44.5 13q29 0 46 -13q17 -13 17 -36q0 -22 -17 -35.5q-17 -13.5 -46 -13.5q-28 0 -44.5 13.5t-16.5 35.5z" />
<glyph unicode="&#197;" horiz-adv-x="645" d="M205 769q0 37 27 61.5q27 24.5 91 24.5q58 0 88.5 -22q30.5 -22 30.5 -64q0 -31 -15 -47q-15 -16 -29 -22q-17 -9 -41 -13l280 -687h-104l-76 183h-277l-74 -183h-98l279 687q-22 4 -43 13q-10 5 -24.5 21q-14.5 16 -14.5 48zt0 0zM210 267h218l-81 199l-27 107h-2l-27 -109zM275 769q0 -15 11 -26q11 -11 37 -11q49 0 49 37q0 18 -12 28.5q-12 10.5 -37 10.5q-25 0 -36.5 -10.5t-11.5 -28.5z" />
<glyph unicode="&#198;" horiz-adv-x="929" d="M429 591l-38 -106l-136 -212h178v318zM433 189h-230l-120 -189h-108l456 700h425v-86h-323v-213h295v-86h-295v-229h328v-86l-428 0z" />
<glyph unicode="&#199;" horiz-adv-x="624" d="M584 30q-28 -20 -67.5 -29.5q-39.5 -9.5 -85.5 -12.5l-24 -41q49 -8 72.5 -26q23.5 -18 23.5 -51q0 -42 -37 -67.5q-37 -25.5 -103 -25.5q-13 0 -26.5 1q-13.5 1 -27.5 4l9 36q35 -2 55 1q20 3 30 10q10 7 12.5 15.5q2.5 8.5 2.5 16.5q0 17 -25.5 26.5q-25.5 9.5 -73.5 14.5l51 86q-64 3 -120.5 26q-56.5 23 -99 68q-42.5 45 -67.5 111.5q-25 66.5 -25 156.5q0 98 30 167q30 69 78 112.5q48 43.5 108 63.5q60 20 119 20q66 0 108 -7q42 -7 71 -18l-22 -86q-49 23 -149 23q-45 0 -87.5 -14.5q-42.5 -14.5 -76 -47q-33.5 -32.5 -53.5 -85q-20 -52.5 -20 -128.5q0 -68 19 -119q19 -51 52.5 -85.5q33.5 -34.5 79 -52q45.5 -17.5 99.5 -17.5q49 0 85 8.5q36 8.5 61 22.5z" />
<glyph unicode="&#200;" horiz-adv-x="585" d="M89 700h423v-86h-323v-213h295v-86h-295v-229h328v-86h-428zM361 752h-86l-173 95v23l132 0z" />
<glyph unicode="&#201;" horiz-adv-x="585" d="M89 700h423v-86h-323v-213h295v-86h-295v-229h328v-86h-428zM356 870h132v-23l-178 -95l-81 0z" />
<glyph unicode="&#202;" horiz-adv-x="585" d="M89 700h423v-86h-323v-213h295v-86h-295v-229h328v-86h-428zM261 870h73l139 -100v-25h-92l-65 47l-20 35l-21 -34l-70 -48h-90l0 26z" />
<glyph unicode="&#203;" horiz-adv-x="585" d="M89 700h423v-86h-323v-213h295v-86h-295v-229h328v-86h-428zM125 795q0 23 16.5 36q16.5 13 45.5 13q28 0 45 -13q17 -13 17 -36q0 -22 -17 -35.5q-17 -13.5 -45 -13.5q-29 0 -45.5 13.5q-16.5 13.5 -16.5 35.5zt0 0zM339 795q0 23 16.5 36q16.5 13 44.5 13q29 0 46 -13q17 -13 17 -36q0 -22 -17 -35.5q-17 -13.5 -46 -13.5q-28 0 -44.5 13.5t-16.5 35.5z" />
<glyph unicode="&#204;" horiz-adv-x="398" d="M149 634h-80v66h260v-66h-80v-568h80v-66h-260v66h80zM285 752h-86l-173 95v23l132 0z" />
<glyph unicode="&#205;" horiz-adv-x="398" d="M149 634h-80v66h260v-66h-80v-568h80v-66h-260v66h80zM253 870h132v-23l-178 -95l-81 0z" />
<glyph unicode="&#206;" horiz-adv-x="398" d="M149 634h-80v66h260v-66h-80v-568h80v-66h-260v66h80zM166 870h73l139 -100v-25h-92l-65 47l-20 35l-21 -34l-70 -48h-90l0 26z" />
<glyph unicode="&#207;" horiz-adv-x="398" d="M149 634h-80v66h260v-66h-80v-568h80v-66h-260v66h80zM30 795q0 23 16.5 36q16.5 13 45.5 13q28 0 45 -13q17 -13 17 -36q0 -22 -17 -35.5q-17 -13.5 -45 -13.5q-29 0 -45.5 13.5q-16.5 13.5 -16.5 35.5zt0 0zM244 795q0 23 16.5 36q16.5 13 44.5 13q29 0 46 -13q17 -13 17 -36q0 -22 -17 -35.5q-17 -13.5 -46 -13.5q-28 0 -44.5 13.5t-16.5 35.5z" />
<glyph unicode="&#208;" horiz-adv-x="723" d="M0 394h97v306q20 3 46.5 4.5q26.5 1.5 55 2.5q28.5 1 56 1.5q27.5 0.5 50.5 0.5q92 0 159.5 -26.5q67.5 -26.5 112 -73.5q44.5 -47 66.5 -112q22 -65 22 -142q0 -70 -20.5 -135.5q-20.5 -65.5 -65.5 -116.5q-45 -51 -115.5 -82q-70.5 -31 -170.5 -31q-17 0 -45.5 1q-28.5 1 -58.5 2q-30 1 -55.5 2.5q-25.5 1.5 -36.5 3.5l0 329h-97zM197 394h160v-66h-160v-246q5 -1 19.5 -1.5q14.5 -0.5 30.5 -1q16 -0.5 30 -1q14 -0.5 20 -0.5q75 0 125.5 23.5q50.5 23.5 81 62.5q30.5 39 43 88.5q12.5 49.5 12.5 102.5q0 45 -12 92q-12 47 -41 85.5q-29 38.5 -77 63.5q-48 25 -121 25q-14 0 -30 0q-16 0 -32 -1q-16 -1 -29 -2q-13 -1 -20 -2z" />
<glyph unicode="&#209;" horiz-adv-x="735" d="M235 445l-60 98h-4l12 -98v-445h-94v710h56l357 -454l57 -93h5l-12 93v444h94v-710h-56zM190 791q32 32 61 43.5q29 11.5 55 11.5q21 0 41.5 -5.5q20.5 -5.5 39.5 -12q19 -6.5 37 -12q18 -5.5 36 -5.5q14 0 28.5 5q14.5 5 28.5 17l25 -51q-29 -24 -54.5 -33q-25.5 -9 -49.5 -9q-21 0 -41 5q-20 5 -39 11.5q-19 6.5 -37 11.5q-18 5 -36 5q-17 0 -35 -6.5q-18 -6.5 -36 -24.5z" />
<glyph unicode="&#210;" horiz-adv-x="747" d="M58 350q0 86 21.5 153.5q21.5 67.5 62 114q40.5 46.5 99 71q58.5 24.5 132.5 24.5q79 0 138.5 -26.5q59.5 -26.5 99 -74q39.5 -47.5 59 -114.5q19.5 -67 19.5 -148q0 -86 -21.5 -153.5q-21.5 -67.5 -62.5 -114q-41 -46.5 -99.5 -71q-58.5 -24.5 -132.5 -24.5q-80 0 -139 26.5q-59 26.5 -98 74q-39 47.5 -58.5 114.5q-19.5 67 -19.5 148zt0 0zM164 350q0 -57 12.5 -107q12.5 -50 38 -88q25.5 -38 65 -60q39.5 -22 93.5 -22q97 0 153.5 67q56.5 67 56.5 210q0 56 -12.5 106q-12.5 50 -38 88q-25.5 38 -65 60.5q-39.5 22.5 -94.5 22.5q-96 0 -152.5 -68q-56.5 -68 -56.5 -209zt0 0zM449 752h-86l-173 95v23l132 0z" />
<glyph unicode="&#211;" horiz-adv-x="747" d="M58 350q0 86 21.5 153.5q21.5 67.5 62 114q40.5 46.5 99 71q58.5 24.5 132.5 24.5q79 0 138.5 -26.5q59.5 -26.5 99 -74q39.5 -47.5 59 -114.5q19.5 -67 19.5 -148q0 -86 -21.5 -153.5q-21.5 -67.5 -62.5 -114q-41 -46.5 -99.5 -71q-58.5 -24.5 -132.5 -24.5q-80 0 -139 26.5q-59 26.5 -98 74q-39 47.5 -58.5 114.5q-19.5 67 -19.5 148zt0 0zM164 350q0 -57 12.5 -107q12.5 -50 38 -88q25.5 -38 65 -60q39.5 -22 93.5 -22q97 0 153.5 67q56.5 67 56.5 210q0 56 -12.5 106q-12.5 50 -38 88q-25.5 38 -65 60.5q-39.5 22.5 -94.5 22.5q-96 0 -152.5 -68q-56.5 -68 -56.5 -209zt0 0zM444 870h132v-23l-178 -95l-81 0z" />
<glyph unicode="&#212;" horiz-adv-x="747" d="M58 350q0 86 21.5 153.5q21.5 67.5 62 114q40.5 46.5 99 71q58.5 24.5 132.5 24.5q79 0 138.5 -26.5q59.5 -26.5 99 -74q39.5 -47.5 59 -114.5q19.5 -67 19.5 -148q0 -86 -21.5 -153.5q-21.5 -67.5 -62.5 -114q-41 -46.5 -99.5 -71q-58.5 -24.5 -132.5 -24.5q-80 0 -139 26.5q-59 26.5 -98 74q-39 47.5 -58.5 114.5q-19.5 67 -19.5 148zt0 0zM164 350q0 -57 12.5 -107q12.5 -50 38 -88q25.5 -38 65 -60q39.5 -22 93.5 -22q97 0 153.5 67q56.5 67 56.5 210q0 56 -12.5 106q-12.5 50 -38 88q-25.5 38 -65 60.5q-39.5 22.5 -94.5 22.5q-96 0 -152.5 -68q-56.5 -68 -56.5 -209zt0 0zM338 870h73l139 -100v-25h-92l-65 47l-20 35l-21 -34l-70 -48h-90l0 26z" />
<glyph unicode="&#213;" horiz-adv-x="747" d="M58 350q0 86 21.5 153.5q21.5 67.5 62 114q40.5 46.5 99 71q58.5 24.5 132.5 24.5q79 0 138.5 -26.5q59.5 -26.5 99 -74q39.5 -47.5 59 -114.5q19.5 -67 19.5 -148q0 -86 -21.5 -153.5q-21.5 -67.5 -62.5 -114q-41 -46.5 -99.5 -71q-58.5 -24.5 -132.5 -24.5q-80 0 -139 26.5q-59 26.5 -98 74q-39 47.5 -58.5 114.5q-19.5 67 -19.5 148zt0 0zM164 350q0 -57 12.5 -107q12.5 -50 38 -88q25.5 -38 65 -60q39.5 -22 93.5 -22q97 0 153.5 67q56.5 67 56.5 210q0 56 -12.5 106q-12.5 50 -38 88q-25.5 38 -65 60.5q-39.5 22.5 -94.5 22.5q-96 0 -152.5 -68q-56.5 -68 -56.5 -209zt0 0zM195 791q32 32 61 43.5q29 11.5 55 11.5q21 0 41.5 -5.5q20.5 -5.5 39.5 -12q19 -6.5 37 -12q18 -5.5 36 -5.5q14 0 28.5 5q14.5 5 28.5 17l25 -51q-29 -24 -54.5 -33q-25.5 -9 -49.5 -9q-21 0 -41 5q-20 5 -39 11.5q-19 6.5 -37 11.5q-18 5 -36 5q-17 0 -35 -6.5q-18 -6.5 -36 -24.5z" />
<glyph unicode="&#214;" horiz-adv-x="747" d="M58 350q0 86 21.5 153.5q21.5 67.5 62 114q40.5 46.5 99 71q58.5 24.5 132.5 24.5q79 0 138.5 -26.5q59.5 -26.5 99 -74q39.5 -47.5 59 -114.5q19.5 -67 19.5 -148q0 -86 -21.5 -153.5q-21.5 -67.5 -62.5 -114q-41 -46.5 -99.5 -71q-58.5 -24.5 -132.5 -24.5q-80 0 -139 26.5q-59 26.5 -98 74q-39 47.5 -58.5 114.5q-19.5 67 -19.5 148zt0 0zM164 350q0 -57 12.5 -107q12.5 -50 38 -88q25.5 -38 65 -60q39.5 -22 93.5 -22q97 0 153.5 67q56.5 67 56.5 210q0 56 -12.5 106q-12.5 50 -38 88q-25.5 38 -65 60.5q-39.5 22.5 -94.5 22.5q-96 0 -152.5 -68q-56.5 -68 -56.5 -209zt0 0zM204 795q0 23 16.5 36q16.5 13 45.5 13q28 0 45 -13q17 -13 17 -36q0 -22 -17 -35.5q-17 -13.5 -45 -13.5q-29 0 -45.5 13.5q-16.5 13.5 -16.5 35.5zt0 0zM418 795q0 23 16.5 36q16.5 13 44.5 13q29 0 46 -13q17 -13 17 -36q0 -22 -17 -35.5q-17 -13.5 -46 -13.5q-28 0 -44.5 13.5t-16.5 35.5z" />
<glyph unicode="&#215;" horiz-adv-x="554" d="M140 526l138 -130l139 130l58 -63l-136 -124l136 -126l-58 -62l-139 130l-139 -131l-59 61l137 128l-135 124z" />
<glyph unicode="&#216;" horiz-adv-x="747" d="M132 92q-38 48 -56 113.5q-18 65.5 -18 144.5q0 86 21.5 153.5q21.5 67.5 62 114q40.5 46.5 99 71q58.5 24.5 132.5 24.5q59 0 106 -14.5q47 -14.5 84 -41.5l44 57l61 -43l-51 -67q36 -48 54 -112q18 -64 18 -142q0 -86 -21.5 -153.5q-21.5 -67.5 -62.5 -114q-41 -46.5 -99.5 -71q-58.5 -24.5 -132.5 -24.5q-113 0 -186 52h-40l-61 -7zM503 578q-24 23 -56.5 36q-32.5 13 -73.5 13q-96 0 -152.5 -68q-56.5 -68 -56.5 -209q0 -48 8.5 -91q8.5 -43 26.5 -78zM247 118q24 -21 55.5 -33q31.5 -12 70.5 -12q97 0 153.5 67q56.5 67 56.5 210q0 46 -8.5 88q-8.5 42 -25.5 77z" />
<glyph unicode="&#217;" horiz-adv-x="710" d="M527 700h94v-457q0 -65 -18.5 -112q-18.5 -47 -52.5 -78.5q-34 -31.5 -80.5 -46.5q-46.5 -15 -103.5 -15q-135 0 -206 58.5q-71 58.5 -71 173.5v477h100v-439q0 -102 44.5 -142q44.5 -40 131.5 -40q84 0 123 44q39 44 39 141zM446 752h-86l-173 95v23l132 0z" />
<glyph unicode="&#218;" horiz-adv-x="710" d="M527 700h94v-457q0 -65 -18.5 -112q-18.5 -47 -52.5 -78.5q-34 -31.5 -80.5 -46.5q-46.5 -15 -103.5 -15q-135 0 -206 58.5q-71 58.5 -71 173.5v477h100v-439q0 -102 44.5 -142q44.5 -40 131.5 -40q84 0 123 44q39 44 39 141zM424 870h132v-23l-178 -95l-81 0z" />
<glyph unicode="&#219;" horiz-adv-x="710" d="M527 700h94v-457q0 -65 -18.5 -112q-18.5 -47 -52.5 -78.5q-34 -31.5 -80.5 -46.5q-46.5 -15 -103.5 -15q-135 0 -206 58.5q-71 58.5 -71 173.5v477h100v-439q0 -102 44.5 -142q44.5 -40 131.5 -40q84 0 123 44q39 44 39 141zM326 870h73l139 -100v-25h-92l-65 47l-20 35l-21 -34l-70 -48h-90l0 26z" />
<glyph unicode="&#220;" horiz-adv-x="710" d="M527 700h94v-457q0 -65 -18.5 -112q-18.5 -47 -52.5 -78.5q-34 -31.5 -80.5 -46.5q-46.5 -15 -103.5 -15q-135 0 -206 58.5q-71 58.5 -71 173.5v477h100v-439q0 -102 44.5 -142q44.5 -40 131.5 -40q84 0 123 44q39 44 39 141zM189 795q0 23 16.5 36q16.5 13 45.5 13q28 0 45 -13q17 -13 17 -36q0 -22 -17 -35.5q-17 -13.5 -45 -13.5q-29 0 -45.5 13.5q-16.5 13.5 -16.5 35.5zt0 0zM403 795q0 23 16.5 36q16.5 13 44.5 13q29 0 46 -13q17 -13 17 -36q0 -22 -17 -35.5q-17 -13.5 -46 -13.5q-28 0 -44.5 13.5t-16.5 35.5z" />
<glyph unicode="&#221;" horiz-adv-x="617" d="M261 274l-254 426h117l175 -297l17 -64h2l19 66l167 295h106l-249 -425v-275h-100zM384 870h132v-23l-178 -95l-81 0z" />
<glyph unicode="&#222;" horiz-adv-x="614" d="M89 700h100v-74q43 3 89 3q51 0 103.5 -9q52.5 -9 95.5 -33q43 -24 70.5 -66.5q27.5 -42.5 27.5 -109.5q0 -63 -25 -107.5q-25 -44.5 -66.5 -72.5q-41.5 -28 -95 -41q-53.5 -13 -110.5 -13q-6 0 -18.5 0.5q-12.5 0.5 -26 1q-13.5 0.5 -26 1.5q-12.5 1 -18.5 2l0 -182h-100zM189 268q5 -2 16.5 -2.5q11.5 -0.5 24 -1.5q12.5 -1 24 -1q11.5 0 17.5 0q36 0 71 5.5q35 5.5 63.5 21.5q28.5 16 46 45q17.5 29 17.5 75q0 40 -17 66q-17 26 -44 41q-27 15 -60.5 20.5q-33.5 5.5 -66.5 5.5q-27 0 -52.5 -1q-25.5 -1 -39.5 -5z" />
<glyph unicode="&#223;" horiz-adv-x="677" d="M114 549q0 77 55 120q55 43 151 43q57 0 97.5 -12q40.5 -12 66 -32q25.5 -20 37 -46.5q11.5 -26.5 11.5 -55.5q0 -31 -10 -53.5q-10 -22.5 -25 -39q-15 -16.5 -32.5 -29q-17.5 -12.5 -32.5 -24.5q-15 -12 -25 -25q-10 -13 -10 -30q0 -22 17 -34.5q17 -12.5 43 -21.5q26 -9 56 -18q30 -9 56 -25q26 -16 43 -42.5q17 -26.5 17 -69.5q0 -31 -13.5 -61q-13.5 -30 -39.5 -54q-26 -24 -64.5 -38.5q-38.5 -14.5 -88.5 -14.5q-26 0 -46.5 2q-20.5 2 -37 6.5q-16.5 4.5 -31.5 10.5q-15 6 -30 15l26 73q13 -7 26 -12.5q13 -5.5 27 -9q14 -3.5 31 -5.5q17 -2 39 -2q19 0 38.5 5.5q19.5 5.5 35 16q15.5 10.5 25 25q9.5 14.5 9.5 32.5q0 30 -17 47q-17 17 -43 27.5q-26 10.5 -56 18.5q-30 8 -56 22q-26 14 -43 36.5q-17 22.5 -17 62.5q0 30 10 50.5q10 20.5 25 36.5q15 16 33 28.5q18 12.5 33 25q15 12.5 25 27.5q10 15 10 36q0 14 -5.5 27q-5.5 13 -19 23q-13.5 10 -36 16q-22.5 6 -55.5 6q-64 0 -90 -24.5q-26 -24.5 -26 -87.5v-521h-93v445h-90v80l90 0z" />
<glyph unicode="&#224;" horiz-adv-x="582" d="M82 492q90 43 223 43q60 0 96.5 -15.5q36.5 -15.5 56.5 -39.5q20 -24 26.5 -53.5q6.5 -29.5 6.5 -58.5q0 -55 -4 -110.5q-4 -55.5 -4 -120.5q0 -38 3.5 -73.5q3.5 -35.5 11.5 -65.5l-67 0l-25 80h-10q-11 -15 -27 -30.5q-16 -15.5 -38 -27.5q-22 -12 -50.5 -20q-28.5 -8 -65.5 -8q-37 0 -68 10.5q-31 10.5 -53.5 29.5q-22.5 19 -35.5 46.5q-13 27.5 -13 61.5q0 45 19.5 78q19.5 33 50.5 54q31 21 70.5 31q39.5 10 78.5 10q31 0 52.5 -1q21.5 -1 36 -2.5q14.5 -1.5 24.5 -3q10 -1.5 18 -2.5q2 15 3 26q1 11 1 28q0 28 -6 47q-6 19 -19.5 30.5q-13.5 11.5 -36.5 16.5q-23 5 -56 5q-19 0 -42 -3q-23 -3 -46 -8.5q-23 -5.5 -45.5 -13.5q-22.5 -8 -40.5 -17zM395 238q-8 1 -17 3q-9 2 -22.5 3q-13.5 1 -32 2q-18.5 1 -45.5 1q-62 0 -98.5 -22q-36.5 -22 -36.5 -75q0 -40 28.5 -60q28.5 -20 73.5 -20q33 0 58.5 8.5q25.5 8.5 44 21q18.5 12.5 30 28q11.5 15.5 17.5 30.5zM342 570h-54l-127 127v23l110 0z" />
<glyph unicode="&#225;" horiz-adv-x="582" d="M82 492q90 43 223 43q60 0 96.5 -15.5q36.5 -15.5 56.5 -39.5q20 -24 26.5 -53.5q6.5 -29.5 6.5 -58.5q0 -55 -4 -110.5q-4 -55.5 -4 -120.5q0 -38 3.5 -73.5q3.5 -35.5 11.5 -65.5l-67 0l-25 80h-10q-11 -15 -27 -30.5q-16 -15.5 -38 -27.5q-22 -12 -50.5 -20q-28.5 -8 -65.5 -8q-37 0 -68 10.5q-31 10.5 -53.5 29.5q-22.5 19 -35.5 46.5q-13 27.5 -13 61.5q0 45 19.5 78q19.5 33 50.5 54q31 21 70.5 31q39.5 10 78.5 10q31 0 52.5 -1q21.5 -1 36 -2.5q14.5 -1.5 24.5 -3q10 -1.5 18 -2.5q2 15 3 26q1 11 1 28q0 28 -6 47q-6 19 -19.5 30.5q-13.5 11.5 -36.5 16.5q-23 5 -56 5q-19 0 -42 -3q-23 -3 -46 -8.5q-23 -5.5 -45.5 -13.5q-22.5 -8 -40.5 -17zM395 238q-8 1 -17 3q-9 2 -22.5 3q-13.5 1 -32 2q-18.5 1 -45.5 1q-62 0 -98.5 -22q-36.5 -22 -36.5 -75q0 -40 28.5 -60q28.5 -20 73.5 -20q33 0 58.5 8.5q25.5 8.5 44 21q18.5 12.5 30 28q11.5 15.5 17.5 30.5zM267 720h104v-23l-112 -127l-56 0z" />
<glyph unicode="&#226;" horiz-adv-x="582" d="M82 492q90 43 223 43q60 0 96.5 -15.5q36.5 -15.5 56.5 -39.5q20 -24 26.5 -53.5q6.5 -29.5 6.5 -58.5q0 -55 -4 -110.5q-4 -55.5 -4 -120.5q0 -38 3.5 -73.5q3.5 -35.5 11.5 -65.5l-67 0l-25 80h-10q-11 -15 -27 -30.5q-16 -15.5 -38 -27.5q-22 -12 -50.5 -20q-28.5 -8 -65.5 -8q-37 0 -68 10.5q-31 10.5 -53.5 29.5q-22.5 19 -35.5 46.5q-13 27.5 -13 61.5q0 45 19.5 78q19.5 33 50.5 54q31 21 70.5 31q39.5 10 78.5 10q31 0 52.5 -1q21.5 -1 36 -2.5q14.5 -1.5 24.5 -3q10 -1.5 18 -2.5q2 15 3 26q1 11 1 28q0 28 -6 47q-6 19 -19.5 30.5q-13.5 11.5 -36.5 16.5q-23 5 -56 5q-19 0 -42 -3q-23 -3 -46 -8.5q-23 -5.5 -45.5 -13.5q-22.5 -8 -40.5 -17zM395 238q-8 1 -17 3q-9 2 -22.5 3q-13.5 1 -32 2q-18.5 1 -45.5 1q-62 0 -98.5 -22q-36.5 -22 -36.5 -75q0 -40 28.5 -60q28.5 -20 73.5 -20q33 0 58.5 8.5q25.5 8.5 44 21q18.5 12.5 30 28q11.5 15.5 17.5 30.5zM275 773h41q31 -48 63 -94q32 -46 62 -93l-80 0l-45 69l-26 71l-31 -71l-48 -69l-76 0z" />
<glyph unicode="&#227;" horiz-adv-x="582" d="M82 492q90 43 223 43q60 0 96.5 -15.5q36.5 -15.5 56.5 -39.5q20 -24 26.5 -53.5q6.5 -29.5 6.5 -58.5q0 -55 -4 -110.5q-4 -55.5 -4 -120.5q0 -38 3.5 -73.5q3.5 -35.5 11.5 -65.5l-67 0l-25 80h-10q-11 -15 -27 -30.5q-16 -15.5 -38 -27.5q-22 -12 -50.5 -20q-28.5 -8 -65.5 -8q-37 0 -68 10.5q-31 10.5 -53.5 29.5q-22.5 19 -35.5 46.5q-13 27.5 -13 61.5q0 45 19.5 78q19.5 33 50.5 54q31 21 70.5 31q39.5 10 78.5 10q31 0 52.5 -1q21.5 -1 36 -2.5q14.5 -1.5 24.5 -3q10 -1.5 18 -2.5q2 15 3 26q1 11 1 28q0 28 -6 47q-6 19 -19.5 30.5q-13.5 11.5 -36.5 16.5q-23 5 -56 5q-19 0 -42 -3q-23 -3 -46 -8.5q-23 -5.5 -45.5 -13.5q-22.5 -8 -40.5 -17zM395 238q-8 1 -17 3q-9 2 -22.5 3q-13.5 1 -32 2q-18.5 1 -45.5 1q-62 0 -98.5 -22q-36.5 -22 -36.5 -75q0 -40 28.5 -60q28.5 -20 73.5 -20q33 0 58.5 8.5q25.5 8.5 44 21q18.5 12.5 30 28q11.5 15.5 17.5 30.5zM129 696q32 35 58 47.5q26 12.5 49 12.5q18 0 34.5 -6.5q16.5 -6.5 33 -15q16.5 -8.5 33 -15q16.5 -6.5 35.5 -6.5q25 0 54 24l22 -48q-27 -28 -50.5 -39.5q-23.5 -11.5 -43.5 -11.5q-19 0 -36 7q-17 7 -33.5 15q-16.5 8 -33.5 15q-17 7 -36 7q-16 0 -31.5 -6q-15.5 -6 -34.5 -24z" />
<glyph unicode="&#228;" horiz-adv-x="582" d="M82 492q90 43 223 43q60 0 96.5 -15.5q36.5 -15.5 56.5 -39.5q20 -24 26.5 -53.5q6.5 -29.5 6.5 -58.5q0 -55 -4 -110.5q-4 -55.5 -4 -120.5q0 -38 3.5 -73.5q3.5 -35.5 11.5 -65.5l-67 0l-25 80h-10q-11 -15 -27 -30.5q-16 -15.5 -38 -27.5q-22 -12 -50.5 -20q-28.5 -8 -65.5 -8q-37 0 -68 10.5q-31 10.5 -53.5 29.5q-22.5 19 -35.5 46.5q-13 27.5 -13 61.5q0 45 19.5 78q19.5 33 50.5 54q31 21 70.5 31q39.5 10 78.5 10q31 0 52.5 -1q21.5 -1 36 -2.5q14.5 -1.5 24.5 -3q10 -1.5 18 -2.5q2 15 3 26q1 11 1 28q0 28 -6 47q-6 19 -19.5 30.5q-13.5 11.5 -36.5 16.5q-23 5 -56 5q-19 0 -42 -3q-23 -3 -46 -8.5q-23 -5.5 -45.5 -13.5q-22.5 -8 -40.5 -17zM395 238q-8 1 -17 3q-9 2 -22.5 3q-13.5 1 -32 2q-18.5 1 -45.5 1q-62 0 -98.5 -22q-36.5 -22 -36.5 -75q0 -40 28.5 -60q28.5 -20 73.5 -20q33 0 58.5 8.5q25.5 8.5 44 21q18.5 12.5 30 28q11.5 15.5 17.5 30.5zM111 653q0 24 16 40q16 16 42 16q25 0 40.5 -16q15.5 -16 15.5 -40q0 -23 -15.5 -39q-15.5 -16 -40.5 -16q-26 0 -42 16q-16 16 -16 39zt0 0zM326 653q0 24 15.5 40q15.5 16 41.5 16q26 0 41.5 -16q15.5 -16 15.5 -40q0 -23 -15.5 -39q-15.5 -16 -41.5 -16q-26 0 -41.5 16t-15.5 39z" />
<glyph unicode="&#229;" horiz-adv-x="582" d="M82 492q90 43 223 43q60 0 96.5 -15.5q36.5 -15.5 56.5 -39.5q20 -24 26.5 -53.5q6.5 -29.5 6.5 -58.5q0 -55 -4 -110.5q-4 -55.5 -4 -120.5q0 -38 3.5 -73.5q3.5 -35.5 11.5 -65.5l-67 0l-25 80h-10q-11 -15 -27 -30.5q-16 -15.5 -38 -27.5q-22 -12 -50.5 -20q-28.5 -8 -65.5 -8q-37 0 -68 10.5q-31 10.5 -53.5 29.5q-22.5 19 -35.5 46.5q-13 27.5 -13 61.5q0 45 19.5 78q19.5 33 50.5 54q31 21 70.5 31q39.5 10 78.5 10q31 0 52.5 -1q21.5 -1 36 -2.5q14.5 -1.5 24.5 -3q10 -1.5 18 -2.5q2 15 3 26q1 11 1 28q0 28 -6 47q-6 19 -19.5 30.5q-13.5 11.5 -36.5 16.5q-23 5 -56 5q-19 0 -42 -3q-23 -3 -46 -8.5q-23 -5.5 -45.5 -13.5q-22.5 -8 -40.5 -17zM395 238q-8 1 -17 3q-9 2 -22.5 3q-13.5 1 -32 2q-18.5 1 -45.5 1q-62 0 -98.5 -22q-36.5 -22 -36.5 -75q0 -40 28.5 -60q28.5 -20 73.5 -20q33 0 58.5 8.5q25.5 8.5 44 21q18.5 12.5 30 28q11.5 15.5 17.5 30.5zM179 683q0 42 29 68.5q29 26.5 80 26.5q48 0 80.5 -23.5q32.5 -23.5 32.5 -71.5q0 -20 -8.5 -37q-8.5 -17 -23.5 -29.5q-15 -12.5 -36 -20q-21 -7.5 -45 -7.5q-48 0 -78.5 24.5q-30.5 24.5 -30.5 69.5zt0 0zM236 683q0 -20 16.5 -32.5q16.5 -12.5 35.5 -12.5q23 0 39.5 11q16.5 11 16.5 34q0 23 -17 34.5q-17 11.5 -39 11.5q-20 0 -36 -11t-16 -35z" />
<glyph unicode="&#230;" horiz-adv-x="930" d="M397 236q-17 2 -35.5 1.5q-18.5 -0.5 -35.5 -0.5q-36 0 -69 -4q-33 -4 -58.5 -14q-25.5 -10 -40.5 -27q-15 -17 -15 -43q0 -36 28.5 -58.5q28.5 -22.5 73.5 -22.5q33 0 58 8q25 8 43.5 20q18.5 12 31 26.5q12.5 14.5 19.5 28.5zM421 92q-15 -18 -35 -36q-20 -18 -45 -32q-25 -14 -56.5 -23q-31.5 -9 -69.5 -9q-37 0 -68 10q-31 10 -53.5 29q-22.5 19 -35.5 46.5q-13 27.5 -13 61.5q0 45 20.5 76q20.5 31 58 49.5q37.5 18.5 90 27q52.5 8.5 115.5 8.5q15 0 33.5 -0.5q18.5 -0.5 35.5 1.5l0 3q3 24 3 53q0 56 -27 78q-27 22 -93 22q-18 0 -40.5 -2.5q-22.5 -2.5 -46 -7q-23.5 -4.5 -46 -11q-22.5 -6.5 -40.5 -13.5l-25 66q42 21 100 33.5q58 12.5 123 12.5q57 0 97 -19q40 -19 62 -51q16 19 37.5 33q21.5 14 45.5 23.5q24 9.5 50 14q26 4.5 50 4.5q40 0 79 -8.5q39 -8.5 70 -31.5q31 -23 50 -65q19 -42 19 -108q0 -14 -0.5 -31.5q-0.5 -17.5 -3.5 -43.5l-376 0q1 -45 11.5 -80.5q10.5 -35.5 33 -60q22.5 -24.5 58 -37.5q35.5 -13 85.5 -13q38 0 76 12q38 12 63 31l33 -61q-34 -25 -88 -41q-54 -16 -110 -16q-70 0 -128.5 28q-58.5 28 -87.5 78zM777 318q1 40 -7.5 67.5q-8.5 27.5 -25.5 44.5q-17 17 -41 24.5q-24 7.5 -54 7.5q-69 0 -109 -33q-40 -33 -50 -111z" />
<glyph unicode="&#231;" horiz-adv-x="529" d="M484 36q-32 -23 -74 -35q-42 -12 -89 -14l-23 -40q49 -8 72.5 -26q23.5 -18 23.5 -51q0 -42 -37 -67.5q-37 -25.5 -103 -25.5q-13 0 -26.5 1q-13.5 1 -27.5 4l9 36q35 -2 55 1q20 3 30 10q10 7 12.5 15.5q2.5 8.5 2.5 16.5q0 17 -25.5 26.5q-25.5 9.5 -73.5 14.5l52 87q-55 6 -93.5 28q-38.5 22 -62.5 57.5q-24 35.5 -35 83q-11 47.5 -11 104.5q0 133 64.5 205.5q64.5 72.5 185.5 72.5q53 0 92 -9.5q39 -9.5 70 -23.5l-24 -75q-27 14 -58.5 22q-31.5 8 -68.5 8q-163 0 -163 -200q0 -38 9 -73q9 -35 29 -63q20 -28 52.5 -44.5q32.5 -16.5 79.5 -16.5q42 0 73.5 11.5q31.5 11.5 52.5 27.5z" />
<glyph unicode="&#232;" horiz-adv-x="598" d="M515 43q-35 -26 -87 -41.5q-52 -15.5 -113 -15.5q-66 0 -114.5 19.5q-48.5 19.5 -79.5 55.5q-31 36 -46 87q-15 51 -15 114q0 135 66.5 206.5q66.5 71.5 189.5 71.5q39 0 78 -8.5q39 -8.5 70 -32q31 -23.5 50.5 -64.5q19.5 -41 19.5 -107q0 -16 -1 -37q-1 -21 -4 -41l-375 0q2 -92 44 -139q42 -47 143 -47q42 0 80 14.5q38 14.5 59 34.5zM446 316q2 80 -32.5 113q-34.5 33 -96.5 33q-70 0 -111 -33q-41 -33 -48 -113zM373 570h-54l-127 127v23l110 0z" />
<glyph unicode="&#233;" horiz-adv-x="598" d="M515 43q-35 -26 -87 -41.5q-52 -15.5 -113 -15.5q-66 0 -114.5 19.5q-48.5 19.5 -79.5 55.5q-31 36 -46 87q-15 51 -15 114q0 135 66.5 206.5q66.5 71.5 189.5 71.5q39 0 78 -8.5q39 -8.5 70 -32q31 -23.5 50.5 -64.5q19.5 -41 19.5 -107q0 -16 -1 -37q-1 -21 -4 -41l-375 0q2 -92 44 -139q42 -47 143 -47q42 0 80 14.5q38 14.5 59 34.5zM446 316q2 80 -32.5 113q-34.5 33 -96.5 33q-70 0 -111 -33q-41 -33 -48 -113zM329 720h104v-23l-112 -127l-56 0z" />
<glyph unicode="&#234;" horiz-adv-x="598" d="M515 43q-35 -26 -87 -41.5q-52 -15.5 -113 -15.5q-66 0 -114.5 19.5q-48.5 19.5 -79.5 55.5q-31 36 -46 87q-15 51 -15 114q0 135 66.5 206.5q66.5 71.5 189.5 71.5q39 0 78 -8.5q39 -8.5 70 -32q31 -23.5 50.5 -64.5q19.5 -41 19.5 -107q0 -16 -1 -37q-1 -21 -4 -41l-375 0q2 -92 44 -139q42 -47 143 -47q42 0 80 14.5q38 14.5 59 34.5zM446 316q2 80 -32.5 113q-34.5 33 -96.5 33q-70 0 -111 -33q-41 -33 -48 -113zM284 773h41q31 -48 63 -94q32 -46 62 -93l-80 0l-45 69l-26 71l-31 -71l-48 -69l-76 0z" />
<glyph unicode="&#235;" horiz-adv-x="598" d="M515 43q-35 -26 -87 -41.5q-52 -15.5 -113 -15.5q-66 0 -114.5 19.5q-48.5 19.5 -79.5 55.5q-31 36 -46 87q-15 51 -15 114q0 135 66.5 206.5q66.5 71.5 189.5 71.5q39 0 78 -8.5q39 -8.5 70 -32q31 -23.5 50.5 -64.5q19.5 -41 19.5 -107q0 -16 -1 -37q-1 -21 -4 -41l-375 0q2 -92 44 -139q42 -47 143 -47q42 0 80 14.5q38 14.5 59 34.5zM446 316q2 80 -32.5 113q-34.5 33 -96.5 33q-70 0 -111 -33q-41 -33 -48 -113zM158 653q0 24 16 40q16 16 42 16q25 0 40.5 -16q15.5 -16 15.5 -40q0 -23 -15.5 -39q-15.5 -16 -40.5 -16q-26 0 -42 16q-16 16 -16 39zt0 0zM373 653q0 24 15.5 40q15.5 16 41.5 16q26 0 41.5 -16q15.5 -16 15.5 -40q0 -23 -15.5 -39q-15.5 -16 -41.5 -16q-26 0 -41.5 16t-15.5 39z" />
<glyph unicode="&#236;" horiz-adv-x="317" d="M114 525h92v-525h-92zM190 570h-54l-127 127v23l110 0z" />
<glyph unicode="&#237;" horiz-adv-x="317" d="M114 525h92v-525h-92zM175 720h104v-23l-112 -127l-56 0z" />
<glyph unicode="&#238;" horiz-adv-x="317" d="M114 525h92v-525h-92zM138 773h41q31 -48 63 -94q32 -46 62 -93l-80 0l-45 69l-26 71l-31 -71l-48 -69l-76 0z" />
<glyph unicode="&#239;" horiz-adv-x="317" d="M114 525h92v-525h-92zM-5 653q0 24 16 40q16 16 42 16q25 0 40.5 -16q15.5 -16 15.5 -40q0 -23 -15.5 -39q-15.5 -16 -40.5 -16q-26 0 -42 16q-16 16 -16 39zt0 0zM210 653q0 24 15.5 40q15.5 16 41.5 16q26 0 41.5 -16q15.5 -16 15.5 -40q0 -23 -15.5 -39q-15.5 -16 -41.5 -16q-26 0 -41.5 16t-15.5 39z" />
<glyph unicode="&#240;" horiz-adv-x="645" d="M434 669q69 -60 110 -149q41 -89 41 -203q0 -86 -20.5 -148q-20.5 -62 -56 -103q-35.5 -41 -83.5 -60.5q-48 -19.5 -102 -19.5q-69 0 -118.5 23q-49.5 23 -82 61q-32.5 38 -47.5 87.5q-15 49.5 -15 103.5q0 52 17.5 100.5q17.5 48.5 50.5 86.5q33 38 81.5 61q48.5 23 110.5 23q50 0 83.5 -12.5q33.5 -12.5 53.5 -31.5l7 3q-20 40 -43.5 72q-23.5 32 -52.5 58l-66 -49l-38 40l60 44q-29 20 -59 33.5q-30 13.5 -62 23.5l82 38q54 -17 103 -47l64 48l35 -44zM158 259q0 -95 47.5 -145q47.5 -50 123.5 -50q35 0 65 14q30 14 52 43q22 29 34.5 74q12.5 45 12.5 107q0 20 -1 44.5q-1 24.5 -6 38.5q-10 18 -27 31q-17 13 -38 21.5q-21 8.5 -44.5 12.5q-23.5 4 -44.5 4q-46 0 -79 -15.5q-33 -15.5 -54 -42.5q-21 -27 -31 -62.5t-10 -74.5z" />
<glyph unicode="&#241;" horiz-adv-x="641" d="M461 0v290q0 84 -27 126q-27 42 -96 42q-61 0 -101.5 -31.5q-40.5 -31.5 -56.5 -80.5l0 -346h-92v525h64l18 -70h9q29 36 75.5 60.5q46.5 24.5 111.5 24.5q46 0 81 -10.5q35 -10.5 58.5 -37q23.5 -26.5 35.5 -71q12 -44.5 12 -112.5v-309zM155 696q32 35 58 47.5q26 12.5 49 12.5q18 0 34.5 -6.5q16.5 -6.5 33 -15q16.5 -8.5 33 -15q16.5 -6.5 35.5 -6.5q25 0 54 24l22 -48q-27 -28 -50.5 -39.5q-23.5 -11.5 -43.5 -11.5q-19 0 -36 7q-17 7 -33.5 15q-16.5 8 -33.5 15q-17 7 -36 7q-16 0 -31.5 -6q-15.5 -6 -34.5 -24z" />
<glyph unicode="&#242;" horiz-adv-x="631" d="M60 262q0 65 17 116.5q17 51.5 50 87.5q33 36 80.5 55q47.5 19 108.5 19q64 0 112 -21q48 -21 80 -58.5q32 -37.5 47.5 -88q15.5 -50.5 15.5 -110.5q0 -64 -17.5 -115q-17.5 -51 -50 -87q-32.5 -36 -80 -55q-47.5 -19 -107.5 -19q-66 0 -114 21q-48 21 -79.5 58q-31.5 37 -47 87.5q-15.5 50.5 -15.5 109.5zt0 0zM158 262q0 -37 8.5 -72.5q8.5 -35.5 27.5 -63.5q19 -28 49 -45q30 -17 74 -17q156 0 156 198q0 39 -8.5 75q-8.5 36 -27 63.5q-18.5 27.5 -48.5 44.5q-30 17 -72 17q-78 0 -118.5 -49.5q-40.5 -49.5 -40.5 -150.5zt0 0zM360 570h-54l-127 127v23l110 0z" />
<glyph unicode="&#243;" horiz-adv-x="631" d="M60 262q0 65 17 116.5q17 51.5 50 87.5q33 36 80.5 55q47.5 19 108.5 19q64 0 112 -21q48 -21 80 -58.5q32 -37.5 47.5 -88q15.5 -50.5 15.5 -110.5q0 -64 -17.5 -115q-17.5 -51 -50 -87q-32.5 -36 -80 -55q-47.5 -19 -107.5 -19q-66 0 -114 21q-48 21 -79.5 58q-31.5 37 -47 87.5q-15.5 50.5 -15.5 109.5zt0 0zM158 262q0 -37 8.5 -72.5q8.5 -35.5 27.5 -63.5q19 -28 49 -45q30 -17 74 -17q156 0 156 198q0 39 -8.5 75q-8.5 36 -27 63.5q-18.5 27.5 -48.5 44.5q-30 17 -72 17q-78 0 -118.5 -49.5q-40.5 -49.5 -40.5 -150.5zt0 0zM325 720h104v-23l-112 -127l-56 0z" />
<glyph unicode="&#244;" horiz-adv-x="631" d="M60 262q0 65 17 116.5q17 51.5 50 87.5q33 36 80.5 55q47.5 19 108.5 19q64 0 112 -21q48 -21 80 -58.5q32 -37.5 47.5 -88q15.5 -50.5 15.5 -110.5q0 -64 -17.5 -115q-17.5 -51 -50 -87q-32.5 -36 -80 -55q-47.5 -19 -107.5 -19q-66 0 -114 21q-48 21 -79.5 58q-31.5 37 -47 87.5q-15.5 50.5 -15.5 109.5zt0 0zM158 262q0 -37 8.5 -72.5q8.5 -35.5 27.5 -63.5q19 -28 49 -45q30 -17 74 -17q156 0 156 198q0 39 -8.5 75q-8.5 36 -27 63.5q-18.5 27.5 -48.5 44.5q-30 17 -72 17q-78 0 -118.5 -49.5q-40.5 -49.5 -40.5 -150.5zt0 0zM299 773h41q31 -48 63 -94q32 -46 62 -93l-80 0l-45 69l-26 71l-31 -71l-48 -69l-76 0z" />
<glyph unicode="&#245;" horiz-adv-x="631" d="M60 262q0 65 17 116.5q17 51.5 50 87.5q33 36 80.5 55q47.5 19 108.5 19q64 0 112 -21q48 -21 80 -58.5q32 -37.5 47.5 -88q15.5 -50.5 15.5 -110.5q0 -64 -17.5 -115q-17.5 -51 -50 -87q-32.5 -36 -80 -55q-47.5 -19 -107.5 -19q-66 0 -114 21q-48 21 -79.5 58q-31.5 37 -47 87.5q-15.5 50.5 -15.5 109.5zt0 0zM158 262q0 -37 8.5 -72.5q8.5 -35.5 27.5 -63.5q19 -28 49 -45q30 -17 74 -17q156 0 156 198q0 39 -8.5 75q-8.5 36 -27 63.5q-18.5 27.5 -48.5 44.5q-30 17 -72 17q-78 0 -118.5 -49.5q-40.5 -49.5 -40.5 -150.5zt0 0zM155 696q32 35 58 47.5q26 12.5 49 12.5q18 0 34.5 -6.5q16.5 -6.5 33 -15q16.5 -8.5 33 -15q16.5 -6.5 35.5 -6.5q25 0 54 24l22 -48q-27 -28 -50.5 -39.5q-23.5 -11.5 -43.5 -11.5q-19 0 -36 7q-17 7 -33.5 15q-16.5 8 -33.5 15q-17 7 -36 7q-16 0 -31.5 -6q-15.5 -6 -34.5 -24z" />
<glyph unicode="&#246;" horiz-adv-x="631" d="M60 262q0 65 17 116.5q17 51.5 50 87.5q33 36 80.5 55q47.5 19 108.5 19q64 0 112 -21q48 -21 80 -58.5q32 -37.5 47.5 -88q15.5 -50.5 15.5 -110.5q0 -64 -17.5 -115q-17.5 -51 -50 -87q-32.5 -36 -80 -55q-47.5 -19 -107.5 -19q-66 0 -114 21q-48 21 -79.5 58q-31.5 37 -47 87.5q-15.5 50.5 -15.5 109.5zt0 0zM158 262q0 -37 8.5 -72.5q8.5 -35.5 27.5 -63.5q19 -28 49 -45q30 -17 74 -17q156 0 156 198q0 39 -8.5 75q-8.5 36 -27 63.5q-18.5 27.5 -48.5 44.5q-30 17 -72 17q-78 0 -118.5 -49.5q-40.5 -49.5 -40.5 -150.5zt0 0zM151 653q0 24 16 40q16 16 42 16q25 0 40.5 -16q15.5 -16 15.5 -40q0 -23 -15.5 -39q-15.5 -16 -40.5 -16q-26 0 -42 16q-16 16 -16 39zt0 0zM366 653q0 24 15.5 40q15.5 16 41.5 16q26 0 41.5 -16q15.5 -16 15.5 -40q0 -23 -15.5 -39q-15.5 -16 -41.5 -16q-26 0 -41.5 16t-15.5 39z" />
<glyph unicode="&#247;" horiz-adv-x="554" d="M43 379h468v-84h-468zM210 525q0 29 18.5 46q18.5 17 48.5 17q30 0 48.5 -17q18.5 -17 18.5 -46q0 -27 -18.5 -45q-18.5 -18 -48.5 -18q-30 0 -48.5 18q-18.5 18 -18.5 45zt0 0zM210 149q0 29 18.5 46q18.5 17 48.5 17q30 0 48.5 -17q18.5 -17 18.5 -46q0 -27 -18.5 -45q-18.5 -18 -48.5 -18q-30 0 -48.5 18t-18.5 45z" />
<glyph unicode="&#248;" horiz-adv-x="613" d="M108 73q-28 36 -41.5 83.5q-13.5 47.5 -13.5 104.5q0 131 66.5 204.5q66.5 73.5 189.5 73.5q43 0 78 -9q35 -9 63 -26l30 37l54 -44l-31 -39q30 -37 45 -87q15 -50 15 -110q0 -131 -66.5 -203q-66.5 -72 -187.5 -72q-46 0 -83 10q-37 10 -66 29l-31 -41l-57 44zM213 95q37 -31 96 -31q156 0 156 197q0 33 -6 64.5q-6 31.5 -20 57.5zM399 432q-17 14 -39.5 21.5q-22.5 7.5 -50.5 7.5q-158 0 -158 -200q0 -30 5.5 -59q5.5 -29 17.5 -54z" />
<glyph unicode="&#249;" horiz-adv-x="644" d="M180 525v-289q0 -42 5 -74q5 -32 18 -53.5q13 -21.5 35.5 -33q22.5 -11.5 57.5 -11.5q60 0 98 34q38 34 58 84l0 343h92v-376q0 -38 3 -77.5q3 -39.5 9 -71.5l-62 0l-24 87h-10q-26 -45 -72 -73q-46 -28 -115 -28q-46 0 -80.5 11q-34.5 11 -58 37.5q-23.5 26.5 -35 70.5q-11.5 44 -11.5 110v310zM353 570h-54l-127 127v23l110 0z" />
<glyph unicode="&#250;" horiz-adv-x="644" d="M180 525v-289q0 -42 5 -74q5 -32 18 -53.5q13 -21.5 35.5 -33q22.5 -11.5 57.5 -11.5q60 0 98 34q38 34 58 84l0 343h92v-376q0 -38 3 -77.5q3 -39.5 9 -71.5l-62 0l-24 87h-10q-26 -45 -72 -73q-46 -28 -115 -28q-46 0 -80.5 11q-34.5 11 -58 37.5q-23.5 26.5 -35 70.5q-11.5 44 -11.5 110v310zM326 720h104v-23l-112 -127l-56 0z" />
<glyph unicode="&#251;" horiz-adv-x="644" d="M180 525v-289q0 -42 5 -74q5 -32 18 -53.5q13 -21.5 35.5 -33q22.5 -11.5 57.5 -11.5q60 0 98 34q38 34 58 84l0 343h92v-376q0 -38 3 -77.5q3 -39.5 9 -71.5l-62 0l-24 87h-10q-26 -45 -72 -73q-46 -28 -115 -28q-46 0 -80.5 11q-34.5 11 -58 37.5q-23.5 26.5 -35 70.5q-11.5 44 -11.5 110v310zM308 773h41q31 -48 63 -94q32 -46 62 -93l-80 0l-45 69l-26 71l-31 -71l-48 -69l-76 0z" />
<glyph unicode="&#252;" horiz-adv-x="644" d="M180 525v-289q0 -42 5 -74q5 -32 18 -53.5q13 -21.5 35.5 -33q22.5 -11.5 57.5 -11.5q60 0 98 34q38 34 58 84l0 343h92v-376q0 -38 3 -77.5q3 -39.5 9 -71.5l-62 0l-24 87h-10q-26 -45 -72 -73q-46 -28 -115 -28q-46 0 -80.5 11q-34.5 11 -58 37.5q-23.5 26.5 -35 70.5q-11.5 44 -11.5 110v310zM144 653q0 24 16 40q16 16 42 16q25 0 40.5 -16q15.5 -16 15.5 -40q0 -23 -15.5 -39q-15.5 -16 -40.5 -16q-26 0 -42 16q-16 16 -16 39zt0 0zM359 653q0 24 15.5 40q15.5 16 41.5 16q26 0 41.5 -16q15.5 -16 15.5 -40q0 -23 -15.5 -39q-15.5 -16 -41.5 -16q-26 0 -41.5 16t-15.5 39z" />
<glyph unicode="&#253;" horiz-adv-x="531" d="M251 193l31 -101h13l25 102l109 331h94l-172 -475q-19 -49 -38.5 -95q-19.5 -46 -43 -81.5q-23.5 -35.5 -52 -57q-28.5 -21.5 -65.5 -21.5q-40 0 -68 9l15 78q15 -5 30 -5q20 0 36.5 5q16.5 5 30.5 18q14 13 25.5 36.5q11.5 23.5 21.5 60.5l-235 528h109zM303 720h104v-23l-112 -127l-56 0z" />
<glyph unicode="&#254;" horiz-adv-x="630" d="M88 701h92v-235h8q26 34 63.5 53.5q37.5 19.5 91.5 19.5q114 0 170.5 -63q56.5 -63 56.5 -202q0 -66 -19 -119.5q-19 -53.5 -53.5 -91q-34.5 -37.5 -83.5 -57.5q-49 -20 -110 -20q-20 0 -35 1.5q-15 1.5 -29.5 4.5q-14.5 3 -28.5 8q-14 5 -31 11l0 -211h-92zM322 461q-111 0 -142 -124l0 -237q21 -16 50 -26q29 -10 68 -10q81 0 127.5 53q46.5 53 46.5 158q0 42 -8 76.5q-8 34.5 -26 58.5q-18 24 -46.5 37.5t-69.5 13.5z" />
<glyph unicode="&#255;" horiz-adv-x="531" d="M251 193l31 -101h13l25 102l109 331h94l-172 -475q-19 -49 -38.5 -95q-19.5 -46 -43 -81.5q-23.5 -35.5 -52 -57q-28.5 -21.5 -65.5 -21.5q-40 0 -68 9l15 78q15 -5 30 -5q20 0 36.5 5q16.5 5 30.5 18q14 13 25.5 36.5q11.5 23.5 21.5 60.5l-235 528h109zM89 653q0 24 16 40q16 16 42 16q25 0 40.5 -16q15.5 -16 15.5 -40q0 -23 -15.5 -39q-15.5 -16 -40.5 -16q-26 0 -42 16q-16 16 -16 39zt0 0zM304 653q0 24 15.5 40q15.5 16 41.5 16q26 0 41.5 -16q15.5 -16 15.5 -40q0 -23 -15.5 -39q-15.5 -16 -41.5 -16q-26 0 -41.5 16t-15.5 39z" />
<glyph unicode="&#256;" horiz-adv-x="645" d="M457 183h-277l-74 -183h-98l288 710h52l289 -710h-104zM210 267h218l-81 199l-27 107h-2l-27 -109zM145 836h350v-68l-350 0z" />
<glyph unicode="&#257;" horiz-adv-x="582" d="M82 492q90 43 223 43q60 0 96.5 -15.5q36.5 -15.5 56.5 -39.5q20 -24 26.5 -53.5q6.5 -29.5 6.5 -58.5q0 -55 -4 -110.5q-4 -55.5 -4 -120.5q0 -38 3.5 -73.5q3.5 -35.5 11.5 -65.5l-67 0l-25 80h-10q-11 -15 -27 -30.5q-16 -15.5 -38 -27.5q-22 -12 -50.5 -20q-28.5 -8 -65.5 -8q-37 0 -68 10.5q-31 10.5 -53.5 29.5q-22.5 19 -35.5 46.5q-13 27.5 -13 61.5q0 45 19.5 78q19.5 33 50.5 54q31 21 70.5 31q39.5 10 78.5 10q31 0 52.5 -1q21.5 -1 36 -2.5q14.5 -1.5 24.5 -3q10 -1.5 18 -2.5q2 15 3 26q1 11 1 28q0 28 -6 47q-6 19 -19.5 30.5q-13.5 11.5 -36.5 16.5q-23 5 -56 5q-19 0 -42 -3q-23 -3 -46 -8.5q-23 -5.5 -45.5 -13.5q-22.5 -8 -40.5 -17zM395 238q-8 1 -17 3q-9 2 -22.5 3q-13.5 1 -32 2q-18.5 1 -45.5 1q-62 0 -98.5 -22q-36.5 -22 -36.5 -75q0 -40 28.5 -60q28.5 -20 73.5 -20q33 0 58.5 8.5q25.5 8.5 44 21q18.5 12.5 30 28q11.5 15.5 17.5 30.5zM114 666h328v-69l-328 0z" />
<glyph unicode="&#258;" horiz-adv-x="645" d="M457 183h-277l-74 -183h-98l288 710h52l289 -710h-104zM210 267h218l-81 199l-27 107h-2l-27 -109zM180 872q19 -32 58 -49q39 -17 90 -17q53 0 89.5 19.5q36.5 19.5 53.5 46.5l44 -23q-10 -28 -28.5 -50q-18.5 -22 -43.5 -37.5q-25 -15.5 -55 -23.5q-30 -8 -61 -8q-29 0 -58 6.5q-29 6.5 -55 20.5q-26 14 -47.5 35q-21.5 21 -34.5 51z" />
<glyph unicode="&#259;" horiz-adv-x="582" d="M82 492q90 43 223 43q60 0 96.5 -15.5q36.5 -15.5 56.5 -39.5q20 -24 26.5 -53.5q6.5 -29.5 6.5 -58.5q0 -55 -4 -110.5q-4 -55.5 -4 -120.5q0 -38 3.5 -73.5q3.5 -35.5 11.5 -65.5l-67 0l-25 80h-10q-11 -15 -27 -30.5q-16 -15.5 -38 -27.5q-22 -12 -50.5 -20q-28.5 -8 -65.5 -8q-37 0 -68 10.5q-31 10.5 -53.5 29.5q-22.5 19 -35.5 46.5q-13 27.5 -13 61.5q0 45 19.5 78q19.5 33 50.5 54q31 21 70.5 31q39.5 10 78.5 10q31 0 52.5 -1q21.5 -1 36 -2.5q14.5 -1.5 24.5 -3q10 -1.5 18 -2.5q2 15 3 26q1 11 1 28q0 28 -6 47q-6 19 -19.5 30.5q-13.5 11.5 -36.5 16.5q-23 5 -56 5q-19 0 -42 -3q-23 -3 -46 -8.5q-23 -5.5 -45.5 -13.5q-22.5 -8 -40.5 -17zM395 238q-8 1 -17 3q-9 2 -22.5 3q-13.5 1 -32 2q-18.5 1 -45.5 1q-62 0 -98.5 -22q-36.5 -22 -36.5 -75q0 -40 28.5 -60q28.5 -20 73.5 -20q33 0 58.5 8.5q25.5 8.5 44 21q18.5 12.5 30 28q11.5 15.5 17.5 30.5zM162 759q21 -37 56.5 -56q35.5 -19 75.5 -19q39 0 72.5 18.5q33.5 18.5 53.5 56.5l45 -19q-4 -24 -18.5 -47.5q-14.5 -23.5 -37.5 -41.5q-23 -18 -53 -29.5q-30 -11.5 -63 -11.5q-65 0 -114.5 34q-49.5 34 -66.5 91z" />
<glyph unicode="&#260;" horiz-adv-x="645" d="M457 183h-277l-74 -183h-98l288 710h52l289 -710h-7q-34 -17 -54 -39.5q-20 -22.5 -19 -52.5q1 -23 16 -39q15 -16 44 -16q10 0 22 2.5q12 2.5 25 7.5l12 -46q-17 -12 -47 -18.5q-30 -6.5 -57 -6.5q-51 0 -80.5 24.5q-29.5 24.5 -29.5 67.5q0 40 31.5 69.5q31.5 29.5 84.5 46.5l-45 0zM210 267h218l-81 199l-27 107h-2l-27 -109z" />
<glyph unicode="&#261;" horiz-adv-x="582" d="M82 492q90 43 223 43q60 0 96.5 -15.5q36.5 -15.5 56.5 -39.5q20 -24 26.5 -53.5q6.5 -29.5 6.5 -58.5q0 -55 -4 -110.5q-4 -55.5 -4 -120.5q0 -38 3.5 -73.5q3.5 -35.5 11.5 -65.5l-11 0q-31 -16 -49 -38q-18 -22 -17 -51q1 -23 16 -39q15 -16 44 -16q10 0 22 2.5q12 2.5 25 7.5l12 -46q-17 -12 -47 -18.5q-30 -6.5 -57 -6.5q-51 0 -80.5 24.5q-29.5 24.5 -29.5 67.5q0 38 29 67q29 29 78 46l-2 0l-25 80h-10q-11 -15 -27 -30.5q-16 -15.5 -38 -27.5q-22 -12 -50.5 -20q-28.5 -8 -65.5 -8q-37 0 -68 10.5q-31 10.5 -53.5 29.5q-22.5 19 -35.5 46.5q-13 27.5 -13 61.5q0 45 19.5 78q19.5 33 50.5 54q31 21 70.5 31q39.5 10 78.5 10q31 0 52.5 -1q21.5 -1 36 -2.5q14.5 -1.5 24.5 -3q10 -1.5 18 -2.5q2 15 3 26q1 11 1 28q0 28 -6 47q-6 19 -19.5 30.5q-13.5 11.5 -36.5 16.5q-23 5 -56 5q-19 0 -42 -3q-23 -3 -46 -8.5q-23 -5.5 -45.5 -13.5q-22.5 -8 -40.5 -17zM395 238q-8 1 -17 3q-9 2 -22.5 3q-13.5 1 -32 2q-18.5 1 -45.5 1q-62 0 -98.5 -22q-36.5 -22 -36.5 -75q0 -40 28.5 -60q28.5 -20 73.5 -20q33 0 58.5 8.5q25.5 8.5 44 21q18.5 12.5 30 28q11.5 15.5 17.5 30.5z" />
<glyph unicode="&#262;" horiz-adv-x="624" d="M584 30q-33 -24 -84 -33.5q-51 -9.5 -108 -9.5q-67 0 -127.5 21.5q-60.5 21.5 -106.5 66q-46 44.5 -73 113q-27 68.5 -27 162.5q0 98 30 167q30 69 78 112.5q48 43.5 108 63.5q60 20 119 20q66 0 108 -7q42 -7 71 -18l-22 -86q-49 23 -149 23q-45 0 -87.5 -14.5q-42.5 -14.5 -76 -47q-33.5 -32.5 -53.5 -85q-20 -52.5 -20 -128.5q0 -68 19 -119.5q19 -51.5 52.5 -86q33.5 -34.5 79 -52q45.5 -17.5 99.5 -17.5q49 0 85 9q36 9 61 23zM449 870h132v-23l-178 -95l-81 0z" />
<glyph unicode="&#263;" horiz-adv-x="529" d="M484 36q-35 -25 -82 -37.5q-47 -12.5 -99 -12.5q-66 0 -112.5 20q-46.5 20 -75.5 56q-29 36 -42 87q-13 51 -13 113q0 133 64.5 205.5q64.5 72.5 185.5 72.5q53 0 92 -9.5q39 -9.5 70 -23.5l-24 -75q-27 14 -58.5 22q-31.5 8 -68.5 8q-163 0 -163 -200q0 -38 9 -73.5q9 -35.5 29 -63q20 -27.5 52.5 -44.5q32.5 -17 79.5 -17q42 0 73.5 11.5q31.5 11.5 52.5 27.5zM321 720h104v-23l-112 -127l-56 0z" />
<glyph unicode="&#264;" horiz-adv-x="624" d="M584 30q-33 -24 -84 -33.5q-51 -9.5 -108 -9.5q-67 0 -127.5 21.5q-60.5 21.5 -106.5 66q-46 44.5 -73 113q-27 68.5 -27 162.5q0 98 30 167q30 69 78 112.5q48 43.5 108 63.5q60 20 119 20q66 0 108 -7q42 -7 71 -18l-22 -86q-49 23 -149 23q-45 0 -87.5 -14.5q-42.5 -14.5 -76 -47q-33.5 -32.5 -53.5 -85q-20 -52.5 -20 -128.5q0 -68 19 -119.5q19 -51.5 52.5 -86q33.5 -34.5 79 -52q45.5 -17.5 99.5 -17.5q49 0 85 9q36 9 61 23zM345 870h73l139 -100v-25h-92l-65 47l-20 35l-21 -34l-70 -48h-90l0 26z" />
<glyph unicode="&#265;" horiz-adv-x="529" d="M484 36q-35 -25 -82 -37.5q-47 -12.5 -99 -12.5q-66 0 -112.5 20q-46.5 20 -75.5 56q-29 36 -42 87q-13 51 -13 113q0 133 64.5 205.5q64.5 72.5 185.5 72.5q53 0 92 -9.5q39 -9.5 70 -23.5l-24 -75q-27 14 -58.5 22q-31.5 8 -68.5 8q-163 0 -163 -200q0 -38 9 -73.5q9 -35.5 29 -63q20 -27.5 52.5 -44.5q32.5 -17 79.5 -17q42 0 73.5 11.5q31.5 11.5 52.5 27.5zM275 773h41q31 -48 63 -94q32 -46 62 -93l-80 0l-45 69l-26 71l-31 -71l-48 -69l-76 0z" />
<glyph unicode="&#268;" horiz-adv-x="624" d="M584 30q-33 -24 -84 -33.5q-51 -9.5 -108 -9.5q-67 0 -127.5 21.5q-60.5 21.5 -106.5 66q-46 44.5 -73 113q-27 68.5 -27 162.5q0 98 30 167q30 69 78 112.5q48 43.5 108 63.5q60 20 119 20q66 0 108 -7q42 -7 71 -18l-22 -86q-49 23 -149 23q-45 0 -87.5 -14.5q-42.5 -14.5 -76 -47q-33.5 -32.5 -53.5 -85q-20 -52.5 -20 -128.5q0 -68 19 -119.5q19 -51.5 52.5 -86q33.5 -34.5 79 -52q45.5 -17.5 99.5 -17.5q49 0 85 9q36 9 61 23zM419 744h-69l-139 101v25h93l64 -49l19 -33l21 32l68 50h89l0 -26z" />
<glyph unicode="&#269;" horiz-adv-x="529" d="M484 36q-35 -25 -82 -37.5q-47 -12.5 -99 -12.5q-66 0 -112.5 20q-46.5 20 -75.5 56q-29 36 -42 87q-13 51 -13 113q0 133 64.5 205.5q64.5 72.5 185.5 72.5q53 0 92 -9.5q39 -9.5 70 -23.5l-24 -75q-27 14 -58.5 22q-31.5 8 -68.5 8q-163 0 -163 -200q0 -38 9 -73.5q9 -35.5 29 -63q20 -27.5 52.5 -44.5q32.5 -17 79.5 -17q42 0 73.5 11.5q31.5 11.5 52.5 27.5zM315 586h-49l-129 187h87l44 -68l28 -71l29 70l49 69l78 0z" />
<glyph unicode="&#270;" horiz-adv-x="715" d="M89 700q20 3 46.5 4.5q26.5 1.5 55 2.5q28.5 1 56 1.5q27.5 0.5 50.5 0.5q92 0 159.5 -26.5q67.5 -26.5 112 -73.5q44.5 -47 66.5 -112q22 -65 22 -142q0 -70 -20.5 -135.5q-20.5 -65.5 -65.5 -116.5q-45 -51 -115.5 -82q-70.5 -31 -170.5 -31q-17 0 -45.5 1q-28.5 1 -58.5 2q-30 1 -55.5 2.5q-25.5 1.5 -36.5 3.5zM300 621q-14 0 -30 0q-16 0 -32 -1q-16 -1 -29 -2q-13 -1 -20 -2l0 -534q5 -1 19.5 -1.5q14.5 -0.5 30.5 -1q16 -0.5 30 -1q14 -0.5 20 -0.5q75 0 125.5 23.5q50.5 23.5 81 62.5q30.5 39 43 88.5q12.5 49.5 12.5 102.5q0 45 -12 92q-12 47 -41 85.5q-29 38.5 -77 63.5q-48 25 -121 25zt0 0zM341 744h-69l-139 101v25h93l64 -49l19 -33l21 32l68 50h89l0 -26z" />
<glyph unicode="&#271;" horiz-adv-x="629" d="M538 181q0 -51 1.5 -95.5q1.5 -44.5 9.5 -87.5l-61 0l-23 80h-10q-23 -40 -67.5 -66q-44.5 -26 -103.5 -26q-113 0 -168.5 67q-55.5 67 -55.5 206q0 134 68.5 205.5q68.5 71.5 192.5 71.5q21 0 37.5 -1.5q16.5 -1.5 31 -3.5q14.5 -2 28 -6q13.5 -4 28.5 -8l0 183h92zM446 428q-23 17 -49.5 23.5q-26.5 6.5 -70.5 6.5q-81 0 -125.5 -47q-44.5 -47 -44.5 -153q0 -42 8 -77.5q8 -35.5 25 -61.5q17 -26 45 -40.5q28 -14.5 69 -14.5q61 0 95 30.5q34 30.5 48 90.5zM696 700q-2 -29 -12.5 -59.5q-10.5 -30.5 -24.5 -57.5q-14 -27 -28.5 -48q-14.5 -21 -24.5 -30l-40 23q19 36 28.5 81q9.5 45 9.5 91z" />
<glyph unicode="&#272;" horiz-adv-x="723" d="M0 394h97v306q20 3 46.5 4.5q26.5 1.5 55 2.5q28.5 1 56 1.5q27.5 0.5 50.5 0.5q92 0 159.5 -26.5q67.5 -26.5 112 -73.5q44.5 -47 66.5 -112q22 -65 22 -142q0 -70 -20.5 -135.5q-20.5 -65.5 -65.5 -116.5q-45 -51 -115.5 -82q-70.5 -31 -170.5 -31q-17 0 -45.5 1q-28.5 1 -58.5 2q-30 1 -55.5 2.5q-25.5 1.5 -36.5 3.5l0 329h-97zM197 394h160v-66h-160v-246q5 -1 19.5 -1.5q14.5 -0.5 30.5 -1q16 -0.5 30 -1q14 -0.5 20 -0.5q75 0 125.5 23.5q50.5 23.5 81 62.5q30.5 39 43 88.5q12.5 49.5 12.5 102.5q0 45 -12 92q-12 47 -41 85.5q-29 38.5 -77 63.5q-48 25 -121 25q-14 0 -30 0q-16 0 -32 -1q-16 -1 -29 -2q-13 -1 -20 -2z" />
<glyph unicode="&#273;" horiz-adv-x="630" d="M538 649h92v-61h-92v-406q0 -51 1.5 -95.5q1.5 -44.5 9.5 -87.5l-61 0l-23 80h-10q-23 -40 -67.5 -66q-44.5 -26 -103.5 -26q-113 0 -168.5 67q-55.5 67 -55.5 206q0 134 68.5 205.5q68.5 71.5 192.5 71.5q21 0 37.5 -1.5q16.5 -1.5 31 -3.5q14.5 -2 28 -6q13.5 -4 28.5 -8l0 70h-185v61h185v52h92zM446 429q-23 17 -49.5 23.5q-26.5 6.5 -70.5 6.5q-81 0 -125.5 -47q-44.5 -47 -44.5 -153q0 -42 8 -77.5q8 -35.5 25 -61.5q17 -26 45 -40.5q28 -14.5 69 -14.5q61 0 95 30.5q34 30.5 48 90.5z" />
<glyph unicode="&#274;" horiz-adv-x="585" d="M89 700h423v-86h-323v-213h295v-86h-295v-229h328v-86h-428zM118 836h350v-68l-350 0z" />
<glyph unicode="&#275;" horiz-adv-x="598" d="M515 43q-35 -26 -87 -41.5q-52 -15.5 -113 -15.5q-66 0 -114.5 19.5q-48.5 19.5 -79.5 55.5q-31 36 -46 87q-15 51 -15 114q0 135 66.5 206.5q66.5 71.5 189.5 71.5q39 0 78 -8.5q39 -8.5 70 -32q31 -23.5 50.5 -64.5q19.5 -41 19.5 -107q0 -16 -1 -37q-1 -21 -4 -41l-375 0q2 -92 44 -139q42 -47 143 -47q42 0 80 14.5q38 14.5 59 34.5zM446 316q2 80 -32.5 113q-34.5 33 -96.5 33q-70 0 -111 -33q-41 -33 -48 -113zM141 666h328v-69l-328 0z" />
<glyph unicode="&#278;" horiz-adv-x="585" d="M89 700h423v-86h-323v-213h295v-86h-295v-229h328v-86h-428zM229 798q0 22 19 38q19 16 53 16q34 0 53.5 -16q19.5 -16 19.5 -38q0 -24 -19.5 -39.5q-19.5 -15.5 -53.5 -15.5q-34 0 -53 15.5t-19 39.5z" />
<glyph unicode="&#279;" horiz-adv-x="598" d="M515 43q-35 -26 -87 -41.5q-52 -15.5 -113 -15.5q-66 0 -114.5 19.5q-48.5 19.5 -79.5 55.5q-31 36 -46 87q-15 51 -15 114q0 135 66.5 206.5q66.5 71.5 189.5 71.5q39 0 78 -8.5q39 -8.5 70 -32q31 -23.5 50.5 -64.5q19.5 -41 19.5 -107q0 -16 -1 -37q-1 -21 -4 -41l-375 0q2 -92 44 -139q42 -47 143 -47q42 0 80 14.5q38 14.5 59 34.5zM446 316q2 80 -32.5 113q-34.5 33 -96.5 33q-70 0 -111 -33q-41 -33 -48 -113zM244 650q0 23 18 41.5q18 18.5 47 18.5q29 0 48 -18.5q19 -18.5 19 -41.5q0 -23 -19 -40.5q-19 -17.5 -48 -17.5q-29 0 -47 17.5t-18 40.5z" />
<glyph unicode="&#280;" horiz-adv-x="585" d="M89 700h423v-86h-323v-213h295v-86h-295v-229h328v-86h-21q-34 -17 -54 -39.5q-20 -22.5 -19 -52.5q1 -23 16 -39q15 -16 44 -16q10 0 22 2.5q12 2.5 25 7.5l12 -46q-17 -12 -47 -18.5q-30 -6.5 -57 -6.5q-51 0 -80.5 24.5q-29.5 24.5 -29.5 67.5q0 40 31.5 69.5q31.5 29.5 84.5 46.5l-355 0z" />
<glyph unicode="&#281;" horiz-adv-x="598" d="M515 43q-33 -25 -76 -38l1 0q-33 -17 -51.5 -42.5q-18.5 -25.5 -17.5 -56.5q1 -23 17 -40q16 -17 45 -17q20 0 44 9l12 -41q-18 -12 -46.5 -18.5q-28.5 -6.5 -53.5 -6.5q-52 0 -82.5 24q-30.5 24 -30.5 66q0 32 20.5 59.5q20.5 27.5 55.5 46.5q-9 -1 -18.5 -1.5q-9.5 -0.5 -18.5 -0.5q-66 0 -114.5 19.5q-48.5 19.5 -79.5 55.5q-31 36 -46 87q-15 51 -15 114q0 135 66.5 206.5q66.5 71.5 189.5 71.5q39 0 78 -8.5q39 -8.5 70 -32q31 -23.5 50.5 -64.5q19.5 -41 19.5 -107q0 -16 -1 -37q-1 -21 -4 -41l-375 0q2 -92 44 -139q42 -47 143 -47q42 0 80 14.5q38 14.5 59 34.5zM446 316q2 80 -32.5 113q-34.5 33 -96.5 33q-70 0 -111 -33q-41 -33 -48 -113z" />
<glyph unicode="&#282;" horiz-adv-x="585" d="M89 700h423v-86h-323v-213h295v-86h-295v-229h328v-86h-428zM323 744h-69l-139 101v25h93l64 -49l19 -33l21 32l68 50h89l0 -26z" />
<glyph unicode="&#283;" horiz-adv-x="598" d="M515 43q-35 -26 -87 -41.5q-52 -15.5 -113 -15.5q-66 0 -114.5 19.5q-48.5 19.5 -79.5 55.5q-31 36 -46 87q-15 51 -15 114q0 135 66.5 206.5q66.5 71.5 189.5 71.5q39 0 78 -8.5q39 -8.5 70 -32q31 -23.5 50.5 -64.5q19.5 -41 19.5 -107q0 -16 -1 -37q-1 -21 -4 -41l-375 0q2 -92 44 -139q42 -47 143 -47q42 0 80 14.5q38 14.5 59 34.5zM446 316q2 80 -32.5 113q-34.5 33 -96.5 33q-70 0 -111 -33q-41 -33 -48 -113zM328 586h-49l-129 187h87l44 -68l28 -71l29 70l49 69l78 0z" />
<glyph unicode="&#284;" horiz-adv-x="668" d="M348 353h262v-309q-18 -14 -43 -24.5q-25 -10.5 -53.5 -17.5q-28.5 -7 -58.5 -11q-30 -4 -59 -4q-72 0 -133.5 21.5q-61.5 21.5 -107 66.5q-45.5 45 -71.5 113.5q-26 68.5 -26 161.5q0 97 31.5 166q31.5 69 81.5 113q50 44 111.5 64q61.5 20 122.5 20q66 0 109.5 -7.5q43.5 -7.5 72.5 -18.5l-24 -85q-52 23 -150 23q-45 0 -89.5 -14q-44.5 -14 -80 -46.5q-35.5 -32.5 -57.5 -85q-22 -52.5 -22 -129.5q0 -71 18.5 -123q18.5 -52 51.5 -86q33 -34 78 -50q45 -16 98 -16q33 0 63.5 6.5q30.5 6.5 53.5 18.5l0 177l-179 18zM356 870h73l139 -100v-25h-92l-65 47l-20 35l-21 -34l-70 -48h-90l0 26z" />
<glyph unicode="&#285;" horiz-adv-x="627" d="M537 -3q0 -103 -60.5 -153.5q-60.5 -50.5 -177.5 -50.5q-68 0 -110 8q-42 8 -72 22l22 83q13 -6 30 -12.5q17 -6.5 36 -11.5q19 -5 38.5 -8q19.5 -3 37.5 -3q49 0 81 8.5q32 8.5 51 26.5q19 18 26 46q7 28 7 67v37h-11q-16 -26 -56 -42q-40 -16 -97 -16q-114 0 -168 61.5q-54 61.5 -54 198.5q0 135 70 208q70 73 208 73q66 0 113.5 -8q47.5 -8 85.5 -21zM302 76q61 0 95.5 31q34.5 31 47.5 81l0 258q-23 7 -53 11q-30 4 -68 4q-78 0 -122 -49.5q-44 -49.5 -44 -151.5q0 -88 32.5 -136q32.5 -48 111.5 -48zt0 0zM302 773h41q31 -48 63 -94q32 -46 62 -93l-80 0l-45 69l-26 71l-31 -71l-48 -69l-76 0z" />
<glyph unicode="&#286;" horiz-adv-x="668" d="M348 353h262v-309q-18 -14 -43 -24.5q-25 -10.5 -53.5 -17.5q-28.5 -7 -58.5 -11q-30 -4 -59 -4q-72 0 -133.5 21.5q-61.5 21.5 -107 66.5q-45.5 45 -71.5 113.5q-26 68.5 -26 161.5q0 97 31.5 166q31.5 69 81.5 113q50 44 111.5 64q61.5 20 122.5 20q66 0 109.5 -7.5q43.5 -7.5 72.5 -18.5l-24 -85q-52 23 -150 23q-45 0 -89.5 -14q-44.5 -14 -80 -46.5q-35.5 -32.5 -57.5 -85q-22 -52.5 -22 -129.5q0 -71 18.5 -123q18.5 -52 51.5 -86q33 -34 78 -50q45 -16 98 -16q33 0 63.5 6.5q30.5 6.5 53.5 18.5l0 177l-179 18zM239 872q19 -32 58 -49q39 -17 90 -17q53 0 89.5 19.5q36.5 19.5 53.5 46.5l44 -23q-10 -28 -28.5 -50q-18.5 -22 -43.5 -37.5q-25 -15.5 -55 -23.5q-30 -8 -61 -8q-29 0 -58 6.5q-29 6.5 -55 20.5q-26 14 -47.5 35q-21.5 21 -34.5 51z" />
<glyph unicode="&#287;" horiz-adv-x="627" d="M537 -3q0 -103 -60.5 -153.5q-60.5 -50.5 -177.5 -50.5q-68 0 -110 8q-42 8 -72 22l22 83q13 -6 30 -12.5q17 -6.5 36 -11.5q19 -5 38.5 -8q19.5 -3 37.5 -3q49 0 81 8.5q32 8.5 51 26.5q19 18 26 46q7 28 7 67v37h-11q-16 -26 -56 -42q-40 -16 -97 -16q-114 0 -168 61.5q-54 61.5 -54 198.5q0 135 70 208q70 73 208 73q66 0 113.5 -8q47.5 -8 85.5 -21zM302 76q61 0 95.5 31q34.5 31 47.5 81l0 258q-23 7 -53 11q-30 4 -68 4q-78 0 -122 -49.5q-44 -49.5 -44 -151.5q0 -88 32.5 -136q32.5 -48 111.5 -48zt0 0zM185 759q21 -37 56.5 -56q35.5 -19 75.5 -19q39 0 72.5 18.5q33.5 18.5 53.5 56.5l45 -19q-4 -24 -18.5 -47.5q-14.5 -23.5 -37.5 -41.5q-23 -18 -53 -29.5q-30 -11.5 -63 -11.5q-65 0 -114.5 34q-49.5 34 -66.5 91z" />
<glyph unicode="&#290;" horiz-adv-x="668" d="M348 353h262v-309q-18 -14 -43 -24.5q-25 -10.5 -53.5 -17.5q-28.5 -7 -58.5 -11q-30 -4 -59 -4q-72 0 -133.5 21.5q-61.5 21.5 -107 66.5q-45.5 45 -71.5 113.5q-26 68.5 -26 161.5q0 97 31.5 166q31.5 69 81.5 113q50 44 111.5 64q61.5 20 122.5 20q66 0 109.5 -7.5q43.5 -7.5 72.5 -18.5l-24 -85q-52 23 -150 23q-45 0 -89.5 -14q-44.5 -14 -80 -46.5q-35.5 -32.5 -57.5 -85q-22 -52.5 -22 -129.5q0 -71 18.5 -123q18.5 -52 51.5 -86q33 -34 78 -50q45 -16 98 -16q33 0 63.5 6.5q30.5 6.5 53.5 18.5l0 177l-179 18zM317 -102q0 22 17.5 36q17.5 14 40.5 14q29 0 50.5 -19q21.5 -19 21.5 -59q0 -27 -10 -48q-10 -21 -24 -36q-14 -15 -29.5 -24q-15.5 -9 -27.5 -13l-29 40q19 8 32.5 23.5q13.5 15.5 13.5 38.5q-23 -5 -39.5 9t-16.5 38z" />
<glyph unicode="&#291;" horiz-adv-x="627" d="M537 -3q0 -103 -60.5 -153.5q-60.5 -50.5 -177.5 -50.5q-68 0 -110 8q-42 8 -72 22l22 83q13 -6 30 -12.5q17 -6.5 36 -11.5q19 -5 38.5 -8q19.5 -3 37.5 -3q49 0 81 8.5q32 8.5 51 26.5q19 18 26 46q7 28 7 67v37h-11q-16 -26 -56 -42q-40 -16 -97 -16q-114 0 -168 61.5q-54 61.5 -54 198.5q0 135 70 208q70 73 208 73q66 0 113.5 -8q47.5 -8 85.5 -21zM302 76q61 0 95.5 31q34.5 31 47.5 81l0 258q-23 7 -53 11q-30 4 -68 4q-78 0 -122 -49.5q-44 -49.5 -44 -151.5q0 -88 32.5 -136q32.5 -48 111.5 -48zt0 0zM389 648q0 -22 -17.5 -36q-17.5 -14 -40.5 -14q-29 0 -50.5 19q-21.5 19 -21.5 59q0 27 10 48q10 21 24 36q14 15 29.5 24q15.5 9 27.5 13l29 -40q-19 -8 -32.5 -23.5q-13.5 -15.5 -13.5 -38.5q23 5 39.5 -9t16.5 -38z" />
<glyph unicode="&#292;" horiz-adv-x="733" d="M544 313h-355v-313h-100v700h100v-299h355v299h100v-700h-100zM331 870h73l139 -100v-25h-92l-65 47l-20 35l-21 -34l-70 -48h-90l0 26z" />
<glyph unicode="&#293;" horiz-adv-x="641" d="M461 0v290q0 43 -5.5 74.5q-5.5 31.5 -20 52.5q-14.5 21 -39 31q-24.5 10 -61.5 10q-26 0 -51 -9q-25 -9 -46 -25q-21 -16 -36 -38.5q-15 -22.5 -22 -50.5l0 -335h-92v700h92v-240h11q30 36 72 58q42 22 104 22q48 0 83 -10.5q35 -10.5 58 -37q23 -26.5 34 -71q11 -44.5 11 -111.5v-310zM112 870h73l139 -100v-25h-92l-65 47l-20 35l-21 -34l-70 -48h-90l0 26z" />
<glyph unicode="&#294;" horiz-adv-x="741" d="M7 590h87v110h100v-110h355v110h100v-110h85v-70h-85v-520h-100v313h-355v-313h-100v520h-87zM549 401v119h-355l0 -119z" />
<glyph unicode="&#295;" horiz-adv-x="647" d="M0 634h94v66h92v-66h171v-66h-171v-108h11q30 36 72 58q42 22 104 22q48 0 83 -10.5q35 -10.5 58 -37q23 -26.5 34 -71q11 -44.5 11 -111.5v-310h-92v290q0 43 -5.5 74.5q-5.5 31.5 -20 52.5q-14.5 21 -39 31q-24.5 10 -61.5 10q-26 0 -51 -9q-25 -9 -46 -25q-21 -16 -36 -38.5q-15 -22.5 -22 -50.5l0 -335h-92v568l-94 0z" />
<glyph unicode="&#298;" horiz-adv-x="398" d="M149 634h-80v66h260v-66h-80v-568h80v-66h-260v66h80zM24 836h350v-68l-350 0z" />
<glyph unicode="&#299;" horiz-adv-x="317" d="M114 525h92v-525h-92zM-6 666h328v-69l-328 0z" />
<glyph unicode="&#302;" horiz-adv-x="398" d="M149 634h-80v66h260v-66h-80v-568h80v-66h-76q-32 -17 -50.5 -40q-18.5 -23 -17.5 -52q1 -23 16 -39q15 -16 44 -16q10 0 22 2.5q12 2.5 25 7.5l12 -46q-17 -12 -47 -18.5q-30 -6.5 -57 -6.5q-51 0 -80.5 24.5q-29.5 24.5 -29.5 67.5q0 39 29.5 69q29.5 30 79.5 47l-130 0v66l80 0z" />
<glyph unicode="&#303;" horiz-adv-x="310" d="M113 525h92v-525h-12q-35 -19 -44.5 -40.5q-9.5 -21.5 -8.5 -50.5q1 -23 16.5 -40.5q15.5 -17.5 45.5 -17.5q20 0 44 9l11 -42q-17 -11 -45.5 -18q-28.5 -7 -54.5 -7q-51 0 -81.5 25q-30.5 25 -30.5 67q0 44 28 70q28 26 83 45l-43 0zM93 645q0 23 18 41.5q18 18.5 47 18.5q29 0 48 -18.5q19 -18.5 19 -41.5q0 -23 -19 -40.5q-19 -17.5 -48 -17.5q-29 0 -47 17.5t-18 40.5z" />
<glyph unicode="&#304;" horiz-adv-x="398" d="M149 634h-80v66h260v-66h-80v-568h80v-66h-260v66h80zM127 798q0 22 19 38q19 16 53 16q34 0 53.5 -16q19.5 -16 19.5 -38q0 -24 -19.5 -39.5q-19.5 -15.5 -53.5 -15.5q-34 0 -53 15.5t-19 39.5z" />
<glyph unicode="&#305;" horiz-adv-x="317" d="M114 525h92v-525l-92 0z" />
<glyph unicode="&#308;" horiz-adv-x="325" d="M125 700h100v-540q0 -78 -40.5 -124q-40.5 -46 -119.5 -46q-10 0 -23.5 1q-13.5 1 -27.5 3.5q-14 2.5 -27 5.5q-13 3 -22 7l19 83q28 -12 67 -12q45 0 59.5 29q14.5 29 14.5 80zM139 870h73l139 -100v-25h-92l-65 47l-20 35l-21 -34l-70 -48h-90l0 26z" />
<glyph unicode="&#309;" horiz-adv-x="312" d="M112 525h92v-543q0 -97 -36.5 -144.5q-36.5 -47.5 -117.5 -47.5q-8 0 -17.5 0q-9.5 0 -20.5 2l0 76q33 -1 52.5 8q19.5 9 30 27.5q10.5 18.5 14 46q3.5 27.5 3.5 65.5zM143 773h41q31 -48 63 -94q32 -46 62 -93l-80 0l-45 69l-26 71l-31 -71l-48 -69l-76 0z" />
<glyph unicode="&#310;" horiz-adv-x="669" d="M238 318h-49v-318h-100v700h100v-322l46 14l252 308h114l-252 -300l-47 -34l55 -40l278 -326h-126zM250 -102q0 22 17.5 36q17.5 14 40.5 14q29 0 50.5 -19q21.5 -19 21.5 -59q0 -27 -10 -48q-10 -21 -24 -36q-14 -15 -29.5 -24q-15.5 -9 -27.5 -13l-29 40q19 8 32.5 23.5q13.5 15.5 13.5 38.5q-23 -5 -39.5 9t-16.5 38z" />
<glyph unicode="&#311;" horiz-adv-x="557" d="M237 236h-57v-236h-92v700h92v-414l52 17l174 222h108l-167 -203h1l-55 -40l63 -45l185 -237h-116zM206 -102q0 22 17.5 36q17.5 14 40.5 14q29 0 50.5 -19q21.5 -19 21.5 -59q0 -27 -10 -48q-10 -21 -24 -36q-14 -15 -29.5 -24q-15.5 -9 -27.5 -13l-29 40q19 8 32.5 23.5q13.5 15.5 13.5 38.5q-23 -5 -39.5 9t-16.5 38z" />
<glyph unicode="&#313;" horiz-adv-x="566" d="M547 0h-458v700h100v-612h358zM254 870h132v-23l-178 -95l-81 0z" />
<glyph unicode="&#314;" horiz-adv-x="336" d="M192 139q0 -41 15.5 -58q15.5 -17 41.5 -17q16 0 31 2q15 2 36 8l12 -68q-10 -4 -24 -7.5q-14 -3.5 -29 -6.5q-15 -3 -30 -4.5q-15 -1.5 -27 -1.5q-54 0 -86 27.5q-32 27.5 -32 91.5v595h92zM224 870h132v-23l-178 -95l-81 0z" />
<glyph unicode="&#315;" horiz-adv-x="566" d="M547 0h-458v700h100v-612h358zM207 -102q0 22 17.5 36q17.5 14 40.5 14q29 0 50.5 -19q21.5 -19 21.5 -59q0 -27 -10 -48q-10 -21 -24 -36q-14 -15 -29.5 -24q-15.5 -9 -27.5 -13l-29 40q19 8 32.5 23.5q13.5 15.5 13.5 38.5q-23 -5 -39.5 9t-16.5 38z" />
<glyph unicode="&#316;" horiz-adv-x="336" d="M192 139q0 -41 15.5 -58q15.5 -17 41.5 -17q16 0 31 2q15 2 36 8l12 -68q-10 -4 -24 -7.5q-14 -3.5 -29 -6.5q-15 -3 -30 -4.5q-15 -1.5 -27 -1.5q-54 0 -86 27.5q-32 27.5 -32 91.5v595h92zM133 -102q0 22 17.5 36q17.5 14 40.5 14q29 0 50.5 -19q21.5 -19 21.5 -59q0 -27 -10 -48q-10 -21 -24 -36q-14 -15 -29.5 -24q-15.5 -9 -27.5 -13l-29 40q19 8 32.5 23.5q13.5 15.5 13.5 38.5q-23 -5 -39.5 9t-16.5 38z" />
<glyph unicode="&#317;" horiz-adv-x="566" d="M547 0h-458v700h100v-612h358zM473 700q-2 -29 -12.5 -59.5q-10.5 -30.5 -24.5 -57.5q-14 -27 -28.5 -48q-14.5 -21 -24.5 -30l-40 23q19 36 28.5 81q9.5 45 9.5 91z" />
<glyph unicode="&#318;" horiz-adv-x="336" d="M192 139q0 -41 15.5 -58q15.5 -17 41.5 -17q16 0 31 2q15 2 36 8l12 -68q-10 -4 -24 -7.5q-14 -3.5 -29 -6.5q-15 -3 -30 -4.5q-15 -1.5 -27 -1.5q-54 0 -86 27.5q-32 27.5 -32 91.5v595h92zM358 700q-2 -29 -12.5 -59.5q-10.5 -30.5 -24.5 -57.5q-14 -27 -28.5 -48q-14.5 -21 -24.5 -30l-40 23q19 36 28.5 81q9.5 45 9.5 91z" />
<glyph unicode="&#321;" horiz-adv-x="570" d="M15 293l78 55v352h100v-282l114 80v-89l-114 -79v-242h358v-88h-458v261l-78 -53z" />
<glyph unicode="&#322;" horiz-adv-x="336" d="M7 289l93 65v346h92v-281l107 75v-89l-107 -74v-192q0 -41 15.5 -58q15.5 -17 41.5 -17q16 0 31 2q15 2 36 8l12 -68q-10 -4 -24 -7.5q-14 -3.5 -29 -6.5q-15 -3 -30 -4.5q-15 -1.5 -27 -1.5q-54 0 -86 27.5q-32 27.5 -32 91.5v163l-93 -64z" />
<glyph unicode="&#323;" horiz-adv-x="735" d="M235 445l-60 98h-4l12 -98v-445h-94v710h56l357 -454l57 -93h5l-12 93v444h94v-710h-56zM435 870h132v-23l-178 -95l-81 0z" />
<glyph unicode="&#324;" horiz-adv-x="641" d="M461 0v290q0 84 -27 126q-27 42 -96 42q-61 0 -101.5 -31.5q-40.5 -31.5 -56.5 -80.5l0 -346h-92v525h64l18 -70h9q29 36 75.5 60.5q46.5 24.5 111.5 24.5q46 0 81 -10.5q35 -10.5 58.5 -37q23.5 -26.5 35.5 -71q12 -44.5 12 -112.5v-309zM332 720h104v-23l-112 -127l-56 0z" />
<glyph unicode="&#325;" horiz-adv-x="735" d="M235 445l-60 98h-4l12 -98v-445h-94v710h56l357 -454l57 -93h5l-12 93v444h94v-710h-56zM299 -102q0 22 17.5 36q17.5 14 40.5 14q29 0 50.5 -19q21.5 -19 21.5 -59q0 -27 -10 -48q-10 -21 -24 -36q-14 -15 -29.5 -24q-15.5 -9 -27.5 -13l-29 40q19 8 32.5 23.5q13.5 15.5 13.5 38.5q-23 -5 -39.5 9t-16.5 38z" />
<glyph unicode="&#326;" horiz-adv-x="641" d="M461 0v290q0 84 -27 126q-27 42 -96 42q-61 0 -101.5 -31.5q-40.5 -31.5 -56.5 -80.5l0 -346h-92v525h64l18 -70h9q29 36 75.5 60.5q46.5 24.5 111.5 24.5q46 0 81 -10.5q35 -10.5 58.5 -37q23.5 -26.5 35.5 -71q12 -44.5 12 -112.5v-309zM241 -102q0 22 17.5 36q17.5 14 40.5 14q29 0 50.5 -19q21.5 -19 21.5 -59q0 -27 -10 -48q-10 -21 -24 -36q-14 -15 -29.5 -24q-15.5 -9 -27.5 -13l-29 40q19 8 32.5 23.5q13.5 15.5 13.5 38.5q-23 -5 -39.5 9t-16.5 38z" />
<glyph unicode="&#327;" horiz-adv-x="735" d="M235 445l-60 98h-4l12 -98v-445h-94v710h56l357 -454l57 -93h5l-12 93v444h94v-710h-56zM400 744h-69l-139 101v25h93l64 -49l19 -33l21 32l68 50h89l0 -26z" />
<glyph unicode="&#328;" horiz-adv-x="641" d="M461 0v290q0 84 -27 126q-27 42 -96 42q-61 0 -101.5 -31.5q-40.5 -31.5 -56.5 -80.5l0 -346h-92v525h64l18 -70h9q29 36 75.5 60.5q46.5 24.5 111.5 24.5q46 0 81 -10.5q35 -10.5 58.5 -37q23.5 -26.5 35.5 -71q12 -44.5 12 -112.5v-309zM336 586h-49l-129 187h87l44 -68l28 -71l29 70l49 69l78 0z" />
<glyph unicode="&#332;" horiz-adv-x="747" d="M58 350q0 86 21.5 153.5q21.5 67.5 62 114q40.5 46.5 99 71q58.5 24.5 132.5 24.5q79 0 138.5 -26.5q59.5 -26.5 99 -74q39.5 -47.5 59 -114.5q19.5 -67 19.5 -148q0 -86 -21.5 -153.5q-21.5 -67.5 -62.5 -114q-41 -46.5 -99.5 -71q-58.5 -24.5 -132.5 -24.5q-80 0 -139 26.5q-59 26.5 -98 74q-39 47.5 -58.5 114.5q-19.5 67 -19.5 148zt0 0zM164 350q0 -57 12.5 -107q12.5 -50 38 -88q25.5 -38 65 -60q39.5 -22 93.5 -22q97 0 153.5 67q56.5 67 56.5 210q0 56 -12.5 106q-12.5 50 -38 88q-25.5 38 -65 60.5q-39.5 22.5 -94.5 22.5q-96 0 -152.5 -68q-56.5 -68 -56.5 -209zt0 0zM205 836h350v-68l-350 0z" />
<glyph unicode="&#333;" horiz-adv-x="631" d="M60 262q0 65 17 116.5q17 51.5 50 87.5q33 36 80.5 55q47.5 19 108.5 19q64 0 112 -21q48 -21 80 -58.5q32 -37.5 47.5 -88q15.5 -50.5 15.5 -110.5q0 -64 -17.5 -115q-17.5 -51 -50 -87q-32.5 -36 -80 -55q-47.5 -19 -107.5 -19q-66 0 -114 21q-48 21 -79.5 58q-31.5 37 -47 87.5q-15.5 50.5 -15.5 109.5zt0 0zM158 262q0 -37 8.5 -72.5q8.5 -35.5 27.5 -63.5q19 -28 49 -45q30 -17 74 -17q156 0 156 198q0 39 -8.5 75q-8.5 36 -27 63.5q-18.5 27.5 -48.5 44.5q-30 17 -72 17q-78 0 -118.5 -49.5q-40.5 -49.5 -40.5 -150.5zt0 0zM146 666h328v-69l-328 0z" />
<glyph unicode="&#336;" horiz-adv-x="747" d="M58 350q0 86 21.5 153.5q21.5 67.5 62 114q40.5 46.5 99 71q58.5 24.5 132.5 24.5q79 0 138.5 -26.5q59.5 -26.5 99 -74q39.5 -47.5 59 -114.5q19.5 -67 19.5 -148q0 -86 -21.5 -153.5q-21.5 -67.5 -62.5 -114q-41 -46.5 -99.5 -71q-58.5 -24.5 -132.5 -24.5q-80 0 -139 26.5q-59 26.5 -98 74q-39 47.5 -58.5 114.5q-19.5 67 -19.5 148zt0 0zM164 350q0 -57 12.5 -107q12.5 -50 38 -88q25.5 -38 65 -60q39.5 -22 93.5 -22q97 0 153.5 67q56.5 67 56.5 210q0 56 -12.5 106q-12.5 50 -38 88q-25.5 38 -65 60.5q-39.5 22.5 -94.5 22.5q-96 0 -152.5 -68q-56.5 -68 -56.5 -209zt0 0zM326 850h108v-16l-109 -93h-68zM509 850h115v-16l-157 -93l-69 0z" />
</font>
</defs>
</svg>
