<?xml version="1.0" standalone="no"?>
<!DOCTYPE svg PUBLIC "-//W3C//DTD SVG 1.1//EN" "http://www.w3.org/Graphics/SVG/1.1/DTD/svg11.dtd" >
<svg xmlns="http://www.w3.org/2000/svg">
<metadata>
Generated by SVGconv.
Copyright   : Copyright  2010 ParaType Ltd. All rights reserved.
Designer    : A.Korolkova, O.Umpeleva, V.Yefimov
Foundry     : ParaType Ltd
Foundry URL : http://www.paratype.com
</metadata>
<defs>
<font id="PTSerif-Regular" horiz-adv-x="564" >
<font-face units-per-em="1000" ascent="1039" descent="286" />
<missing-glyph horiz-adv-x="709" />
<glyph unicode="&#32;" horiz-adv-x="243" />
<glyph unicode="&#33;" horiz-adv-x="327" d="M174 218l-32 176v296q22 11 45 11q23 0 45 -11l0 -296l-32 -176zM119 57q0 30 19 48q19 18 49 18q31 0 50 -18q19 -18 19 -48q0 -29 -19 -47q-19 -18 -50 -18q-30 0 -49 18t-19 47z" />
<glyph unicode="&#34;" horiz-adv-x="380" d="M207 670q5 13 15.5 21.5q10.5 8.5 27.5 8.5q31 0 42 -30l-32 -166h-20zM87 670q5 13 15.5 21.5q10.5 8.5 27.5 8.5q31 0 42 -30l-32 -166l-20 0z" />
<glyph unicode="&#35;" horiz-adv-x="533" d="M308 233h-142l-42 -175h-53l42 175h-80l14 46h76l36 150h-76l14 46h73l40 167h52l-39 -167h142l40 167h52l-40 -167h80l-17 -46h-74l-36 -150h77l-17 -46h-70l-42 -175h-52zM176 279h142l36 150l-142 0z" />
<glyph unicode="&#36;" horiz-adv-x="533" d="M239 -12q-30 0 -58 4.5q-28 4.5 -51.5 12q-23.5 7.5 -42 16.5q-18.5 9 -28.5 18q1 10 2 26.5q1 16.5 3 33.5q2 17 4.5 33q2.5 16 6.5 25l25 0l60 -97q13 -8 34 -13.5q21 -5.5 45 -6.5l0 285q-4 0 -6 2l-32 15q-29 13 -56 29q-27 16 -47.5 38.5q-20.5 22.5 -33 52.5q-12.5 30 -12.5 71q0 36 14 67q14 31 38.5 55q24.5 24 59 38.5q34.5 14.5 75.5 17.5l0 49h52v-49q48 -3 83.5 -13q35.5 -10 61.5 -22q-1 -32 -8.5 -53q-7.5 -21 -15.5 -37l-26 0l-50 68q-11 2 -21 3q-10 1 -24 2l0 -267l29 -13q31 -15 60.5 -31.5q29.5 -16.5 52.5 -39q23 -22.5 37 -54.5q14 -32 14 -79q0 -73 -51 -123q-51 -50 -142 -61l0 -61h-52zM394 168q0 52 -30 82.5q-30 30.5 -73 50.5l0 -256q45 12 74 43.5q29 31.5 29 79.5zt0 0zM142 551q0 -27 7.5 -47.5q7.5 -20.5 20.5 -36.5q13 -16 30.5 -28.5q17.5 -12.5 38.5 -23.5l0 244q-45 -5 -71 -35.5t-26 -72.5z" />
<glyph unicode="&#37;" horiz-adv-x="807" d="M675 710l35 -31l-585 -686l-34 32zM52 542q0 39 13 70q13 31 36.5 53.5q23.5 22.5 55 34.5q31.5 12 69.5 12q38 0 70 -10.5q32 -10.5 55 -31.5q23 -21 36 -53q13 -32 13 -75q0 -39 -13 -70.5q-13 -31.5 -36 -53.5q-23 -22 -55 -34q-32 -12 -70 -12q-38 0 -69.5 10.5q-31.5 10.5 -55 31.5q-23.5 21 -36.5 53q-13 32 -13 75zt0 0zM136 542q0 -60 23 -96.5q23 -36.5 67 -36.5q90 0 90 133q0 132 -90 132q-90 0 -90 -132zt0 0zM405 158q0 39 13 70q13 31 36.5 53.5q23.5 22.5 55 34.5q31.5 12 69.5 12q38 0 70 -10.5q32 -10.5 55 -31.5q23 -21 36 -53q13 -32 13 -75q0 -39 -13 -70.5q-13 -31.5 -36 -53.5q-23 -22 -55 -34q-32 -12 -70 -12q-38 0 -69.5 10.5q-31.5 10.5 -55 31.5q-23.5 21 -36.5 53q-13 32 -13 75zt0 0zM489 158q0 -60 23 -96.5q23 -36.5 67 -36.5q90 0 90 133q0 132 -90 132q-90 0 -90 -132z" />
<glyph unicode="&#38;" horiz-adv-x="869" d="M540 123q-30 27 -65.5 63.5q-35.5 36.5 -68.5 74.5q-33 38 -61 73q-28 35 -44 58q-43 -42 -62 -81.5q-19 -39.5 -19 -92.5q0 -38 12.5 -70.5q12.5 -32.5 34.5 -56.5q22 -24 53 -37.5q31 -13.5 67 -13.5q45 0 84 20.5q39 20.5 69 62.5zt0 0zM282 583q0 -18 7 -38.5q7 -20.5 18.5 -40.5q11.5 -20 25 -39q13.5 -19 26.5 -34q36 30 58.5 69.5q22.5 39.5 17.5 93.5q-2 32 -20 54q-18 22 -57 22q-22 0 -36.5 -7.5q-14.5 -7.5 -23.5 -20q-9 -12.5 -12.5 -28q-3.5 -15.5 -3.5 -31.5zt0 0zM697 0q-21 14 -53 34.5q-32 20.5 -70 57.5q-14 -19 -35 -37.5q-21 -18.5 -49.5 -33.5q-28.5 -15 -63.5 -24q-35 -9 -76 -9q-53 0 -96 16q-43 16 -73 43q-30 27 -46.5 62q-16.5 35 -16.5 73q0 49 18 88.5q18 39.5 43 69q25 29.5 52 50q27 20.5 45 33.5q-29 32 -49 75q-20 43 -20 80q0 25 10 49.5q10 24.5 29.5 43q19.5 18.5 48 30q28.5 11.5 64.5 11.5q66 0 106.5 -28.5q40.5 -28.5 40.5 -82.5q0 -33 -11.5 -61.5q-11.5 -28.5 -29.5 -52.5q-18 -24 -40.5 -44q-22.5 -20 -44.5 -37q41 -51 95 -105q54 -54 114 -108q8 11 20 37q12 26 22.5 61q10.5 35 17 76.5q6.5 41.5 3.5 82.5q-30 6 -59 24l0 26h203v-26q-27 -17 -66 -24q-9 -59 -23 -107q-14 -48 -29 -84.5q-15 -36.5 -28.5 -62q-13.5 -25.5 -21.5 -37.5q38 -31 74.5 -57.5q36.5 -26.5 81.5 -52.5l55 -24l0 -25z" />
<glyph unicode="&#39;" horiz-adv-x="222" d="M87 670q5 13 15.5 21.5q10.5 8.5 27.5 8.5q31 0 42 -30l-32 -166l-20 0z" />
<glyph unicode="&#40;" horiz-adv-x="343" d="M300 -210q-51 37 -95 81q-44 44 -76.5 99q-32.5 55 -51 122q-18.5 67 -18.5 151q0 82 19 148q19 66 52 121q33 55 77.5 101.5q44.5 46.5 95.5 88.5l21 -18q-40 -43 -73 -88q-33 -45 -56.5 -98q-23.5 -53 -36.5 -115.5q-13 -62.5 -13 -139.5q0 -75 14 -138.5q14 -63.5 38.5 -117q24.5 -53.5 57 -97.5q32.5 -44 69.5 -80z" />
<glyph unicode="&#41;" horiz-adv-x="343" d="M19 -190q37 36 69.5 81.5q32.5 45.5 56.5 101q24 55.5 38 120.5q14 65 14 140q0 77 -13 138q-13 61 -36 112q-23 51 -56 95q-33 44 -73 86l21 18q51 -39 95.5 -83q44.5 -44 77.5 -98q33 -54 52 -120q19 -66 19 -148q0 -83 -18 -151.5q-18 -68.5 -50 -125q-32 -56.5 -76.5 -103q-44.5 -46.5 -96.5 -83.5z" />
<glyph unicode="&#42;" horiz-adv-x="465" d="M62 616q-3 7 -1 17.5q2 10.5 8 21q6 10.5 14.5 18.5q8.5 8 17.5 10l100 -87q0 -8 -3 -15q-3 -7 -11 -11zM100 444q-8 1 -16 8.5q-8 7.5 -14 18q-6 10.5 -9 21.5q-3 11 0 19l125 43q15 -8 15 -24zM271 389q-5 -6 -15.5 -9q-10.5 -3 -22.5 -3q-12 0 -22.5 3q-10.5 3 -15.5 8l23 130q16 8 32 0zM402 511q4 -7 1.5 -18q-2.5 -11 -8.5 -21.5q-6 -10.5 -14 -18.5q-8 -8 -17 -9l-98 84q0 9 3.5 14.5q3.5 5.5 9.5 10.5zM366 683q8 -1 16 -8.5q8 -7.5 13.5 -18q5.5 -10.5 8 -21.5q2.5 -11 -0.5 -20l-124 -47q-14 10 -14 26zM194 737q4 6 14.5 9.5q10.5 3.5 22.5 3.5q12 0 23 -3.5q11 -3.5 16 -9.5l-22 -130q-15 -10 -31 0z" />
<glyph unicode="&#43;" horiz-adv-x="533" d="M42 370h198v210h53v-210h198v-53h-198v-215h-53v215l-198 0z" />
<glyph unicode="&#44;" horiz-adv-x="283" d="M51 -149q19 7 36 21.5q17 14.5 29.5 32.5q12.5 18 19 39.5q6.5 21.5 4.5 42.5q-12 11 -32 22q-20 11 -35 16q-5 19 -0.5 37q4.5 18 13.5 32q9 14 20.5 22.5q11.5 8.5 22.5 9.5q35 -5 61.5 -31q26.5 -26 26.5 -78q0 -28 -10 -58.5q-10 -30.5 -29 -57.5q-19 -27 -46 -48.5q-27 -21.5 -61 -31.5z" />
<glyph unicode="&#45;" horiz-adv-x="425" d="M71 313h282v-63l-282 0z" />
<glyph unicode="&#46;" horiz-adv-x="279" d="M71 57q0 30 19 48q19 18 49 18q31 0 50 -18q19 -18 19 -48q0 -29 -19 -47q-19 -18 -50 -18q-30 0 -49 18t-19 47z" />
<glyph unicode="&#47;" horiz-adv-x="344" d="M327 712l42 -18l-365 -824l-41 19z" />
<glyph unicode="&#48;" horiz-adv-x="533" d="M35 350q0 180 60 271q60 91 172 91q121 0 177 -89.5q56 -89.5 56 -272.5q0 -180 -60.5 -271q-60.5 -91 -178.5 -91q-61 0 -104 24.5q-43 24.5 -70 71q-27 46.5 -39.5 113.5q-12.5 67 -12.5 153zt0 0zM131 350q0 -72 7 -131q7 -59 22.5 -101.5q15.5 -42.5 40 -65.5q24.5 -23 59.5 -23q79 0 111.5 78q32.5 78 32.5 243q0 72 -6 131q-6 59 -22 101q-16 42 -42.5 65q-26.5 23 -66.5 23q-75 0 -105.5 -77.5t-30.5 -242.5z" />
<glyph unicode="&#49;" horiz-adv-x="533" d="M425 0h-292v29q25 11 50.5 19.5q25.5 8.5 51.5 14.5l0 491l4 59q-28 -11 -58 -15.5q-30 -4.5 -62 -3.5l-5 24q46 15 95 37.5q49 22.5 91 56.5l25 0v-649q25 -6 50 -14.5q25 -8.5 50 -19.5z" />
<glyph unicode="&#50;" horiz-adv-x="533" d="M133 505h-25q-11 29 -22.5 68q-11.5 39 -19.5 74q35 30 84 47.5q49 17.5 106 17.5q50 0 86 -14q36 -14 59.5 -38q23.5 -24 34.5 -55.5q11 -31.5 11 -65.5q0 -56 -26 -115q-26 -59 -64.5 -114.5q-38.5 -55.5 -83.5 -104.5q-45 -49 -83 -86l-42 -39v-4l56 6h172l49 112h25q2 -22 4 -48q2 -26 3.5 -52.5q1.5 -26.5 2.5 -51q1 -24.5 1 -42.5l-413 0v32q22 23 53.5 56q31.5 33 65.5 73q34 40 67.5 85q33.5 45 59.5 91.5q26 46.5 42.5 92.5q16.5 46 16.5 88q0 29 -7.5 55q-7.5 26 -22.5 45.5q-15 19.5 -36.5 30.5q-21.5 11 -49.5 11q-21 0 -37 -3q-16 -3 -35 -9z" />
<glyph unicode="&#51;" horiz-adv-x="533" d="M256 35q28 0 52 12.5q24 12.5 42 34q18 21.5 28.5 49.5q10.5 28 10.5 59q0 37 -11.5 65q-11.5 28 -31.5 46.5q-20 18.5 -46.5 28q-26.5 9.5 -57.5 9.5h-65v27l168 225l34 35v4l-54 -6h-169l-39 -102h-25q-4 21 -7.5 45q-3.5 24 -6.5 47.5q-3 23.5 -5 45.5q-2 22 -2 40l391 0v-31l-167 -223l-43 -44v-2l34 7q47 -2 84 -18q37 -16 62.5 -42.5q25.5 -26.5 39 -62q13.5 -35.5 13.5 -77.5q0 -50 -20 -90.5q-20 -40.5 -53.5 -69q-33.5 -28.5 -77 -44q-43.5 -15.5 -91.5 -15.5q-23 0 -49 3.5q-26 3.5 -51 10.5q-25 7 -46.5 16q-21.5 9 -36.5 21l28 90h20q6 -7 16.5 -18q10.5 -11 22 -23q11.5 -12 22.5 -24q11 -12 19 -21q10 -2 26 -5t42 -3z" />
<glyph unicode="&#52;" horiz-adv-x="533" d="M477 0h-260v29q49 17 92 24l0 140h-305v23l370 496h27v-467h127v-52h-127v-140q39 -8 76 -24zM309 502l11 72h-3l-39 -72l-168 -231l-40 -33l71 7l168 0z" />
<glyph unicode="&#53;" horiz-adv-x="533" d="M431 755h25q-1 -15 -2.5 -33.5q-1.5 -18.5 -4.5 -37q-3 -18.5 -6 -35.5q-3 -17 -7 -28l-246 0l-24 -193h65q50 0 91.5 -13.5q41.5 -13.5 71 -40q29.5 -26.5 46 -64.5q16.5 -38 16.5 -87q0 -58 -20 -102q-20 -44 -53 -73.5q-33 -29.5 -75 -44.5q-42 -15 -87 -15q-20 0 -43 3.5q-23 3.5 -45.5 10.5q-22.5 7 -42.5 16.5q-20 9.5 -34 20.5l29 90h20q6 -7 15 -18q9 -11 18.5 -23q9.5 -12 19 -24q9.5 -12 17.5 -21q10 -2 18.5 -5q8.5 -3 26.5 -3q33 0 60.5 13q27.5 13 47.5 35.5q20 22.5 31 52.5q11 30 11 65q0 40 -15 69.5q-15 29.5 -41 48q-26 18.5 -60.5 27.5q-34.5 9 -72.5 8l-71 -1l40 347l238 0z" />
<glyph unicode="&#54;" horiz-adv-x="533" d="M502 211q0 -46 -16 -86.5q-16 -40.5 -45 -71q-29 -30.5 -70 -48q-41 -17.5 -91 -17.5q-56 0 -99 19.5q-43 19.5 -72.5 54.5q-29.5 35 -44.5 83q-15 48 -15 105q0 94 31 172.5q31 78.5 82.5 139q51.5 60.5 118 100.5q66.5 40 138.5 56l11 -30q-53 -19 -100.5 -51.5q-47.5 -32.5 -85 -76.5q-37.5 -44 -62.5 -98.5q-25 -54.5 -31 -117.5q16 27 57 49.5q41 22.5 95 22.5q43 0 80 -14q37 -14 63 -40q26 -26 41 -64q15 -38 15 -87zt0 0zM406 203q0 71 -34.5 116q-34.5 45 -96.5 45q-47 0 -80.5 -23.5q-33.5 -23.5 -47.5 -52.5q-2 -14 -2 -33q0 -19 0 -30q0 -32 8.5 -65.5q8.5 -33.5 26 -61.5q17.5 -28 44 -46q26.5 -18 61.5 -18q32 0 55 14.5q23 14.5 37.5 38.5q14.5 24 21.5 54.5t7 61.5z" />
<glyph unicode="&#55;" horiz-adv-x="533" d="M111 521h-25q-4 21 -8 45q-4 24 -7 48q-3 24 -4.5 46q-1.5 22 -1.5 40l414 0v-29q-50 -89 -83 -164q-33 -75 -56.5 -151.5q-23.5 -76.5 -40.5 -162q-17 -85.5 -34 -193.5l-100 0q37 146 92 290q55 144 127 290l30 48l-52 -5l-212 0z" />
<glyph unicode="&#56;" horiz-adv-x="533" d="M49 157q0 34 12 64.5q12 30.5 33.5 55q21.5 24.5 51 43.5q29.5 19 64.5 31q-28 15 -52.5 33q-24.5 18 -42.5 41q-18 23 -28.5 50.5q-10.5 27.5 -10.5 61.5q0 39 14 71q14 32 39.5 55q25.5 23 62 36q36.5 13 81.5 13q88 0 137 -44.5q49 -44.5 49 -114.5q0 -58 -38 -101.5q-38 -43.5 -99 -71.5q35 -18 65 -40q30 -22 51.5 -48q21.5 -26 34 -56.5q12.5 -30.5 12.5 -65.5q0 -37 -14.5 -70q-14.5 -33 -43 -58q-28.5 -25 -70 -39.5q-41.5 -14.5 -95.5 -14.5q-55 0 -95 14q-40 14 -66.5 37.5q-26.5 23.5 -39 54q-12.5 30.5 -12.5 63.5zt0 0zM397 153q0 34 -13.5 61.5q-13.5 27.5 -36 49q-22.5 21.5 -52 39.5q-29.5 18 -60.5 33q-29 -17 -48 -38q-19 -21 -30.5 -43.5q-11.5 -22.5 -16.5 -44.5q-5 -22 -5 -41q0 -24 7.5 -48.5q7.5 -24.5 23.5 -43.5q16 -19 41.5 -31q25.5 -12 62.5 -12q31 0 55 10.5q24 10.5 40 27.5q16 17 24 38.5q8 21.5 8 42.5zt0 0zM162 550q0 -31 11.5 -54q11.5 -23 30.5 -41.5q19 -18.5 43.5 -33.5q24.5 -15 50.5 -28q42 34 59 68q17 34 17 75q0 62 -27.5 95.5q-27.5 33.5 -75.5 33.5q-27 0 -47 -10q-20 -10 -34 -26q-14 -16 -21 -36.5t-7 -42.5z" />
<glyph unicode="&#57;" horiz-adv-x="533" d="M47 487q0 49 14.5 90q14.5 41 43 71q28.5 30 70 47q41.5 17 95.5 17q58 0 100.5 -19.5q42.5 -19.5 70.5 -54.5q28 -35 41 -85.5q13 -50.5 13 -111.5q0 -93 -27 -172q-27 -79 -73.5 -138.5q-46.5 -59.5 -110 -96.5q-63.5 -37 -136.5 -46l-18 29q59 16 104.5 47q45.5 31 78 73.5q32.5 42.5 52.5 94q20 51.5 28 108.5q-23 -24 -54.5 -40.5q-31.5 -16.5 -85.5 -16.5q-45 0 -83 13.5q-38 13.5 -65 39.5q-27 26 -42.5 64q-15.5 38 -15.5 87zt0 0zM143 488q0 -29 9 -56.5q9 -27.5 26 -49q17 -21.5 41 -34.5q24 -13 54 -13q48 0 79.5 16.5q31.5 16.5 46.5 41.5q2 13 2 32.5q0 19.5 0 30.5q0 36 -7.5 73.5q-7.5 37.5 -23.5 67.5q-16 30 -42 49q-26 19 -62 19q-60 0 -91.5 -47.5t-31.5 -129.5z" />
<glyph unicode="&#58;" horiz-adv-x="327" d="M119 442q0 30 19 48q19 18 49 18q31 0 50 -18q19 -18 19 -48q0 -29 -19 -47q-19 -18 -50 -18q-30 0 -49 18q-19 18 -19 47zt0 0zM119 57q0 30 19 48q19 18 49 18q31 0 50 -18q19 -18 19 -48q0 -29 -19 -47q-19 -18 -50 -18q-30 0 -49 18t-19 47z" />
<glyph unicode="&#59;" horiz-adv-x="332" d="M124 442q0 30 19 48q19 18 49 18q31 0 50 -18q19 -18 19 -48q0 -29 -19 -47q-19 -18 -50 -18q-30 0 -49 18q-19 18 -19 47zt0 0zM104 -149q19 7 36 21.5q17 14.5 29.5 32.5q12.5 18 19 39.5q6.5 21.5 4.5 42.5q-12 11 -32 22q-20 11 -35 16q-5 19 -0.5 37q4.5 18 13.5 32q9 14 20.5 22.5q11.5 8.5 22.5 9.5q35 -5 61.5 -31q26.5 -26 26.5 -78q0 -28 -10 -58.5q-10 -30.5 -29 -57.5q-19 -27 -46 -48.5q-27 -21.5 -61 -31.5z" />
<glyph unicode="&#60;" horiz-adv-x="533" d="M44 324v31l385 235l25 -44l-250 -151l-86 -40l85 -31l265 -156l-40 -65z" />
<glyph unicode="&#61;" horiz-adv-x="533" d="M42 450h450v-53h-450zM42 289h450v-53l-450 0z" />
<glyph unicode="&#62;" horiz-adv-x="533" d="M490 369v-31l-385 -235l-24 44l250 151l86 40l-85 31l-265 156l39 65z" />
<glyph unicode="&#63;" horiz-adv-x="473" d="M127 519h-25q-8 27 -18 69.5q-10 42.5 -14 81.5q38 23 81.5 32.5q43.5 9.5 106.5 9.5q45 0 78.5 -12.5q33.5 -12.5 56 -34q22.5 -21.5 34 -51.5q11.5 -30 11.5 -65q0 -45 -16.5 -78.5q-16.5 -33.5 -41 -60.5q-24.5 -27 -53.5 -50.5q-29 -23.5 -54 -49.5q-25 -26 -41.5 -57q-16.5 -31 -16.5 -73l-20 0q-7 29 -7 57q0 36 11.5 63.5q11.5 27.5 28.5 50.5q17 23 37 43.5q20 20.5 37 42q17 21.5 28.5 46q11.5 24.5 11.5 56.5q0 22 -6.5 43.5q-6.5 21.5 -20 39q-13.5 17.5 -34.5 28q-21 10.5 -51 10.5q-32 0 -52 -5q-20 -5 -28 -13zM143 57q0 30 19 48q19 18 49 18q31 0 50 -18q19 -18 19 -48q0 -29 -19 -47q-19 -18 -50 -18q-30 0 -49 18t-19 47z" />
<glyph unicode="&#64;" horiz-adv-x="1064" d="M669 474q37 17 75 16l-51 -286q-6 -33 -8.5 -60q-2.5 -27 0 -46.5q2.5 -19.5 11 -30q8.5 -10.5 25.5 -10.5q33 0 68 18.5q35 18.5 64.5 53.5q29.5 35 48.5 85q19 50 19 112q0 76 -29 138q-29 62 -79.5 105.5q-50.5 43.5 -118 67q-67.5 23.5 -144.5 23.5q-92 0 -165.5 -32.5q-73.5 -32.5 -125.5 -89q-52 -56.5 -80 -133q-28 -76.5 -28 -163.5q0 -89 29 -157.5q29 -68.5 81.5 -116q52.5 -47.5 125 -72q72.5 -24.5 159.5 -24.5q29 0 66 7q37 7 67 21l16 -44q-35 -20 -77 -28q-42 -8 -93 -8q-86 0 -164 26q-78 26 -137.5 78q-59.5 52 -94.5 130q-35 78 -35 182q0 109 36 197q36 88 98.5 150q62.5 62 146.5 95.5q84 33.5 180 33.5q90 0 167.5 -26.5q77.5 -26.5 134.5 -76q57 -49.5 89 -121q32 -71.5 32 -162.5q0 -65 -22.5 -123q-22.5 -58 -61 -102q-38.5 -44 -88.5 -70q-50 -26 -105 -26q-30 0 -51 9.5q-21 9.5 -32 31q-11 21.5 -11.5 55.5q-0.5 34 10.5 82l-4 0q-11 -32 -30.5 -63.5q-19.5 -31.5 -44.5 -57q-25 -25.5 -53.5 -41.5q-28.5 -16 -57.5 -16q-60 0 -92.5 41.5q-32.5 41.5 -32.5 110.5q0 64 21.5 125q21.5 61 58 109q36.5 48 84.5 77q48 29 101 29q36 0 57 -6q21 -6 45 -17zt0 0zM652 426q-16 10 -32.5 15q-16.5 5 -42.5 5q-38 0 -72 -26.5q-34 -26.5 -59 -67.5q-25 -41 -39.5 -89.5q-14.5 -48.5 -14.5 -93.5q0 -48 15 -75q15 -27 57 -27q19 0 41 18.5q22 18.5 43.5 48.5q21.5 30 42 67.5q20.5 37.5 36.5 75.5z" />
<glyph unicode="&#65;" horiz-adv-x="683" d="M222 0h-222v29q36 16 72 24l253 659h29l253 -659q20 -4 39.5 -9q19.5 -5 36.5 -15l0 -29h-256v29q20 8 41 14q21 6 41 10l-68 183h-239l-66 -183q42 -6 86 -24zM222 288h202l-79 212l-19 86h-2l-25 -88z" />
<glyph unicode="&#66;" horiz-adv-x="615" d="M29 0v29q40 19 82 24l0 593q-20 4 -41 10.5q-21 6.5 -41 14.5l0 29h106q19 0 36.5 1q17.5 1 36.5 2q19 1 41 2q22 1 50 1q40 0 81.5 -6.5q41.5 -6.5 75 -24.5q33.5 -18 54.5 -50.5q21 -32.5 21 -84.5q0 -26 -8 -52q-8 -26 -24.5 -48.5q-16.5 -22.5 -41.5 -39.5q-25 -17 -59 -25l0 -4q30 -5 59.5 -17q29.5 -12 52.5 -32.5q23 -20.5 37.5 -50.5q14.5 -30 14.5 -72q0 -54 -24 -93q-24 -39 -62.5 -64q-38.5 -25 -87.5 -36.5q-49 -11.5 -99 -11.5q-35 0 -79 3q-44 3 -85 3zM296 46q36 0 67.5 11q31.5 11 54 30.5q22.5 19.5 35.5 47q13 27.5 13 59.5q0 40 -15.5 66.5q-15.5 26.5 -42 42q-26.5 15.5 -61 21.5q-34.5 6 -71.5 6h-75v-276q14 -4 33.5 -6q19.5 -2 61.5 -2zt0 0zM251 382q17 0 40.5 1.5q23.5 1.5 38.5 3.5q46 16 75.5 51.5q29.5 35.5 29.5 83.5q0 66 -39.5 99q-39.5 33 -105.5 33q-31 0 -53 -1q-22 -1 -36 -3l0 -268z" />
<glyph unicode="&#67;" horiz-adv-x="644" d="M547 182h26q5 -28 9 -70.5q4 -42.5 2 -82.5q-15 -12 -36 -19.5q-21 -7.5 -44.5 -12.5q-23.5 -5 -48 -7q-24.5 -2 -46.5 -2q-84 0 -150 21.5q-66 21.5 -111.5 65.5q-45.5 44 -70 112.5q-24.5 68.5 -24.5 162.5q0 98 27 166.5q27 68.5 73 112q46 43.5 107 63.5q61 20 128 20q66 0 111 -8.5q45 -8.5 79 -25.5q0 -16 -1 -37.5q-1 -21.5 -3 -45.5q-2 -24 -5 -47q-3 -23 -6 -42l-26 0l-52 144q-11 6 -36.5 8q-25.5 2 -50.5 2q-50 0 -94.5 -18.5q-44.5 -18.5 -78 -57q-33.5 -38.5 -53.5 -97q-20 -58.5 -20 -137.5q0 -71 18 -128.5q18 -57.5 52 -98q34 -40.5 83 -62q49 -21.5 111 -21.5q33 0 55 5q22 5 29 13z" />
<glyph unicode="&#68;" horiz-adv-x="708" d="M29 0v29q35 16 82 24l0 593q-23 5 -44 11.5q-21 6.5 -38 13.5l0 29h102q17 0 40 1q23 1 47.5 2.5q24.5 1.5 47 3q22.5 1.5 37.5 1.5q170 0 261.5 -91q91.5 -91 91.5 -258q0 -79 -22.5 -146.5q-22.5 -67.5 -68.5 -116.5q-46 -49 -116.5 -77q-70.5 -28 -166.5 -28q-15 0 -34 1.5q-19 1.5 -40 3q-21 1.5 -42.5 3q-21.5 1.5 -40.5 1.5zM289 656q-26 0 -50 -0.5q-24 -0.5 -38 -3.5l0 -606q5 -1 18 -1.5q13 -0.5 28 -1q15 -0.5 28.5 -0.5q13.5 0 19.5 0q69 0 117 26q48 26 78.5 69.5q30.5 43.5 44.5 100.5q14 57 14 120q0 49 -13.5 101.5q-13.5 52.5 -44 96q-30.5 43.5 -80.5 71.5t-122 28z" />
<glyph unicode="&#69;" horiz-adv-x="582" d="M503 700q-1 -40 -3.5 -80.5q-2.5 -40.5 -7.5 -81.5l-26 0l-41 110h-218v-265h163l39 74h25q6 -99 0 -202l-25 0l-39 76h-163v-279h230l49 120h25q7 -42 10 -85q3 -43 1 -87l-493 0v29q35 16 82 24l0 593q-20 4 -41 10.5q-21 6.5 -41 14.5l0 29z" />
<glyph unicode="&#70;" horiz-adv-x="544" d="M197 53q44 -6 86 -24l0 -29h-254v29q17 8 35 14q18 6 37 10l0 593q-22 5 -40 11.5q-18 6.5 -32 13.5l0 29h469q-1 -39 -3.5 -80q-2.5 -41 -7.5 -82l-26 0l-41 110h-223v-285h173l41 74h23q2 -23 3 -48.5q1 -25.5 1 -51.5q0 -27 -1 -53q-1 -26 -3 -49l-23 0l-41 77l-173 0z" />
<glyph unicode="&#71;" horiz-adv-x="688" d="M609 48q-19 -11 -44.5 -21.5q-25.5 -10.5 -54 -19q-28.5 -8.5 -57 -14q-28.5 -5.5 -53.5 -5.5q-80 0 -144 21.5q-64 21.5 -109 66q-45 44.5 -69.5 112.5q-24.5 68 -24.5 162q0 98 28.5 167q28.5 69 76 112.5q47.5 43.5 108 63q60.5 19.5 123.5 19.5q66 0 111.5 -8.5q45.5 -8.5 79.5 -25.5q0 -15 -1 -37q-1 -22 -3 -46q-2 -24 -5 -47.5q-3 -23.5 -6 -41.5l-26 0l-52 144q-11 6 -37 8q-26 2 -51 2q-50 0 -95 -18.5q-45 -18.5 -78.5 -57q-33.5 -38.5 -53.5 -97q-20 -58.5 -20 -137.5q0 -71 19.5 -128q19.5 -57 54 -97.5q34.5 -40.5 81 -62.5q46.5 -22 100.5 -22q20 0 39 4q19 4 35 9.5q16 5.5 26.5 11.5q10.5 6 14.5 10l0 202q-26 2 -49.5 9q-23.5 7 -46.5 15l0 29h245v-29q-10 -7 -24 -13q-14 -6 -38 -11z" />
<glyph unicode="&#72;" horiz-adv-x="728" d="M282 0h-253v29q40 16 82 24l0 593q-47 7 -82 25l0 29h253v-29q-17 -9 -36 -15q-19 -6 -39 -10l0 -261h314v261q-21 5 -39.5 11q-18.5 6 -35.5 14l0 29h253v-29q-18 -10 -39.5 -15.5q-21.5 -5.5 -42.5 -9.5l0 -593q23 -4 44 -10q21 -6 38 -14l0 -29h-253v29q36 16 75 24l0 280h-314v-280q20 -4 39 -10q19 -6 36 -14z" />
<glyph unicode="&#73;" horiz-adv-x="352" d="M304 0h-256v29q39 18 80 24l0 593q-20 4 -40 10.5q-20 6.5 -40 14.5l0 29h256v-29q-18 -8 -39 -14.5q-21 -6.5 -41 -10.5l0 -593q21 -4 42 -10q21 -6 38 -14z" />
<glyph unicode="&#74;" horiz-adv-x="341" d="M39 700h254v-29q-18 -8 -37 -14.5q-19 -6.5 -39 -10.5l0 -560q0 -70 -16 -115q-16 -45 -39.5 -72.5q-23.5 -27.5 -50 -40.5q-26.5 -13 -48.5 -18l-11 15q15 13 27.5 29.5q12.5 16.5 22 41.5q9.5 25 14.5 61q5 36 5 88v571q-22 5 -43 11q-21 6 -39 14z" />
<glyph unicode="&#75;" horiz-adv-x="646" d="M382 700h221v-29q-20 -9 -39 -15q-19 -6 -37 -10l-201 -266q25 -33 57.5 -74q32.5 -41 68 -84.5q35.5 -43.5 73 -88q37.5 -44.5 73.5 -84.5l48 -24v-25h-125l-34 24q-59 69 -117.5 149q-58.5 80 -113.5 162l-49 0v-282q46 -8 75 -24l0 -29h-253v29q40 16 82 24l0 593q-45 6 -82 25l0 29h253v-29q-16 -7 -35 -13.5q-19 -6.5 -40 -11.5l0 -277l60 14l187 263q-20 5 -38 11q-18 6 -34 14z" />
<glyph unicode="&#76;" horiz-adv-x="549" d="M29 700h274v-29q-24 -9 -48 -15.5q-24 -6.5 -48 -9.5l0 -594h230l59 161h26q3 -21 5.5 -48.5q2.5 -27.5 4 -57q1.5 -29.5 1.5 -57.5q0 -28 -1 -50l-503 0v29q24 11 44 16q20 5 38 8l0 593q-23 4 -44 10.5q-21 6.5 -38 14.5z" />
<glyph unicode="&#77;" horiz-adv-x="867" d="M837 0h-248v29q20 8 40 13.5q20 5.5 41 10.5l0 450l4 117h-8l-33 -107l-205 -513h-26l-195 513l-36 117h-9l1 -127v-450q19 -4 38 -10q19 -6 38 -14l0 -29h-209v29q19 8 39.5 14.5q20.5 6.5 41.5 10.5l0 592q-21 4 -41.5 10.5q-20.5 6.5 -40.5 14.5l0 29h205l174 -457l34 -103h1l34 105l180 455h181v-29q-18 -8 -37 -14.5q-19 -6.5 -39 -10.5l0 -594q21 -4 39.5 -9.5q18.5 -5.5 35.5 -13.5z" />
<glyph unicode="&#78;" horiz-adv-x="732" d="M487 700h216v-29q-42 -28 -82 -40l0 -643h-57l-363 551l-39 78h-3l9 -78v-475q41 -11 77 -35l0 -29h-216v29q18 11 38.5 19.5q20.5 8.5 43.5 15.5l0 573q-20 8 -39.5 17q-19.5 9 -36.5 18l0 28h169l315 -475l46 -86h4l-5 86v406q-21 9 -40.5 19q-19.5 10 -36.5 21z" />
<glyph unicode="&#79;" horiz-adv-x="740" d="M53 350q0 78 21.5 144.5q21.5 66.5 62 115q40.5 48.5 99.5 75.5q59 27 134 27q75 0 134 -27q59 -27 99.5 -75.5q40.5 -48.5 62 -115q21.5 -66.5 21.5 -144.5q0 -78 -21.5 -144.5q-21.5 -66.5 -62 -115q-40.5 -48.5 -99.5 -75.5q-59 -27 -134 -27q-75 0 -134 27q-59 27 -99.5 75.5q-40.5 48.5 -62 115q-21.5 66.5 -21.5 144.5zt0 0zM160 350q0 -64 13.5 -120.5q13.5 -56.5 40.5 -98.5q27 -42 68 -66.5q41 -24.5 97 -24.5q51 0 89 24.5q38 24.5 62.5 66.5q24.5 42 37 98.5q12.5 56.5 12.5 120.5q0 64 -13 120.5q-13 56.5 -40 98.5q-27 42 -68 66.5q-41 24.5 -97 24.5q-55 0 -93.5 -24.5q-38.5 -24.5 -62.5 -66.5q-24 -42 -35 -98.5t-11 -120.5z" />
<glyph unicode="&#80;" horiz-adv-x="596" d="M207 53q27 -3 51 -9.5q24 -6.5 45 -14.5l0 -29h-274v29q20 10 41 15q21 5 41 9l0 593q-23 4 -43 10.5q-20 6.5 -39 14.5l0 29h90q40 0 87 4q47 4 90 4q49 0 96 -10.5q47 -10.5 83.5 -35.5q36.5 -25 59 -66.5q22.5 -41.5 22.5 -103.5q0 -59 -23 -101q-23 -42 -61.5 -69q-38.5 -27 -87.5 -39.5q-49 -12.5 -101 -12.5q-5 0 -15.5 0q-10.5 0 -22.5 0.5q-12 0.5 -23 1.5q-11 1 -16 2zM275 656q-24 0 -39 -1q-15 -1 -29 -4l0 -324q5 -2 14.5 -2.5q9.5 -0.5 20 -1.5q10.5 -1 20.5 -1q10 0 16 0q35 0 66 9.5q31 9.5 54.5 30.5q23.5 21 37.5 53q14 32 14 77q0 82 -46.5 123t-128.5 41z" />
<glyph unicode="&#81;" horiz-adv-x="740" d="M760 -115q-40 -36 -82 -61.5q-42 -25.5 -90 -24.5q-41 0 -86 15q-45 15 -96 36q-51 21 -108.5 44q-57.5 23 -124.5 40l30 20q22 3 43 3q50 0 98.5 -12q48.5 -12 97.5 -26q49 -14 99 -26q50 -12 102 -12q27 0 55 4q28 4 57 14zM53 350q0 78 21.5 144.5q21.5 66.5 62 115q40.5 48.5 99.5 75.5q59 27 134 27q75 0 134 -27q59 -27 99.5 -75.5q40.5 -48.5 62 -115q21.5 -66.5 21.5 -144.5q0 -78 -21.5 -144.5q-21.5 -66.5 -62 -115q-40.5 -48.5 -99.5 -75.5q-59 -27 -134 -27q-75 0 -134 27q-59 27 -99.5 75.5q-40.5 48.5 -62 115q-21.5 66.5 -21.5 144.5zt0 0zM160 350q0 -64 13.5 -120.5q13.5 -56.5 40.5 -98.5q27 -42 68 -66.5q41 -24.5 97 -24.5q51 0 89 24.5q38 24.5 62.5 66.5q24.5 42 37 98.5q12.5 56.5 12.5 120.5q0 64 -13 120.5q-13 56.5 -40 98.5q-27 42 -68 66.5q-41 24.5 -97 24.5q-55 0 -93.5 -24.5q-38.5 -24.5 -62.5 -66.5q-24 -42 -35 -98.5t-11 -120.5z" />
<glyph unicode="&#82;" horiz-adv-x="637" d="M207 53q23 -5 44 -10.5q21 -5.5 41 -13.5l0 -29h-263v29q22 10 42 15q20 5 40 9l0 593q-26 5 -46 11.5q-20 6.5 -36 13.5l0 29h88q40 0 87.5 4q47.5 4 92.5 4q49 0 91.5 -11q42.5 -11 73.5 -35q31 -24 48.5 -61q17.5 -37 17.5 -89q0 -73 -38.5 -121q-38.5 -48 -104.5 -69q43 -68 90 -135q47 -67 98 -133l54 -29v-25h-121l-38 28q-28 35 -51 68.5q-23 33.5 -43 68q-20 34.5 -37.5 70q-17.5 35.5 -35.5 75.5l-94 0zM275 656q-24 0 -39.5 -1q-15.5 -1 -28.5 -4l0 -299h72q69 0 109.5 44q40.5 44 40.5 116q0 74 -43 109t-111 35z" />
<glyph unicode="&#83;" horiz-adv-x="536" d="M150 69q12 -12 31 -20.5q19 -8.5 57 -8.5q32 0 60 8.5q28 8.5 48.5 25q20.5 16.5 32.5 40q12 23.5 12 53.5q0 40 -24.5 67q-24.5 27 -61 48q-36.5 21 -79.5 41q-43 20 -79.5 47.5q-36.5 27.5 -61 66q-24.5 38.5 -24.5 96.5q0 42 15 75q15 33 42.5 56q27.5 23 65.5 35.5q38 12.5 85 12.5q61 0 111.5 -9.5q50.5 -9.5 79.5 -23.5q0 -17 -2.5 -39.5q-2.5 -22.5 -6 -46.5q-3.5 -24 -7.5 -46.5q-4 -22.5 -8 -39.5l-26 0l-40 137q-18 8 -45.5 12q-27.5 4 -58.5 4q-51 0 -82 -28.5q-31 -28.5 -31 -79.5q0 -41 24.5 -69q24.5 -28 61.5 -50q37 -22 79.5 -42.5q42.5 -20.5 79.5 -47.5q37 -27 61.5 -64q24.5 -37 24.5 -92q0 -45 -16.5 -82q-16.5 -37 -47.5 -63q-31 -26 -76 -40q-45 -14 -102 -14q-63 0 -113 15q-50 15 -71 32q1 17 3.5 41q2.5 24 6 49.5q3.5 25.5 7.5 49.5q4 24 8 41l26 0z" />
<glyph unicode="&#84;" horiz-adv-x="619" d="M450 0h-281v29q22 8 44.5 14q22.5 6 48.5 10l0 595h-153l-53 -143h-25q-3 20 -5 45.5q-2 25.5 -3.5 52q-1.5 26.5 -2.5 52q-1 25.5 -1 45.5l581 0q0 -20 -1 -45q-1 -25 -2.5 -51.5q-1.5 -26.5 -3 -52q-1.5 -25.5 -4.5 -46.5l-26 0l-52 143h-153v-595q26 -5 48.5 -10q22.5 -5 43.5 -14z" />
<glyph unicode="&#85;" horiz-adv-x="672" d="M10 700h254v-29q-19 -8 -38 -14q-19 -6 -38 -11l0 -409q0 -53 11.5 -88.5q11.5 -35.5 33.5 -57q22 -21.5 54.5 -31q32.5 -9.5 73.5 -9.5q79 0 123 43.5q44 43.5 44 143.5v399q-23 8 -43 16.5q-20 8.5 -36 17.5l0 29h213v-29q-19 -11 -38.5 -20q-19.5 -9 -39.5 -14l0 -401q0 -64 -17 -110q-17 -46 -47.5 -76q-30.5 -30 -74 -44.5q-43.5 -14.5 -96.5 -14.5q-125 0 -191 56.5q-66 56.5 -66 173.5v425q-41 6 -82 25z" />
<glyph unicode="&#86;" horiz-adv-x="684" d="M545 646q-24 5 -45 11.5q-21 6.5 -41 13.5l0 29h225v-29q-29 -16 -72 -25l-226 -646l-55 -12l-255 658q-20 5 -39 11.5q-19 6.5 -37 13.5l0 29h265v-29q-17 -7 -38 -13.5q-21 -6.5 -44 -11.5l171 -457l21 -80h2l20 82z" />
<glyph unicode="&#87;" horiz-adv-x="934" d="M796 646q-21 3 -42 9.5q-21 6.5 -44 15.5l0 29h224v-29q-34 -15 -72 -25l-167 -646l-62 -12l-161 544l-158 -532l-61 -12l-177 658q-20 5 -39 11q-19 6 -37 14l0 29h260v-29q-19 -7 -39 -13.5q-20 -6.5 -43 -11.5l99 -403l22 -130h2l35 132l135 455h34l145 -455l29 -130h2l23 132z" />
<glyph unicode="&#88;" horiz-adv-x="670" d="M395 700h230v-29q-17 -7 -36 -13.5q-19 -6.5 -39 -11.5l-176 -271l205 -322q48 -8 82 -24l0 -29h-266v29q36 18 76 24l-158 251l-152 -252q21 -3 41 -7.5q20 -4.5 39 -15.5l0 -29h-231v29q19 10 37.5 15q18.5 5 36.5 9l196 299l-188 294q-20 6 -39.5 12q-19.5 6 -39.5 13l0 29h265v-29q-15 -6 -33.5 -12q-18.5 -6 -42.5 -13l140 -226l136 226q-41 9 -83 25z" />
<glyph unicode="&#89;" horiz-adv-x="644" d="M424 700h220v-29q-38 -19 -76 -25l-189 -348v-245q39 -5 76 -24l0 -29h-254v29q36 18 82 24l0 244l-202 349q-23 4 -42.5 10.5q-19.5 6.5 -38.5 14.5l0 29h265v-29q-15 -6 -34 -12.5q-19 -6.5 -43 -12.5l164 -294l154 294q-23 5 -43.5 11.5q-20.5 6.5 -38.5 13.5z" />
<glyph unicode="&#90;" horiz-adv-x="610" d="M533 192h26q3 -20 5.5 -45q2.5 -25 4 -51q1.5 -26 2 -51q0.5 -25 -0.5 -45l-531 0v51l416 597h-308l-61 -140h-25q-3 21 -5.5 46q-2.5 25 -4 51q-1.5 26 -2 50.5q-0.5 24.5 -0.5 44.5l511 0v-52l-414 -596l326 0z" />
<glyph unicode="&#91;" horiz-adv-x="307" d="M83 700h189v-42h-104v-847h104v-41l-189 0z" />
<glyph unicode="&#92;" horiz-adv-x="382" d="M409 -107l-41 -23l-415 820l42 22z" />
<glyph unicode="&#93;" horiz-adv-x="307" d="M224 -230h-189v41h104v847h-104v42l189 0z" />
<glyph unicode="&#94;" horiz-adv-x="500" d="M233 711h32l170 -277h-88l-88 151l-24 67l-32 -68l-100 -150l-56 0z" />
<glyph unicode="&#95;" horiz-adv-x="410" d="M0 -143h410v-53l-410 0z" />
<glyph unicode="&#96;" horiz-adv-x="328" d="M268 593l-22 -17l-186 149v20q6 5 19.5 9.5q13.5 4.5 29.5 7.5q16 3 30.5 4.5q14.5 1.5 22.5 0.5z" />
<glyph unicode="&#97;" horiz-adv-x="505" d="M410 131q0 -22 1 -38q1 -16 2 -34l69 -10v-21q-25 -13 -55.5 -23q-30.5 -10 -58.5 -15l-25 0q-10 23 -12 50.5q-2 27.5 -3 60.5l-5 0q-4 -20 -15.5 -40.5q-11.5 -20.5 -30 -36.5q-18.5 -16 -43.5 -26q-25 -10 -57 -10q-61 0 -99.5 37q-38.5 37 -38.5 97q0 46 18.5 75.5q18.5 29.5 54.5 46.5q36 17 89 24.5q53 7.5 123 11.5q4 43 2.5 77.5q-1.5 34.5 -11 59q-9.5 24.5 -28 38q-18.5 13.5 -48.5 13.5q-14 0 -31.5 -1.5q-17.5 -1.5 -34.5 -8.5l-47 -120h-26q-10 30 -17.5 62q-7.5 32 -9.5 63q38 23 84.5 36q46.5 13 103.5 13q51 0 81.5 -14.5q30.5 -14.5 46.5 -37.5q16 -23 21 -51q5 -28 5 -56q0 -60 -2.5 -115.5q-2.5 -55.5 -2.5 -106.5zt0 0zM217 50q25 0 44 10q19 10 32 24q13 14 21 28.5q8 14.5 11 24.5l0 105q-58 0 -95 -6q-37 -6 -58 -19q-21 -13 -29 -32.5q-8 -19.5 -8 -44.5q0 -43 22 -66.5t60 -23.5z" />
<glyph unicode="&#98;" horiz-adv-x="545" d="M77 682l-76 8v26q31 13 69.5 21q38.5 8 71.5 15l25 0v-351h2q17 51 57.5 81q40.5 30 89.5 30q91 0 139.5 -62q48.5 -62 48.5 -191q0 -132 -66.5 -200q-66.5 -68 -191.5 -68q-25 0 -50 3.5q-25 3.5 -48 8.5q-23 5 -41.5 12q-18.5 7 -29.5 14zM289 450q-48 0 -78 -32.5q-30 -32.5 -44 -82.5l0 -279q18 -10 44 -15.5q26 -5.5 55 -5.5q66 0 104 57.5q38 57.5 38 166.5q0 39 -6.5 74q-6.5 35 -21 61q-14.5 26 -37 41t-54.5 15z" />
<glyph unicode="&#99;" horiz-adv-x="466" d="M427 70q-18 -35 -58.5 -58.5q-40.5 -23.5 -94.5 -23.5q-59 0 -102.5 18.5q-43.5 18.5 -72.5 53q-29 34.5 -43.5 83q-14.5 48.5 -14.5 107.5q0 127 62 194.5q62 67.5 169 67.5q49 0 87.5 -8.5q38.5 -8.5 65.5 -22.5q-3 -33 -11 -74q-8 -41 -20 -68l-27 0l-42 119q-7 5 -16 7.5q-9 2.5 -30 2.5q-68 0 -105 -49.5q-37 -49.5 -37 -167.5q0 -38 10.5 -74q10.5 -36 32 -64.5q21.5 -28.5 54 -45.5q32.5 -17 75.5 -17q35 0 61 10q26 10 44 24z" />
<glyph unicode="&#100;" horiz-adv-x="555" d="M373 99q-5 -22 -17 -42q-12 -20 -29.5 -35.5q-17.5 -15.5 -40 -24.5q-22.5 -9 -48.5 -9q-99 0 -148 63q-49 63 -49 196q0 128 62.5 195q62.5 67 168.5 67q37 0 58 -3.5q21 -3.5 46 -12.5l0 189l-76 8v26q29 12 67.5 21q38.5 9 73.5 15l25 0v-695l66 -8v-21q-29 -14 -60 -24q-31 -10 -61 -14l-25 0l-9 109zM258 50q49 0 78 31q29 31 40 84l0 282q-17 10 -40 14q-23 4 -59 4q-68 0 -104 -59.5q-36 -59.5 -36 -158.5q0 -41 7 -76.5q7 -35.5 22 -62.5q15 -27 37.5 -42.5t54.5 -15.5z" />
<glyph unicode="&#101;" horiz-adv-x="503" d="M446 70q-8 -17 -25 -32q-17 -15 -39 -26q-22 -11 -48 -17.5q-26 -6.5 -53 -6.5q-59 0 -104 18.5q-45 18.5 -75 53q-30 34.5 -45.5 82.5q-15.5 48 -15.5 108q0 128 59 195q59 67 167 67q35 0 69 -9.5q34 -9.5 60.5 -31.5q26.5 -22 43 -58.5q16.5 -36.5 16.5 -90.5q0 -17 -1.5 -34.5q-1.5 -17.5 -5.5 -37.5l-312 0q0 -42 10.5 -78.5q10.5 -36.5 31.5 -63.5q21 -27 53 -42.5q32 -15.5 75 -15.5q35 0 71 10q36 10 54 26zM263 468q-57 0 -87 -38.5q-30 -38.5 -36 -135.5l220 0q1 9 1.5 17.5q0.5 8.5 0.5 16.5q0 64 -24 102t-75 38z" />
<glyph unicode="&#102;" horiz-adv-x="342" d="M306 752q9 0 21 -1q12 -1 25 -2.5q13 -1.5 25 -4q12 -2.5 21 -5.5q-3 -33 -8.5 -61.5q-5.5 -28.5 -13.5 -51.5l-25 0l-44 86q-29 0 -49.5 -6q-20.5 -6 -34 -23q-13.5 -17 -20 -49q-6.5 -32 -6.5 -84v-50h115v-50h-115v-401q52 -6 96 -24l0 -25h-252v25q31 18 66 24l0 401h-76v26q35 22 76 33l0 35q0 62 15 102.5q15 40.5 42 64q27 23.5 63.5 32.5t78.5 9z" />
<glyph unicode="&#103;" horiz-adv-x="526" d="M247 512q54 0 91 -10.5q37 -10.5 62 -32.5q59 40 123 58q8 -11 11.5 -27q3.5 -16 3.5 -30l-13 -24h-105q25 -36 25 -95q0 -72 -50.5 -117q-50.5 -45 -147.5 -45q-19 0 -31 1q-12 1 -27 3q-5 -9 -11.5 -20q-6.5 -11 -6.5 -23q0 -20 23 -31.5q23 -11.5 57.5 -20.5q34.5 -9 75 -18.5q40.5 -9.5 75.5 -26q35 -16.5 58.5 -43q23.5 -26.5 24.5 -68.5q1 -36 -16.5 -65q-17.5 -29 -48.5 -48.5q-31 -19.5 -74.5 -30q-43.5 -10.5 -95.5 -10.5q-109 0 -164.5 37q-55.5 37 -55.5 93q0 27 8.5 47q8.5 20 24.5 35q16 15 40 26.5q24 11.5 55 21.5q-22 10 -36.5 27.5q-14.5 17.5 -14.5 42.5q0 23 19.5 45.5q19.5 22.5 39.5 35.5q-57 15 -87.5 57q-30.5 42 -30.5 95q0 34 13 63.5q13 29.5 38 51.5q25 22 62 34q37 12 86 12zt0 0zM395 -81q0 32 -21.5 51q-21.5 19 -53.5 31q-32 12 -69 20q-37 8 -69 18q-38 -23 -50 -48.5q-12 -25.5 -12 -52.5q0 -53 38 -79.5q38 -26.5 110 -26.5q37 0 61.5 7q24.5 7 39 18.5q14.5 11.5 20.5 27.5q6 16 6 34zt0 0zM138 351q0 -24 5.5 -45.5q5.5 -21.5 18 -37.5q12.5 -16 33.5 -25.5q21 -9.5 52 -9.5q58 0 83 34q25 34 25 84q0 54 -24.5 85.5q-24.5 31.5 -83.5 31.5q-61 0 -85 -30.5t-24 -86.5z" />
<glyph unicode="&#104;" horiz-adv-x="587" d="M570 0h-216v25q24 13 60 24l0 234q0 78 -22 122.5q-22 44.5 -80 44.5q-26 0 -47 -9.5q-21 -9.5 -38 -24.5q-17 -15 -29 -34.5q-12 -19.5 -18 -40.5l0 -292q16 -4 30.5 -9q14.5 -5 28.5 -15l0 -25h-215v25q31 16 66 24l0 633l-76 8v26q29 12 67.5 21q38.5 9 73.5 15l25 0v-353h1q21 47 60.5 80q39.5 33 95.5 33q40 0 71.5 -9.5q31.5 -9.5 52.5 -33.5q21 -24 32 -64.5q11 -40.5 11 -102.5v-253q17 -4 34 -9q17 -5 32 -15z" />
<glyph unicode="&#105;" horiz-adv-x="301" d="M263 0h-222v25q15 8 31 13.5q16 5.5 35 10.5l0 393l-66 8v26q29 12 63 21q34 9 68 15l25 0v-463q20 -5 36 -10.5q16 -5.5 30 -13.5zM88 670q0 27 17.5 43q17.5 16 46.5 16q29 0 46 -16q17 -16 17 -43q0 -27 -17 -42.5q-17 -15.5 -46 -15.5q-29 0 -46.5 15.5t-17.5 42.5z" />
<glyph unicode="&#106;" horiz-adv-x="288" d="M106 442l-66 8v26q29 14 63.5 22.5q34.5 8.5 67.5 13.5l25 0v-469q0 -71 -18 -118q-18 -47 -42 -76q-24 -29 -49 -43q-25 -14 -40 -18l-12 19q12 6 24.5 21q12.5 15 23 41.5q10.5 26.5 17 64.5q6.5 38 6.5 90zM87 670q0 27 17.5 43q17.5 16 46.5 16q29 0 46 -16q17 -16 17 -43q0 -27 -17 -42.5q-17 -15.5 -46 -15.5q-29 0 -46.5 15.5t-17.5 42.5z" />
<glyph unicode="&#107;" horiz-adv-x="516" d="M300 500h193v-26q-19 -8 -37.5 -14q-18.5 -6 -38.5 -10q-15 -20 -34.5 -43q-19.5 -23 -39.5 -46q-20 -23 -38.5 -43q-18.5 -20 -31.5 -33q15 -20 36.5 -48.5q21.5 -28.5 46.5 -60.5q25 -32 51.5 -65q26.5 -33 52.5 -62l56 -24v-25h-124l-27 24q-53 66 -88 117.5q-35 51.5 -64 96.5l-33 10v-199q33 -6 65 -24l0 -25h-221v25q33 16 66 24l0 633l-76 8v26q28 13 67 21q39 8 74 15l25 0v-478h26q16 18 35 40q19 22 38 45.5q19 23.5 37 46.5q18 23 33 44q-25 7 -49 24z" />
<glyph unicode="&#108;" horiz-adv-x="301" d="M263 0h-222v25q33 16 66 24l0 633l-76 8v26q26 12 65 21q39 9 76 15l25 0v-703q33 -8 66 -24z" />
<glyph unicode="&#109;" horiz-adv-x="863" d="M548 0h-214v25q10 6 24.5 12.5q14.5 6.5 34.5 11.5l0 231q0 40 -3.5 72q-3.5 32 -13 53.5q-9.5 21.5 -27.5 33q-18 11.5 -47 11.5q-22 0 -40.5 -9q-18.5 -9 -33 -24q-14.5 -15 -25 -34q-10.5 -19 -16.5 -40l0 -294q16 -5 30.5 -10.5q14.5 -5.5 28.5 -13.5l0 -25h-215v25q14 7 31 13q17 6 35 11l0 393l-66 8v26q32 14 65.5 22.5q33.5 8.5 65.5 13.5l25 0v-113h1q16 47 54.5 80q38.5 33 95.5 33q24 0 46 -5q22 -5 41 -18.5q19 -13.5 32 -37.5q13 -24 19 -62q18 55 58 89q40 34 100 34q37 0 64.5 -9.5q27.5 -9.5 45.5 -33.5q18 -24 26.5 -65q8.5 -41 8.5 -104v-251q34 -6 66 -24l0 -25h-215v25q30 16 59 24l0 249q0 36 -3.5 64q-3.5 28 -13.5 47.5q-10 19.5 -28 30q-18 10.5 -48 10.5q-48 0 -74.5 -33q-26.5 -33 -38.5 -84l0 -284q35 -10 65 -24z" />
<glyph unicode="&#110;" horiz-adv-x="594" d="M577 0h-215v25q27 14 59 24l0 237q0 76 -22 120q-22 44 -80 44q-25 0 -46.5 -9q-21.5 -9 -38 -24.5q-16.5 -15.5 -28.5 -35q-12 -19.5 -19 -40.5l0 -292q31 -6 60 -24l0 -25h-216v25q25 13 66 24l0 393l-66 8v26q26 11 60 20q34 9 71 16l25 0v-112h1q21 46 60.5 79q39.5 33 95.5 33q40 0 71.5 -9.5q31.5 -9.5 52.5 -33.5q21 -24 32 -64.5q11 -40.5 11 -102.5v-253q40 -7 66 -24z" />
<glyph unicode="&#111;" horiz-adv-x="553" d="M41 250q0 63 16.5 111.5q16.5 48.5 47.5 82q31 33.5 74.5 51q43.5 17.5 96.5 17.5q62 0 107 -19q45 -19 73.5 -53.5q28.5 -34.5 42 -82.5q13.5 -48 13.5 -107q0 -126 -64 -194q-64 -68 -172 -68q-60 0 -104 18.5q-44 18.5 -73 53q-29 34.5 -43.5 83q-14.5 48.5 -14.5 107.5zt0 0zM137 250q0 -45 8.5 -85q8.5 -40 27 -69.5q18.5 -29.5 48.5 -46.5q30 -17 72 -17q54 0 88.5 53q34.5 53 34.5 165q0 46 -8.5 85.5q-8.5 39.5 -26.5 69q-18 29.5 -46 46.5q-28 17 -67 17q-59 0 -95 -53t-36 -165z" />
<glyph unicode="&#112;" horiz-adv-x="566" d="M253 -200h-222v25q34 16 66 24l0 593l-66 8v26q32 14 65.5 22.5q33.5 8.5 65.5 13.5l25 0v-112h1q20 51 56 81.5q36 30.5 94 30.5q89 0 138 -59q49 -59 49 -192q0 -63 -16.5 -114q-16.5 -51 -47 -86q-30.5 -35 -74 -54q-43.5 -19 -96.5 -19q-37 0 -58 4.5q-21 4.5 -46 15.5l0 -159q16 -2 32 -7.5q16 -5.5 34 -16.5zM306 450q-49 0 -78 -31q-29 -31 -41 -85l0 -280q18 -11 40.5 -16.5q22.5 -5.5 58.5 -5.5q33 0 59.5 17q26.5 17 45 48q18.5 31 28.5 72.5q10 41.5 10 91.5q0 41 -6.5 75.5q-6.5 34.5 -21 60q-14.5 25.5 -38 39.5t-57.5 14z" />
<glyph unicode="&#113;" horiz-adv-x="548" d="M372 89q-14 -40 -49 -70.5q-35 -30.5 -89 -30.5q-96 0 -144.5 63.5q-48.5 63.5 -48.5 195.5q0 130 64.5 196q64.5 66 185.5 66q54 0 103 -10q49 -10 72 -21l0 -629q17 -3 33 -8.5q16 -5.5 33 -15.5l0 -25h-222v25q31 16 66 24l0 240zM258 50q49 0 77.5 31q28.5 31 40.5 83l0 287q-18 6 -42.5 10q-24.5 4 -56.5 4q-67 0 -103.5 -52q-36.5 -52 -36.5 -164q0 -42 6 -78q6 -36 20.5 -63q14.5 -27 37.5 -42.5t57 -15.5z" />
<glyph unicode="&#114;" horiz-adv-x="384" d="M244 425q-11 -6 -27.5 -24.5q-16.5 -18.5 -29.5 -54.5l0 -297q20 -2 40 -7.5q20 -5.5 40 -16.5l0 -25h-236v25q18 10 34 15q16 5 32 9l0 393l-66 8v26q32 14 66 22.5q34 8.5 65 13.5l25 0v-106h4q9 20 25.5 40q16.5 20 38 36q21.5 16 47 24.5q25.5 8.5 52.5 5.5q7 -13 12.5 -28.5q5.5 -15.5 10.5 -32.5l0 -26z" />
<glyph unicode="&#115;" horiz-adv-x="433" d="M295 114q0 28 -17.5 47.5q-17.5 19.5 -44.5 36.5q-27 17 -57.5 33q-30.5 16 -57.5 37.5q-27 21.5 -44.5 49.5q-17.5 28 -17.5 69q0 27 12.5 50q12.5 23 33.5 39.5q21 16.5 49 26q28 9.5 60 9.5q54 0 88.5 -6q34.5 -6 66.5 -17q-4 -32 -9.5 -64.5q-5.5 -32.5 -15.5 -66.5l-25 0l-38 102q-12 5 -27 6.5q-15 1.5 -31 1.5q-18 0 -31.5 -6.5q-13.5 -6.5 -23 -16.5q-9.5 -10 -14.5 -23q-5 -13 -5 -26q0 -27 17.5 -46.5q17.5 -19.5 44.5 -36q27 -16.5 57.5 -32.5q30.5 -16 57.5 -36q27 -20 44.5 -46.5q17.5 -26.5 17.5 -63.5q0 -34 -14.5 -61q-14.5 -27 -40 -46q-25.5 -19 -59 -29.5q-33.5 -10.5 -71.5 -10.5q-43 0 -79 7.5q-36 7.5 -75 21.5q2 36 9 69.5q7 33.5 18 64.5l25 0l44 -109q11 -8 26.5 -9q15.5 -1 28.5 -1q44 0 71 24t27 58z" />
<glyph unicode="&#116;" horiz-adv-x="371" d="M15 476q38 24 80 34l0 85q13 11 30.5 19.5q17.5 8.5 34.5 16.5l25 0v-131h150v-50h-150v-290q0 -60 19 -85q19 -25 57 -25q18 0 45 2.5q27 2.5 46 9.5l7 -15q-8 -9 -22.5 -19q-14.5 -10 -33 -19q-18.5 -9 -40.5 -15q-22 -6 -45 -6q-60 0 -91.5 34q-31.5 34 -31.5 110v318l-80 0z" />
<glyph unicode="&#117;" horiz-adv-x="574" d="M77 198q0 63 3 123.5q3 60.5 3 120.5l-66 8v26q32 12 65.5 21q33.5 9 65.5 15l25 0q0 -75 -3 -149q-3 -74 -3 -147q0 -39 4.5 -70q4.5 -31 16 -52q11.5 -21 31.5 -32.5q20 -11.5 51 -11.5q45 0 75.5 32.5q30.5 32.5 47.5 84.5l0 275l-65 8v26q31 12 64.5 21q33.5 9 65.5 15l25 0v-455l66 -8v-21q-29 -13 -58.5 -23q-29.5 -10 -61.5 -15l-25 0l-7 119h-4q-5 -21 -17.5 -42.5q-12.5 -21.5 -32.5 -39q-20 -17.5 -45.5 -28.5q-25.5 -11 -55.5 -11q-40 0 -70.5 9.5q-30.5 9.5 -51.5 33.5q-21 24 -32 64.5t-11 102.5z" />
<glyph unicode="&#118;" horiz-adv-x="507" d="M238 -12l-195 462q-29 10 -53 24l0 26h209v-25q-13 -7 -26.5 -13.5q-13.5 -6.5 -30.5 -11.5l116 -301l20 -62h2l15 63l107 300q-16 4 -29.5 10q-13.5 6 -25.5 14l0 26h170v-26q-10 -7 -24.5 -13q-14.5 -6 -32.5 -11l-177 -450z" />
<glyph unicode="&#119;" horiz-adv-x="728" d="M200 -12l-157 462q-14 5 -27.5 10.5q-13.5 5.5 -25.5 13.5l0 26h208v-25q-14 -8 -28 -14.5q-14 -6.5 -29 -10.5l87 -292l13 -72h2l15 74l108 330l30 10l115 -341l18 -73h2l15 73l77 291q-11 2 -25.5 8q-14.5 6 -29.5 16l0 26h170v-26q-21 -14 -57 -24l-142 -450l-53 -12l-99 283l-19 83h-3l-23 -83l-90 -271z" />
<glyph unicode="&#120;" horiz-adv-x="519" d="M298 268l158 -219q14 -5 27.5 -10.5q13.5 -5.5 25.5 -13.5l0 -25h-205v24q14 8 26 14.5q12 6.5 24 10.5l-111 164l-112 -164q14 -5 26 -11q12 -6 24 -13l0 -25h-171v25q28 17 56 24l149 199l-150 202q-14 5 -25.5 10.5q-11.5 5.5 -23.5 13.5l0 26h201v-25q-12 -8 -23.5 -14.5q-11.5 -6.5 -25.5 -10.5l104 -150l102 150q-34 11 -50 24l0 26h167v-26q-19 -13 -56 -24z" />
<glyph unicode="&#121;" horiz-adv-x="505" d="M42 450q-15 4 -27.5 10q-12.5 6 -25.5 14l0 26h209v-25q-21 -14 -57 -25l128 -296l19 -62h2l15 63l95 295q-30 6 -55 24l0 26h171v-26q-21 -14 -57 -24l-156 -450q-24 -64 -45.5 -103.5q-21.5 -39.5 -43 -62.5q-21.5 -23 -44 -33.5q-22.5 -10.5 -48.5 -15.5q-11 19 -19.5 42q-8.5 23 -14.5 44l13 24h104q6 8 10.5 15.5q4.5 7.5 9.5 18.5q5 11 11 28q6 17 14 43z" />
<glyph unicode="&#122;" horiz-adv-x="488" d="M423 171q7 -42 10.5 -84.5q3.5 -42.5 1.5 -86.5l-392 0v25l285 431h-189l-44 -118h-25q-8 43 -9.5 84.5q-1.5 41.5 -1.5 77.5l376 0v-26l-286 -430h195l54 127z" />
<glyph unicode="&#123;" horiz-adv-x="348" d="M135 111q0 51 -21 80q-21 29 -59 29l0 30q38 0 59 30.5q21 30.5 21 74.5v239q0 48 24 77q24 29 72 29h90v-42h-48q-27 0 -39.5 -14q-12.5 -14 -12.5 -46v-233q0 -33 -10.5 -56q-10.5 -23 -27 -37.5q-16.5 -14.5 -35.5 -22q-19 -7.5 -37 -9.5l0 -6q17 -2 36.5 -10q19.5 -8 36 -24q16.5 -16 27 -39.5q10.5 -23.5 10.5 -55.5v-234q0 -31 12 -45.5q12 -14.5 41 -14.5h47v-41h-90q-45 0 -70.5 26.5q-25.5 26.5 -25.5 78.5z" />
<glyph unicode="&#124;" horiz-adv-x="237" d="M93 700h52v-830l-52 0z" />
<glyph unicode="&#125;" horiz-adv-x="348" d="M238 360q0 -51 21 -80q21 -29 59 -29l0 -30q-38 0 -59 -30.5q-21 -30.5 -21 -74.5v-240q0 -48 -24 -77q-24 -29 -72 -29h-90v41h49q27 0 39.5 14q12.5 14 12.5 46v235q0 33 9 56q9 23 23.5 37.5q14.5 14.5 32 22q17.5 7.5 35.5 9.5l0 6q-17 2 -35 10q-18 8 -32.5 24q-14.5 16 -23.5 39.5q-9 23.5 -9 55.5v232q0 31 -12 45.5q-12 14.5 -41 14.5h-48v42h91q45 0 70 -26.5q25 -26.5 25 -78.5z" />
<glyph unicode="&#126;" horiz-adv-x="530" d="M58 322q36 54 69 74.5q33 20.5 63 20.5q25 0 49 -10.5q24 -10.5 47 -23.5q23 -13 46.5 -23.5q23.5 -10.5 48.5 -10.5q18 0 37.5 7.5q19.5 7.5 39.5 26.5l13 -21q-29 -42 -57.5 -59.5q-28.5 -17.5 -55.5 -17.5q-26 0 -50.5 10.5q-24.5 10.5 -48.5 23.5q-24 13 -48 23.5q-24 10.5 -48 10.5q-22 0 -44.5 -12q-22.5 -12 -45.5 -43z" />
<glyph unicode="&#160;" horiz-adv-x="243" />
<glyph unicode="&#161;" horiz-adv-x="327" d="M153 286l32 -176v-296q-21 -11 -45 -11q-24 0 -45 11l0 296l32 176zM208 446q0 -29 -19 -47q-19 -18 -49 -18q-31 0 -50 18q-19 18 -19 47q0 30 19 48q19 18 50 18q30 0 49 -18t19 -48z" />
<glyph unicode="&#162;" horiz-adv-x="533" d="M480 70q-20 -36 -60 -58.5q-40 -22.5 -94 -23.5l0 -158h-53v162q-105 15 -158 83.5q-53 68.5 -53 174.5q0 55 15.5 99.5q15.5 44.5 43.5 77.5q28 33 66.5 53q38.5 20 85.5 28l0 152h53v-148q48 0 86.5 -8.5q38.5 -8.5 65.5 -22.5q-3 -33 -11.5 -74q-8.5 -41 -20.5 -68l-25 0l-41 119q-7 5 -16 7.5q-9 2.5 -29 2.5h-10v-415q18 -3 36 -3q35 0 61 10q26 10 44 24zM158 251q0 -57 29.5 -108q29.5 -51 86.5 -76l0 393q-53 -16 -84.5 -66t-31.5 -143z" />
<glyph unicode="&#163;" horiz-adv-x="533" d="M30 381h85q-15 32 -26 67q-11 35 -11 86q0 41 15 74q15 33 42 56q27 23 65 35.5q38 12.5 85 12.5q61 0 112 -10q51 -10 80 -24q-1 -16 -3.5 -38.5q-2.5 -22.5 -6 -46q-3.5 -23.5 -7.5 -46.5q-4 -23 -8 -40l-25 0l-40 137q-19 8 -46 12q-27 4 -58 4q-39 0 -66.5 -17q-27.5 -17 -38.5 -48q-8 -22 -8 -46q1 -51 13 -91q12 -40 26 -77l156 0v-51h-138q7 -25 11 -49.5q4 -24.5 2 -53.5q-1 -34 -13.5 -65q-12.5 -31 -40.5 -54l-33 -28v-4l56 6h199l49 112h25q2 -22 4 -48q2 -26 3.5 -52.5q1.5 -26.5 2.5 -51q1 -24.5 1 -42.5l-460 0v31q64 28 95.5 67q31.5 39 32.5 100q0 11 -0.5 20.5q-0.5 9.5 -1.5 19.5q-6 54 -21 92l-108 0z" />
<glyph unicode="&#164;" horiz-adv-x="533" d="M36 170l83 82l35 11q-14 17 -20 38q-6 21 -6 45q0 23 6 44.5q6 21.5 20 38.5l-35 11l-82 83l54 54l82 -83l12 -34q17 13 37.5 20q20.5 7 44.5 7q24 -1 45 -7.5q21 -6.5 37 -19.5l13 34l82 82l53 -54l-83 -82l-32 -11q23 -34 23 -83q1 -47 -23 -84l32 -10l82 -83l-53 -54l-82 82l-12 34q-16 -11 -37 -17.5q-21 -6.5 -45 -6.5q-24 0 -44.5 6.5q-20.5 6.5 -39.5 17.5l-10 -33l-83 -82zM267 264q36 0 60.5 23q24.5 23 24.5 59q0 36 -24.5 59.5q-24.5 23.5 -60.5 23.5q-36 1 -60.5 -23q-24.5 -24 -24.5 -60q0 -36 24.5 -59t60.5 -23z" />
<glyph unicode="&#165;" horiz-adv-x="533" d="M359 700h220v-29q-40 -19 -76 -25l-160 -311h144v-52h-163v-63h163v-52h-163v-115q39 -5 76 -24l0 -29h-254v29q36 18 82 24l0 115h-163v52h163v63h-163v52h142l-171 311q-23 4 -42.5 10.5q-19.5 6.5 -38.5 14.5l0 29h265v-29q-15 -6 -34 -12.5q-19 -6.5 -43 -12.5l154 -295l144 295q-23 5 -43.5 11.5q-20.5 6.5 -38.5 13.5z" />
<glyph unicode="&#166;" horiz-adv-x="237" d="M93 190h52v-320h-52zM145 380h-52v320l52 0z" />
<glyph unicode="&#167;" horiz-adv-x="527" d="M347 44q0 30 -21.5 48q-21.5 18 -53.5 31.5q-32 13.5 -69 26q-37 12.5 -69 31q-32 18.5 -53.5 47.5q-21.5 29 -21.5 76q0 50 38 86q38 36 93 59q-21 10 -39 22q-18 12 -31.5 28.5q-13.5 16.5 -21.5 38q-8 21.5 -8 49.5q0 27 12 50q12 23 33.5 39.5q21.5 16.5 51.5 26q30 9.5 67 9.5q54 0 93 -5.5q39 -5.5 71 -17.5q-2 -16 -4 -27.5q-2 -11.5 -5 -22.5q-3 -11 -7 -23q-4 -12 -9 -28l-25 0l-56 72q-12 5 -22.5 6.5q-10.5 1.5 -26.5 1.5q-43 0 -63 -23q-20 -23 -20 -49q0 -30 21.5 -49.5q21.5 -19.5 53.5 -34.5q32 -15 69 -28.5q37 -13.5 69 -32.5q32 -19 53.5 -46q21.5 -27 21.5 -68q0 -29 -12 -52.5q-12 -23.5 -31 -42.5q-19 -19 -42 -33.5q-23 -14.5 -44 -24.5q20 -9 38 -19.5q18 -10.5 31.5 -24.5q13.5 -14 21 -31.5q7.5 -17.5 7.5 -40.5q0 -70 -53 -110q-53 -40 -142 -40q-83 0 -162 29q1 18 3.5 30.5q2.5 12.5 5.5 24q3 11.5 7 23q4 11.5 9 27.5l25 0l64 -79q11 -9 21.5 -10q10.5 -1 24.5 -1q48 0 77.5 24q29.5 24 29.5 58zt0 0zM378 313q0 24 -12 41.5q-12 17.5 -32 30q-20 12.5 -45.5 23q-25.5 10.5 -52.5 21.5q-34 -16 -60.5 -43.5q-26.5 -27.5 -26.5 -59.5q0 -26 12.5 -45q12.5 -19 32.5 -33q20 -14 46.5 -25q26.5 -11 53.5 -21q17 10 32 24q15 14 26.5 28.5q11.5 14.5 18.5 29.5t7 29z" />
<glyph unicode="&#168;" horiz-adv-x="450" d="M60 663q0 24 15 38.5q15 14.5 39 14.5q24 0 39 -14.5q15 -14.5 15 -38.5q0 -23 -15 -37q-15 -14 -39 -14q-24 0 -39 14q-15 14 -15 37zt0 0zM282 663q0 24 15 38.5q15 14.5 39 14.5q24 0 39 -14.5q15 -14.5 15 -38.5q0 -23 -15 -37q-15 -14 -39 -14q-24 0 -39 14t-15 37z" />
<glyph unicode="&#169;" horiz-adv-x="807" d="M51 290q0 83 29.5 148.5q29.5 65.5 78.5 110.5q49 45 112.5 69q63.5 24 132.5 24q69 0 132.5 -24q63.5 -24 112 -69q48.5 -45 78 -110.5q29.5 -65.5 29.5 -148.5q0 -83 -29.5 -148.5q-29.5 -65.5 -78 -110.5q-48.5 -45 -112 -69q-63.5 -24 -132.5 -24q-72 0 -136.5 24q-64.5 24 -112.5 69q-48 45 -76 110.5q-28 65.5 -28 148.5zt0 0zM103 290q0 -69 23.5 -125.5q23.5 -56.5 64.5 -96q41 -39.5 96 -61.5q55 -22 117 -22q62 0 117 22q55 22 95.5 61.5q40.5 39.5 64 96q23.5 56.5 23.5 125.5q0 69 -25 125.5q-25 56.5 -66.5 96q-41.5 39.5 -96 61.5q-54.5 22 -112.5 22q-66 0 -121.5 -22q-55.5 -22 -95 -62q-39.5 -40 -62 -96q-22.5 -56 -22.5 -125zt0 0zM510 206h25q4 -15 6 -45.5q2 -30.5 -1 -54.5q-9 -7 -22.5 -11.5q-13.5 -4.5 -28.5 -7.5q-15 -3 -31 -4q-16 -1 -29 -1q-49 0 -89.5 13.5q-40.5 13.5 -70 40q-29.5 26.5 -46 65.5q-16.5 39 -16.5 90q0 52 18.5 91q18.5 39 48 65q29.5 26 67 39.5q37.5 13.5 75.5 13.5q39 0 70 -5.5q31 -5.5 51 -15.5q1 -9 1 -23.5q0 -14.5 -1 -30.5q-1 -16 -3 -31q-2 -15 -5 -25l-25 0l-30 83q-7 5 -22 5.5q-15 0.5 -29 0.5q-57 0 -88.5 -44.5q-31.5 -44.5 -31.5 -122.5q0 -33 7 -63.5q7 -30.5 22.5 -54q15.5 -23.5 40.5 -37q25 -13.5 60 -13.5q20 0 32.5 4q12.5 4 16.5 8z" />
<glyph unicode="&#170;" horiz-adv-x="430" d="M99 605q-10 11 -17 30.5q-7 19.5 -8 40.5q25 13 61.5 22.5q36.5 9.5 98.5 9.5q64 0 87.5 -26q23.5 -26 23.5 -75q0 -19 -0.5 -41.5q-0.5 -22.5 -1 -44.5q-0.5 -22 -1 -42.5q-0.5 -20.5 -0.5 -36.5l50 -10v-26q-19 -11 -40.5 -18.5q-21.5 -7.5 -44.5 -9.5l-17 0q-7 17 -9.5 33.5q-2.5 16.5 -3.5 33.5l-4 0q-5 -9 -14 -21q-9 -12 -23.5 -22.5q-14.5 -10.5 -34.5 -18q-20 -7.5 -47 -7.5q-46 0 -75.5 25.5q-29.5 25.5 -29.5 69.5q0 31 15.5 50.5q15.5 19.5 42.5 30.5q27 11 62.5 15.5q35.5 4.5 75.5 4.5q7 0 13.5 -0.5q6.5 -0.5 13.5 -0.5q1 6 1 16.5q0 10.5 0 15.5q0 13 -3 25q-3 12 -11 21.5q-8 9.5 -21.5 15q-13.5 5.5 -35.5 5.5q-12 0 -26 -2q-14 -2 -28 -7l-22 -56zM182 422q21 0 36 7q15 7 25.5 16.5q10.5 9.5 17.5 20.5q7 11 11 20l0 52q-11 1 -21 1q-10 0 -20 0q-20 0 -38.5 -3.5q-18.5 -3.5 -32.5 -11q-14 -7.5 -22.5 -19.5q-8.5 -12 -8.5 -29q0 -20 13.5 -37t39.5 -17z" />
<glyph unicode="&#171;" horiz-adv-x="471" d="M218 259l169 205l25 -19l-106 -179l112 -189l-24 -20zM24 259l213 207l26 -20l-140 -181l146 -189l-26 -21z" />
<glyph unicode="&#172;" horiz-adv-x="510" d="M43 387h425v-189h-62v126l-363 0z" />
<glyph unicode="&#173;" horiz-adv-x="425" d="M71 313h282v-63l-282 0z" />
<glyph unicode="&#174;" horiz-adv-x="700" d="M83 451q0 64 21.5 113.5q21.5 49.5 58 83.5q36.5 34 85 51.5q48.5 17.5 102.5 17.5q56 0 104.5 -17.5q48.5 -17.5 84.5 -51.5q36 -34 57 -83.5q21 -49.5 21 -113.5q0 -65 -21.5 -114.5q-21.5 -49.5 -58 -83.5q-36.5 -34 -85 -51.5q-48.5 -17.5 -102.5 -17.5q-56 0 -104.5 17.5q-48.5 17.5 -84.5 51.5q-36 34 -57 83.5q-21 49.5 -21 114.5zt0 0zM130 451q0 -52 17.5 -93.5q17.5 -41.5 47.5 -71q30 -29.5 70 -45q40 -15.5 85 -15.5q47 0 87.5 15.5q40.5 15.5 70 44.5q29.5 29 46 70.5q16.5 41.5 16.5 94.5q0 52 -17.5 93.5q-17.5 41.5 -47.5 70.5q-30 29 -70 45q-40 16 -85 15q-48 1 -88 -15q-40 -16 -69.5 -45q-29.5 -29 -46 -70.5q-16.5 -41.5 -16.5 -93.5zt0 0zM316 342q13 -1 21.5 -3.5q8.5 -2.5 15.5 -5.5l0 -24h-124v24q17 6 35 9l0 233q-11 1 -19 3.5q-8 2.5 -16 7.5l0 22h38q18 0 43 2q25 2 41 2q22 0 42.5 -4.5q20.5 -4.5 36.5 -15q16 -10.5 25 -26.5q9 -16 9 -38q0 -31 -21.5 -49q-21.5 -18 -49.5 -27q18 -29 34.5 -56.5q16.5 -27.5 45.5 -53.5l23 -12v-21h-50l-28 11q-25 30 -40 62q-15 32 -26 61l-36 0zM346 580q-11 0 -17.5 -0.5q-6.5 -0.5 -12.5 -2.5l0 -105h32q60 0 58 56q-1 26 -17.5 39t-42.5 13z" />
<glyph unicode="&#175;" horiz-adv-x="373" d="M60 637v52h253l0 -52z" />
<glyph unicode="&#176;" horiz-adv-x="424" d="M83 571q0 31 11 57q11 26 30.5 44.5q19.5 18.5 45.5 29q26 10.5 55 10.5q29 0 55 -9q26 -9 45 -26.5q19 -17.5 30 -44q11 -26.5 11 -61.5q0 -33 -11 -59q-11 -26 -30 -44.5q-19 -18.5 -45 -28q-26 -9.5 -55 -9.5q-29 0 -55 9.5q-26 9.5 -45.5 28q-19.5 18.5 -30.5 44.5q-11 26 -11 59zt0 0zM139 571q0 -41 25.5 -66.5q25.5 -25.5 60.5 -25.5q38 0 62 24q24 24 24 68q0 42 -24 67q-24 25 -62 25q-38 0 -62 -25t-24 -67z" />
<glyph unicode="&#177;" horiz-adv-x="533" d="M42 490h198v210h53v-210h198v-53h-198v-154h-53v154h-198zM42 230h449v-53l-449 0z" />
<glyph unicode="&#178;" horiz-adv-x="431" d="M109 639h-23q-7 10 -14.5 27q-7.5 17 -14.5 36q-7 19 -11.5 36q-4.5 17 -5.5 27q32 18 75.5 33q43.5 15 93.5 15q44 0 73 -9.5q29 -9.5 46.5 -25q17.5 -15.5 24.5 -36.5q7 -21 7 -45q0 -33 -16.5 -66.5q-16.5 -33.5 -46 -65.5q-29.5 -32 -70 -62q-40.5 -30 -88.5 -55l0 -6l31 7h137l44 67h22q2 -14 3.5 -31.5q1.5 -17.5 3 -36q1.5 -18.5 2 -35q0.5 -16.5 0.5 -27.5l-339 0v33q41 23 82.5 54.5q41.5 31.5 75 67.5q33.5 36 54.5 73q21 37 21 70q0 38 -17 59.5q-17 21.5 -67 21.5q-38 0 -63 -15z" />
<glyph unicode="&#179;" horiz-adv-x="431" d="M207 423q25 0 42 7q17 7 28 18q11 11 16 24.5q5 13.5 5 26.5q0 43 -24 61q-24 18 -80 18h-33v26l86 109l44 42v2l-62 -4h-89l-36 -92h-22q-6 13 -11 32.5q-5 19.5 -8.5 40.5q-3.5 21 -6 40q-2.5 19 -2.5 30l307 0v-36l-91 -106l-39 -40v-1l31 4q24 0 45.5 -7.5q21.5 -7.5 38 -22q16.5 -14.5 26.5 -36.5q10 -22 10 -51q0 -65 -51.5 -98q-51.5 -33 -135.5 -33q-41 0 -83.5 13.5q-42.5 13.5 -68.5 32.5l34 92h18q5 -5 11 -15q6 -10 13 -21.5q7 -11.5 13.5 -23.5q6.5 -12 11.5 -22q9 -3 24 -6.5t39 -3.5z" />
<glyph unicode="&#180;" horiz-adv-x="329" d="M177 767q8 1 21 -0.5q13 -1.5 27 -4.5q14 -3 26 -7.5q12 -4.5 18 -9.5l0 -19l-187 -151l-22 18z" />
<glyph unicode="&#181;" horiz-adv-x="574" d="M134 15l35 -190v-25q-48 -14 -92 0l0 642l-60 8v26q32 12 65.5 21q33.5 9 65.5 15l25 0q0 -75 -3 -149q-3 -74 -3 -147q0 -39 4.5 -70q4.5 -31 16 -52q11.5 -21 31.5 -32.5q20 -11.5 51 -11.5q45 0 76 32.5q31 32.5 48 84.5l0 275l-66 8v26q31 12 65 21q34 9 66 15l25 0v-455l66 -8v-21q-29 -13 -59 -23q-30 -10 -62 -15l-25 0l-7 119h-4q-5 -21 -17.5 -42.5q-12.5 -21.5 -32 -39q-19.5 -17.5 -45 -28.5q-25.5 -11 -55.5 -11q-32 0 -57.5 6q-25.5 6 -45.5 21z" />
<glyph unicode="&#182;" horiz-adv-x="511" d="M376 94q-1 -67 -10 -109.5q-9 -42.5 -26 -68q-17 -25.5 -40.5 -37.5q-23.5 -12 -52.5 -18q-20 -32 -46.5 -48.5q-26.5 -16.5 -52.5 -24.5l-12 20q22 9 41 24.5q19 15.5 32.5 40.5q13.5 25 21 62q7.5 37 7.5 89v286q-32 0 -63.5 10q-31.5 10 -57 32.5q-25.5 22.5 -41.5 59q-16 36.5 -16 88.5q0 42 12.5 78.5q12.5 36.5 37 63.5q24.5 27 62.5 42.5q38 15.5 89 15.5h190v-30q-17 -8 -34.5 -14q-17.5 -6 -40.5 -10zM259 -116q42 17 56 69q14 52 14 141v557h-44v-627q0 -40 -6 -77t-20 -63z" />
<glyph unicode="&#183;" horiz-adv-x="240" d="M52 307q0 30 19 48q19 18 49 18q31 0 50 -18q19 -18 19 -48q0 -29 -19 -47q-19 -18 -50 -18q-30 0 -49 18t-19 47z" />
<glyph unicode="&#184;" horiz-adv-x="284" d="M117 -68q55 -2 80 -20.5q25 -18.5 26 -50.5q1 -29 -14.5 -50.5q-15.5 -21.5 -39.5 -35.5q-24 -14 -53 -20.5q-29 -6.5 -56 -5.5l0 30q38 5 61 20q23 15 22 46q0 25 -20 36q-20 11 -62 14l37 106l45 0z" />
<glyph unicode="&#185;" horiz-adv-x="431" d="M365 386h-280v21q27 11 51.5 20q24.5 9 49.5 14l0 247l4 45q-24 -7 -53.5 -9.5q-29.5 -2.5 -58.5 -1.5l0 29q42 9 81 25.5q39 16.5 75 36.5l31 0v-372q26 -6 51.5 -14q25.5 -8 48.5 -20z" />
<glyph unicode="&#186;" horiz-adv-x="435" d="M43 542q0 39 13 70q13 31 36.5 53.5q23.5 22.5 55 34.5q31.5 12 69.5 12q38 0 70 -10.5q32 -10.5 55 -31.5q23 -21 36 -53q13 -32 13 -75q0 -39 -13 -70.5q-13 -31.5 -36 -53.5q-23 -22 -55 -34q-32 -12 -70 -12q-38 0 -69.5 10.5q-31.5 10.5 -55 31.5q-23.5 21 -36.5 53q-13 32 -13 75zt0 0zM127 542q0 -60 23 -96.5q23 -36.5 67 -36.5q90 0 90 133q0 132 -90 132q-90 0 -90 -132z" />
<glyph unicode="&#187;" horiz-adv-x="471" d="M77 57l-24 20l112 184l-107 184l25 19l170 -205zM228 55l-26 21l145 184l-140 186l26 20l213 -207z" />
<glyph unicode="&#188;" horiz-adv-x="938" d="M346 282h-280v21q27 11 51.5 20q24.5 9 49.5 14l0 247l4 45q-24 -7 -53.5 -9.5q-29.5 -2.5 -58.5 -1.5l0 29q42 9 81 25.5q39 16.5 75 36.5l31 0v-372q26 -6 51.5 -14q25.5 -8 48.5 -20zM753 710l35 -31l-585 -686l-34 32zM836 0h-211v21q17 8 35 14q18 6 38 10l0 72h-244v24l287 286h36v-263h94v-47h-94v-72q14 -3 28 -8q14 -5 31 -16zM698 294l10 43h-3l-35 -43l-111 -114l-36 -23l63 7l112 0z" />
<glyph unicode="&#189;" horiz-adv-x="1004" d="M346 282h-280v21q27 11 51.5 20q24.5 9 49.5 14l0 247l4 45q-24 -7 -53.5 -9.5q-29.5 -2.5 -58.5 -1.5l0 29q42 9 81 25.5q39 16.5 75 36.5l31 0v-372q26 -6 51.5 -14q25.5 -8 48.5 -20zM753 710l35 -31l-585 -686l-34 32zM662 253h-23q-7 10 -14.5 27q-7.5 17 -14.5 36q-7 19 -11.5 36q-4.5 17 -5.5 27q32 18 75.5 33q43.5 15 93.5 15q44 0 73 -9.5q29 -9.5 46.5 -25q17.5 -15.5 24.5 -36.5q7 -21 7 -45q0 -33 -16.5 -66.5q-16.5 -33.5 -46 -65.5q-29.5 -32 -70 -62q-40.5 -30 -88.5 -55l0 -6l31 7h137l44 67h22q2 -14 3.5 -31.5q1.5 -17.5 3 -36q1.5 -18.5 2 -35q0.5 -16.5 0.5 -27.5l-339 0v33q41 23 82.5 54.5q41.5 31.5 75 67.5q33.5 36 54.5 73q21 37 21 70q0 38 -17 59.5q-17 21.5 -67 21.5q-38 0 -63 -15z" />
<glyph unicode="&#190;" horiz-adv-x="991" d="M805 710l35 -31l-585 -686l-34 32zM888 0h-211v21q17 8 35 14q18 6 38 10l0 72h-244v24l287 286h36v-263h94v-47h-94v-72q14 -3 28 -8q14 -5 31 -16zM750 294l10 43h-3l-35 -43l-111 -114l-36 -23l63 7h112zM232 319q25 0 42 7q17 7 28 18q11 11 16 24.5q5 13.5 5 26.5q0 43 -24 61q-24 18 -80 18h-33v26l86 109l44 42v2l-62 -4h-89l-36 -92h-22q-6 13 -11 32.5q-5 19.5 -8.5 40.5q-3.5 21 -6 40q-2.5 19 -2.5 30l307 0v-36l-91 -106l-39 -40v-1l31 4q24 0 45.5 -7.5q21.5 -7.5 38 -22q16.5 -14.5 26.5 -36.5q10 -22 10 -51q0 -65 -51.5 -98q-51.5 -33 -135.5 -33q-41 0 -83.5 13.5q-42.5 13.5 -68.5 32.5l34 92h18q5 -5 11 -15q6 -10 13 -21.5q7 -11.5 13.5 -23.5q6.5 -12 11.5 -22q9 -3 24 -6.5t39 -3.5z" />
<glyph unicode="&#191;" horiz-adv-x="473" d="M346 -15h25q8 -27 18 -69.5q10 -42.5 14 -81.5q-38 -23 -81.5 -32.5q-43.5 -9.5 -106.5 -9.5q-45 0 -78.5 12.5q-33.5 12.5 -56 34q-22.5 21.5 -34 51.5q-11.5 30 -11.5 65q0 45 16.5 78.5q16.5 33.5 41 60.5q24.5 27 53.5 50.5q29 23.5 54 49q25 25.5 41.5 56.5q16.5 31 16.5 73l20 0q12 -48 6 -83.5q-6 -35.5 -22.5 -63.5q-16.5 -28 -39 -51q-22.5 -23 -43 -47q-20.5 -24 -34.5 -51q-14 -27 -14 -62q0 -22 6 -43.5q6 -21.5 19.5 -39q13.5 -17.5 35 -28q21.5 -10.5 51.5 -10.5q32 0 52 5q20 5 28 13zM330 446q0 -29 -18.5 -47q-18.5 -18 -48.5 -18q-31 0 -50 18q-19 18 -19 47q0 30 19 48q19 18 50 18q30 0 48.5 -18t18.5 -48z" />
<glyph unicode="&#192;" horiz-adv-x="683" d="M222 0h-222v29q36 16 72 24l253 659h29l253 -659q20 -4 39.5 -9q19.5 -5 36.5 -15l0 -29h-256v29q20 8 41 14q21 6 41 10l-68 183h-239l-66 -183q42 -6 86 -24zM222 288h202l-79 212l-19 86h-2l-25 -88zM370 769l-18 -19l-225 91v20q6 7 19 13.5q13 6.5 28 11q15 4.5 29 6.5q14 2 22 1z" />
<glyph unicode="&#193;" horiz-adv-x="683" d="M222 0h-222v29q36 16 72 24l253 659h29l253 -659q20 -4 39.5 -9q19.5 -5 36.5 -15l0 -29h-256v29q20 8 41 14q21 6 41 10l-68 183h-239l-66 -183q42 -6 86 -24zM222 288h202l-79 212l-19 86h-2l-25 -88zM451 893q9 1 23 -1q14 -2 28.5 -6.5q14.5 -4.5 27 -11q12.5 -6.5 18.5 -13.5l0 -20l-226 -91l-17 19z" />
<glyph unicode="&#194;" horiz-adv-x="683" d="M222 0h-222v29q36 16 72 24l253 659h29l253 -659q20 -4 39.5 -9q19.5 -5 36.5 -15l0 -29h-256v29q20 8 41 14q21 6 41 10l-68 183h-239l-66 -183q42 -6 86 -24zM222 288h202l-79 212l-19 86h-2l-25 -88zM216 752l-14 19l127 112q5 3 12.5 3.5q7.5 0.5 13.5 -3.5l125 -109l-15 -21l-127 56z" />
<glyph unicode="&#195;" horiz-adv-x="683" d="M222 0h-222v29q36 16 72 24l253 659h29l253 -659q20 -4 39.5 -9q19.5 -5 36.5 -15l0 -29h-256v29q20 8 41 14q21 6 41 10l-68 183h-239l-66 -183q42 -6 86 -24zM222 288h202l-79 212l-19 86h-2l-25 -88zM501 821q-32 -32 -58.5 -44q-26.5 -12 -51.5 -12q-19 0 -35.5 5.5q-16.5 5.5 -32.5 11.5q-16 6 -31 11.5q-15 5.5 -31 5.5q-14 0 -28.5 -5.5q-14.5 -5.5 -30.5 -19.5l-19 29q38 34 67.5 46.5q29.5 12.5 54.5 12.5q18 0 34.5 -5q16.5 -5 31.5 -11q15 -6 30 -11q15 -5 31 -5q13 0 26.5 4.5q13.5 4.5 29.5 15.5z" />
<glyph unicode="&#196;" horiz-adv-x="683" d="M222 0h-222v29q36 16 72 24l253 659h29l253 -659q20 -4 39.5 -9q19.5 -5 36.5 -15l0 -29h-256v29q20 8 41 14q21 6 41 10l-68 183h-239l-66 -183q42 -6 86 -24zM222 288h202l-79 212l-19 86h-2l-25 -88zM174 789q0 24 16 36q16 12 41 12q24 0 40 -12q16 -12 16 -36q0 -23 -16 -35q-16 -12 -40 -12q-25 0 -41 12q-16 12 -16 35zt0 0zM397 789q0 24 16 36q16 12 40 12q25 0 41 -12q16 -12 16 -36q0 -23 -16 -35q-16 -12 -41 -12q-24 0 -40 12t-16 35z" />
<glyph unicode="&#197;" horiz-adv-x="683" d="M230 788q0 20 9 36q9 16 25 27q16 11 36.5 17q20.5 6 44.5 6q19 0 38.5 -5q19.5 -5 35.5 -15q16 -10 25.5 -25.5q9.5 -15.5 9.5 -37.5q0 -37 -29.5 -58q-29.5 -21 -69.5 -24l252 -656q20 -4 39.5 -9q19.5 -5 36.5 -15l0 -29h-256v29q20 8 41 14q21 6 41 10l-68 183h-239l-66 -183q42 -6 86 -24l0 -29h-222v29q36 16 72 24l252 657q-42 4 -68 24q-26 20 -26 54zt0 0zM222 288h202l-79 212l-19 86h-2l-25 -88zM286 788q0 -20 17.5 -29q17.5 -9 36.5 -9q26 0 42 9q16 9 16 28q0 26 -18 36q-18 10 -37 10q-25 0 -41 -9.5t-16 -35.5z" />
<glyph unicode="&#198;" horiz-adv-x="921" d="M842 700q-1 -40 -3 -80.5q-2 -40.5 -8 -81.5l-25 0l-42 110h-217v-265h162l40 74h24q8 -99 0 -202l-24 0l-40 76h-162v-279h230l48 120h26q6 -42 9.5 -85q3.5 -43 1.5 -87l-493 0v29q35 16 82 24l0 203h-196l-116 -203q41 -6 85 -24l0 -29h-224v29q36 16 72 24l354 599q-14 4 -29 8.5q-15 4.5 -29 10.5l0 29zM285 308h166v303h-2l-41 -93z" />
<glyph unicode="&#199;" horiz-adv-x="644" d="M547 182h26q5 -28 9 -70.5q4 -42.5 2 -82.5q-17 -13 -40.5 -21q-23.5 -8 -49.5 -12.5q-26 -4.5 -52.5 -6q-26.5 -1.5 -49.5 -1.5l-24 -63q60 -1 88.5 -22.5q28.5 -21.5 28.5 -56.5q0 -30 -17.5 -52q-17.5 -22 -44 -37q-26.5 -15 -58.5 -22q-32 -7 -61 -7l0 33q40 6 67 22q27 16 26 45q-1 28 -23 40.5q-22 12.5 -67 15.5l36 108q-138 15 -214 101.5q-76 86.5 -76 256.5q0 98 27 166.5q27 68.5 73 112q46 43.5 107 63.5q61 20 128 20q66 0 111 -8.5q45 -8.5 79 -25.5q0 -16 -1 -37.5q-1 -21.5 -3 -45.5q-2 -24 -5 -47q-3 -23 -6 -42l-26 0l-52 144q-11 6 -36.5 8q-25.5 2 -50.5 2q-50 0 -94.5 -18.5q-44.5 -18.5 -78 -57q-33.5 -38.5 -53.5 -97q-20 -58.5 -20 -137.5q0 -71 18 -128.5q18 -57.5 52 -98q34 -40.5 83 -62q49 -21.5 111 -21.5q33 0 55 5q22 5 29 13z" />
<glyph unicode="&#200;" horiz-adv-x="582" d="M503 700q-1 -40 -3.5 -80.5q-2.5 -40.5 -7.5 -81.5l-26 0l-41 110h-218v-265h163l39 74h25q6 -99 0 -202l-25 0l-39 76h-163v-279h230l49 120h25q7 -42 10 -85q3 -43 1 -87l-493 0v29q35 16 82 24l0 593q-20 4 -41 10.5q-21 6.5 -41 14.5l0 29zM356 769l-18 -19l-225 91v20q6 7 19 13.5q13 6.5 28 11q15 4.5 29 6.5q14 2 22 1z" />
<glyph unicode="&#201;" horiz-adv-x="582" d="M503 700q-1 -40 -3.5 -80.5q-2.5 -40.5 -7.5 -81.5l-26 0l-41 110h-218v-265h163l39 74h25q6 -99 0 -202l-25 0l-39 76h-163v-279h230l49 120h25q7 -42 10 -85q3 -43 1 -87l-493 0v29q35 16 82 24l0 593q-20 4 -41 10.5q-21 6.5 -41 14.5l0 29zM361 893q9 1 23 -1q14 -2 28.5 -6.5q14.5 -4.5 27 -11q12.5 -6.5 18.5 -13.5l0 -20l-226 -91l-17 19z" />
<glyph unicode="&#202;" horiz-adv-x="582" d="M503 700q-1 -40 -3.5 -80.5q-2.5 -40.5 -7.5 -81.5l-26 0l-41 110h-218v-265h163l39 74h25q6 -99 0 -202l-25 0l-39 76h-163v-279h230l49 120h25q7 -42 10 -85q3 -43 1 -87l-493 0v29q35 16 82 24l0 593q-20 4 -41 10.5q-21 6.5 -41 14.5l0 29zM175 752l-14 19l127 112q5 3 12.5 3.5q7.5 0.5 13.5 -3.5l125 -109l-15 -21l-127 56z" />
<glyph unicode="&#203;" horiz-adv-x="582" d="M503 700q-1 -40 -3.5 -80.5q-2.5 -40.5 -7.5 -81.5l-26 0l-41 110h-218v-265h163l39 74h25q6 -99 0 -202l-25 0l-39 76h-163v-279h230l49 120h25q7 -42 10 -85q3 -43 1 -87l-493 0v29q35 16 82 24l0 593q-20 4 -41 10.5q-21 6.5 -41 14.5l0 29zM119 789q0 24 16 36q16 12 41 12q24 0 40 -12q16 -12 16 -36q0 -23 -16 -35q-16 -12 -40 -12q-25 0 -41 12q-16 12 -16 35zt0 0zM342 789q0 24 16 36q16 12 40 12q25 0 41 -12q16 -12 16 -36q0 -23 -16 -35q-16 -12 -41 -12q-24 0 -40 12t-16 35z" />
<glyph unicode="&#204;" horiz-adv-x="352" d="M304 0h-256v29q39 18 80 24l0 593q-20 4 -40 10.5q-20 6.5 -40 14.5l0 29h256v-29q-18 -8 -39 -14.5q-21 -6.5 -41 -10.5l0 -593q21 -4 42 -10q21 -6 38 -14zM278 769l-18 -19l-225 91v20q6 7 19 13.5q13 6.5 28 11q15 4.5 29 6.5q14 2 22 1z" />
<glyph unicode="&#205;" horiz-adv-x="352" d="M304 0h-256v29q39 18 80 24l0 593q-20 4 -40 10.5q-20 6.5 -40 14.5l0 29h256v-29q-18 -8 -39 -14.5q-21 -6.5 -41 -10.5l0 -593q21 -4 42 -10q21 -6 38 -14zM240 893q9 1 23 -1q14 -2 28.5 -6.5q14.5 -4.5 27 -11q12.5 -6.5 18.5 -13.5l0 -20l-226 -91l-17 19z" />
<glyph unicode="&#206;" horiz-adv-x="352" d="M304 0h-256v29q39 18 80 24l0 593q-20 4 -40 10.5q-20 6.5 -40 14.5l0 29h256v-29q-18 -8 -39 -14.5q-21 -6.5 -41 -10.5l0 -593q21 -4 42 -10q21 -6 38 -14zM51 752l-14 19l127 112q5 3 12.5 3.5q7.5 0.5 13.5 -3.5l125 -109l-15 -21l-127 56z" />
<glyph unicode="&#207;" horiz-adv-x="352" d="M304 0h-256v29q39 18 80 24l0 593q-20 4 -40 10.5q-20 6.5 -40 14.5l0 29h256v-29q-18 -8 -39 -14.5q-21 -6.5 -41 -10.5l0 -593q21 -4 42 -10q21 -6 38 -14zM8 789q0 24 16 36q16 12 41 12q24 0 40 -12q16 -12 16 -36q0 -23 -16 -35q-16 -12 -40 -12q-25 0 -41 12q-16 12 -16 35zt0 0zM231 789q0 24 16 36q16 12 40 12q25 0 41 -12q16 -12 16 -36q0 -23 -16 -35q-16 -12 -41 -12q-24 0 -40 12t-16 35z" />
<glyph unicode="&#208;" horiz-adv-x="709" d="M22 384h89v262q-23 5 -44 11.5q-21 6.5 -38 13.5l0 29h102q17 0 40 1q23 1 47.5 2.5q24.5 1.5 47 3q22.5 1.5 37.5 1.5q85 0 150.5 -23.5q65.5 -23.5 110.5 -68q45 -44.5 68.5 -109.5q23.5 -65 23.5 -148q0 -79 -22.5 -146.5q-22.5 -67.5 -68.5 -116.5q-46 -49 -116.5 -77q-70.5 -28 -166.5 -28q-14 0 -33.5 1.5q-19.5 1.5 -40.5 3q-21 1.5 -42.5 3q-21.5 1.5 -40.5 1.5h-96v29q35 16 82 24l0 279h-89zM289 656q-26 0 -50 -0.5q-24 -0.5 -38 -3.5l0 -268h167v-52h-167v-286q5 -1 18.5 -1.5q13.5 -0.5 28.5 -1q15 -0.5 28.5 -0.5q13.5 0 19.5 0q69 0 117 26q48 26 78 69.5q30 43.5 44 100.5q14 57 14 120q0 49 -13.5 101.5q-13.5 52.5 -44 96q-30.5 43.5 -80 71.5t-122.5 28z" />
<glyph unicode="&#209;" horiz-adv-x="732" d="M487 700h216v-29q-42 -28 -82 -40l0 -643h-57l-363 551l-39 78h-3l9 -78v-475q41 -11 77 -35l0 -29h-216v29q18 11 38.5 19.5q20.5 8.5 43.5 15.5l0 573q-20 8 -39.5 17q-19.5 9 -36.5 18l0 28h169l315 -475l46 -86h4l-5 86v406q-21 9 -40.5 19q-19.5 10 -36.5 21zM525 821q-32 -32 -58.5 -44q-26.5 -12 -51.5 -12q-19 0 -35.5 5.5q-16.5 5.5 -32.5 11.5q-16 6 -31 11.5q-15 5.5 -31 5.5q-14 0 -28.5 -5.5q-14.5 -5.5 -30.5 -19.5l-19 29q38 34 67.5 46.5q29.5 12.5 54.5 12.5q18 0 34.5 -5q16.5 -5 31.5 -11q15 -6 30 -11q15 -5 31 -5q13 0 26.5 4.5q13.5 4.5 29.5 15.5z" />
<glyph unicode="&#210;" horiz-adv-x="740" d="M53 350q0 78 21.5 144.5q21.5 66.5 62 115q40.5 48.5 99.5 75.5q59 27 134 27q75 0 134 -27q59 -27 99.5 -75.5q40.5 -48.5 62 -115q21.5 -66.5 21.5 -144.5q0 -78 -21.5 -144.5q-21.5 -66.5 -62 -115q-40.5 -48.5 -99.5 -75.5q-59 -27 -134 -27q-75 0 -134 27q-59 27 -99.5 75.5q-40.5 48.5 -62 115q-21.5 66.5 -21.5 144.5zt0 0zM160 350q0 -64 13.5 -120.5q13.5 -56.5 40.5 -98.5q27 -42 68 -66.5q41 -24.5 97 -24.5q51 0 89 24.5q38 24.5 62.5 66.5q24.5 42 37 98.5q12.5 56.5 12.5 120.5q0 64 -13 120.5q-13 56.5 -40 98.5q-27 42 -68 66.5q-41 24.5 -97 24.5q-55 0 -93.5 -24.5q-38.5 -24.5 -62.5 -66.5q-24 -42 -35 -98.5q-11 -56.5 -11 -120.5zt0 0zM438 769l-18 -19l-225 91v20q6 7 19 13.5q13 6.5 28 11q15 4.5 29 6.5q14 2 22 1z" />
<glyph unicode="&#211;" horiz-adv-x="740" d="M53 350q0 78 21.5 144.5q21.5 66.5 62 115q40.5 48.5 99.5 75.5q59 27 134 27q75 0 134 -27q59 -27 99.5 -75.5q40.5 -48.5 62 -115q21.5 -66.5 21.5 -144.5q0 -78 -21.5 -144.5q-21.5 -66.5 -62 -115q-40.5 -48.5 -99.5 -75.5q-59 -27 -134 -27q-75 0 -134 27q-59 27 -99.5 75.5q-40.5 48.5 -62 115q-21.5 66.5 -21.5 144.5zt0 0zM160 350q0 -64 13.5 -120.5q13.5 -56.5 40.5 -98.5q27 -42 68 -66.5q41 -24.5 97 -24.5q51 0 89 24.5q38 24.5 62.5 66.5q24.5 42 37 98.5q12.5 56.5 12.5 120.5q0 64 -13 120.5q-13 56.5 -40 98.5q-27 42 -68 66.5q-41 24.5 -97 24.5q-55 0 -93.5 -24.5q-38.5 -24.5 -62.5 -66.5q-24 -42 -35 -98.5q-11 -56.5 -11 -120.5zt0 0zM422 893q9 1 23 -1q14 -2 28.5 -6.5q14.5 -4.5 27 -11q12.5 -6.5 18.5 -13.5l0 -20l-226 -91l-17 19z" />
<glyph unicode="&#212;" horiz-adv-x="740" d="M53 350q0 78 21.5 144.5q21.5 66.5 62 115q40.5 48.5 99.5 75.5q59 27 134 27q75 0 134 -27q59 -27 99.5 -75.5q40.5 -48.5 62 -115q21.5 -66.5 21.5 -144.5q0 -78 -21.5 -144.5q-21.5 -66.5 -62 -115q-40.5 -48.5 -99.5 -75.5q-59 -27 -134 -27q-75 0 -134 27q-59 27 -99.5 75.5q-40.5 48.5 -62 115q-21.5 66.5 -21.5 144.5zt0 0zM160 350q0 -64 13.5 -120.5q13.5 -56.5 40.5 -98.5q27 -42 68 -66.5q41 -24.5 97 -24.5q51 0 89 24.5q38 24.5 62.5 66.5q24.5 42 37 98.5q12.5 56.5 12.5 120.5q0 64 -13 120.5q-13 56.5 -40 98.5q-27 42 -68 66.5q-41 24.5 -97 24.5q-55 0 -93.5 -24.5q-38.5 -24.5 -62.5 -66.5q-24 -42 -35 -98.5q-11 -56.5 -11 -120.5zt0 0zM245 752l-14 19l127 112q5 3 12.5 3.5q7.5 0.5 13.5 -3.5l125 -109l-15 -21l-127 56z" />
<glyph unicode="&#213;" horiz-adv-x="740" d="M53 350q0 78 21.5 144.5q21.5 66.5 62 115q40.5 48.5 99.5 75.5q59 27 134 27q75 0 134 -27q59 -27 99.5 -75.5q40.5 -48.5 62 -115q21.5 -66.5 21.5 -144.5q0 -78 -21.5 -144.5q-21.5 -66.5 -62 -115q-40.5 -48.5 -99.5 -75.5q-59 -27 -134 -27q-75 0 -134 27q-59 27 -99.5 75.5q-40.5 48.5 -62 115q-21.5 66.5 -21.5 144.5zt0 0zM160 350q0 -64 13.5 -120.5q13.5 -56.5 40.5 -98.5q27 -42 68 -66.5q41 -24.5 97 -24.5q51 0 89 24.5q38 24.5 62.5 66.5q24.5 42 37 98.5q12.5 56.5 12.5 120.5q0 64 -13 120.5q-13 56.5 -40 98.5q-27 42 -68 66.5q-41 24.5 -97 24.5q-55 0 -93.5 -24.5q-38.5 -24.5 -62.5 -66.5q-24 -42 -35 -98.5q-11 -56.5 -11 -120.5zt0 0zM529 821q-32 -32 -58.5 -44q-26.5 -12 -51.5 -12q-19 0 -35.5 5.5q-16.5 5.5 -32.5 11.5q-16 6 -31 11.5q-15 5.5 -31 5.5q-14 0 -28.5 -5.5q-14.5 -5.5 -30.5 -19.5l-19 29q38 34 67.5 46.5q29.5 12.5 54.5 12.5q18 0 34.5 -5q16.5 -5 31.5 -11q15 -6 30 -11q15 -5 31 -5q13 0 26.5 4.5q13.5 4.5 29.5 15.5z" />
<glyph unicode="&#214;" horiz-adv-x="740" d="M53 350q0 78 21.5 144.5q21.5 66.5 62 115q40.5 48.5 99.5 75.5q59 27 134 27q75 0 134 -27q59 -27 99.5 -75.5q40.5 -48.5 62 -115q21.5 -66.5 21.5 -144.5q0 -78 -21.5 -144.5q-21.5 -66.5 -62 -115q-40.5 -48.5 -99.5 -75.5q-59 -27 -134 -27q-75 0 -134 27q-59 27 -99.5 75.5q-40.5 48.5 -62 115q-21.5 66.5 -21.5 144.5zt0 0zM160 350q0 -64 13.5 -120.5q13.5 -56.5 40.5 -98.5q27 -42 68 -66.5q41 -24.5 97 -24.5q51 0 89 24.5q38 24.5 62.5 66.5q24.5 42 37 98.5q12.5 56.5 12.5 120.5q0 64 -13 120.5q-13 56.5 -40 98.5q-27 42 -68 66.5q-41 24.5 -97 24.5q-55 0 -93.5 -24.5q-38.5 -24.5 -62.5 -66.5q-24 -42 -35 -98.5q-11 -56.5 -11 -120.5zt0 0zM202 789q0 24 16 36q16 12 41 12q24 0 40 -12q16 -12 16 -36q0 -23 -16 -35q-16 -12 -40 -12q-25 0 -41 12q-16 12 -16 35zt0 0zM425 789q0 24 16 36q16 12 40 12q25 0 41 -12q16 -12 16 -36q0 -23 -16 -35q-16 -12 -41 -12q-24 0 -40 12t-16 35z" />
<glyph unicode="&#215;" horiz-adv-x="533" d="M88 204l140 140l-138 139l37 37l139 -138l140 140l37 -37l-140 -140l143 -143l-38 -38l-143 143l-140 -140z" />
<glyph unicode="&#216;" horiz-adv-x="740" d="M53 350q0 78 21.5 144.5q21.5 66.5 62 115q40.5 48.5 99.5 75.5q59 27 134 27q49 0 90.5 -12q41.5 -12 76.5 -33l28 46l51 -29l-34 -53q51 -49 78 -121q27 -72 27 -160q0 -78 -21.5 -144.5q-21.5 -66.5 -62 -115q-40.5 -48.5 -99.5 -75.5q-59 -27 -134 -27q-48 0 -89.5 11.5q-41.5 11.5 -76.5 31.5l-28 -44l-47 29l30 49q-52 49 -79 122q-27 73 -27 163zt0 0zM160 350q0 -60 12 -113q12 -53 36 -94l290 463q-26 26 -60 40q-34 14 -76 14q-55 0 -93.5 -24.5q-38.5 -24.5 -62.5 -66.5q-24 -42 -35 -98.5q-11 -56.5 -11 -120.5zt0 0zM580 350q0 60 -11.5 111.5q-11.5 51.5 -35.5 92.5l-289 -461q26 -26 59 -39.5q33 -13.5 76 -13.5q51 0 89 24.5q38 24.5 62.5 66.5q24.5 42 37 98.5t12.5 120.5z" />
<glyph unicode="&#217;" horiz-adv-x="672" d="M10 700h254v-29q-19 -8 -38 -14q-19 -6 -38 -11l0 -409q0 -53 11.5 -88.5q11.5 -35.5 33.5 -57q22 -21.5 54.5 -31q32.5 -9.5 73.5 -9.5q79 0 123 43.5q44 43.5 44 143.5v399q-23 8 -43 16.5q-20 8.5 -36 17.5l0 29h213v-29q-19 -11 -38.5 -20q-19.5 -9 -39.5 -14l0 -401q0 -64 -17 -110q-17 -46 -47.5 -76q-30.5 -30 -74 -44.5q-43.5 -14.5 -96.5 -14.5q-125 0 -191 56.5q-66 56.5 -66 173.5v425q-41 6 -82 25zM401 769l-18 -19l-225 91v20q6 7 19 13.5q13 6.5 28 11q15 4.5 29 6.5q14 2 22 1z" />
<glyph unicode="&#218;" horiz-adv-x="672" d="M10 700h254v-29q-19 -8 -38 -14q-19 -6 -38 -11l0 -409q0 -53 11.5 -88.5q11.5 -35.5 33.5 -57q22 -21.5 54.5 -31q32.5 -9.5 73.5 -9.5q79 0 123 43.5q44 43.5 44 143.5v399q-23 8 -43 16.5q-20 8.5 -36 17.5l0 29h213v-29q-19 -11 -38.5 -20q-19.5 -9 -39.5 -14l0 -401q0 -64 -17 -110q-17 -46 -47.5 -76q-30.5 -30 -74 -44.5q-43.5 -14.5 -96.5 -14.5q-125 0 -191 56.5q-66 56.5 -66 173.5v425q-41 6 -82 25zM465 893q9 1 23 -1q14 -2 28.5 -6.5q14.5 -4.5 27 -11q12.5 -6.5 18.5 -13.5l0 -20l-226 -91l-17 19z" />
<glyph unicode="&#219;" horiz-adv-x="672" d="M10 700h254v-29q-19 -8 -38 -14q-19 -6 -38 -11l0 -409q0 -53 11.5 -88.5q11.5 -35.5 33.5 -57q22 -21.5 54.5 -31q32.5 -9.5 73.5 -9.5q79 0 123 43.5q44 43.5 44 143.5v399q-23 8 -43 16.5q-20 8.5 -36 17.5l0 29h213v-29q-19 -11 -38.5 -20q-19.5 -9 -39.5 -14l0 -401q0 -64 -17 -110q-17 -46 -47.5 -76q-30.5 -30 -74 -44.5q-43.5 -14.5 -96.5 -14.5q-125 0 -191 56.5q-66 56.5 -66 173.5v425q-41 6 -82 25zM232 752l-14 19l127 112q5 3 12.5 3.5q7.5 0.5 13.5 -3.5l125 -109l-15 -21l-127 56z" />
<glyph unicode="&#220;" horiz-adv-x="672" d="M10 700h254v-29q-19 -8 -38 -14q-19 -6 -38 -11l0 -409q0 -53 11.5 -88.5q11.5 -35.5 33.5 -57q22 -21.5 54.5 -31q32.5 -9.5 73.5 -9.5q79 0 123 43.5q44 43.5 44 143.5v399q-23 8 -43 16.5q-20 8.5 -36 17.5l0 29h213v-29q-19 -11 -38.5 -20q-19.5 -9 -39.5 -14l0 -401q0 -64 -17 -110q-17 -46 -47.5 -76q-30.5 -30 -74 -44.5q-43.5 -14.5 -96.5 -14.5q-125 0 -191 56.5q-66 56.5 -66 173.5v425q-41 6 -82 25zM189 789q0 24 16 36q16 12 41 12q24 0 40 -12q16 -12 16 -36q0 -23 -16 -35q-16 -12 -40 -12q-25 0 -41 12q-16 12 -16 35zt0 0zM412 789q0 24 16 36q16 12 40 12q25 0 41 -12q16 -12 16 -36q0 -23 -16 -35q-16 -12 -41 -12q-24 0 -40 12t-16 35z" />
<glyph unicode="&#221;" horiz-adv-x="644" d="M424 700h220v-29q-38 -19 -76 -25l-189 -348v-245q39 -5 76 -24l0 -29h-254v29q36 18 82 24l0 244l-202 349q-23 4 -42.5 10.5q-19.5 6.5 -38.5 14.5l0 29h265v-29q-15 -6 -34 -12.5q-19 -6.5 -43 -12.5l164 -294l154 294q-23 5 -43.5 11.5q-20.5 6.5 -38.5 13.5zM465 893q9 1 23 -1q14 -2 28.5 -6.5q14.5 -4.5 27 -11q12.5 -6.5 18.5 -13.5l0 -20l-226 -91l-17 19z" />
<glyph unicode="&#222;" horiz-adv-x="595" d="M207 53q56 -8 96 -25l0 -28h-274v28q20 11 41 16q21 5 41 9l0 594q-41 8 -80 25l0 28h256v-28q-18 -9 -39 -15q-21 -6 -41 -10l0 -49q23 2 45.5 3q22.5 1 44.5 1q49 0 96 -10.5q47 -10.5 83.5 -35q36.5 -24.5 58.5 -65q22 -40.5 22 -100.5q0 -57 -23 -97.5q-23 -40.5 -61.5 -67q-38.5 -26.5 -87.5 -39q-49 -12.5 -101 -12.5q-5 0 -15.5 0q-10.5 0 -22.5 0.5q-12 0.5 -23 1.5q-11 1 -16 2zM275 550q-24 0 -39 -1q-15 -1 -29 -5l0 -313q5 -2 14.5 -2.5q9.5 -0.5 20 -1q10.5 -0.5 20.5 -0.5q10 0 16 0q35 0 66 9.5q31 9.5 54.5 29.5q23.5 20 37.5 51q14 31 14 74q0 78 -46.5 118.5t-128.5 40.5z" />
<glyph unicode="&#223;" horiz-adv-x="638" d="M433 590q0 22 -8.5 43q-8.5 21 -22.5 37.5q-14 16.5 -32 27q-18 10.5 -39 10.5q-27 0 -51 -5.5q-24 -5.5 -42.5 -24.5q-18.5 -19 -29.5 -55q-11 -36 -11 -97v-526h-156v25q31 18 66 24l0 401h-76v26q35 22 76 33l0 35q0 62 22 102.5q22 40.5 54.5 64q32.5 23.5 70.5 32.5q38 9 71 9q54 0 91.5 -15q37.5 -15 61 -40q23.5 -25 34 -57q10.5 -32 11.5 -66q-38 -5 -68 -14.5q-30 -9.5 -51 -25.5q-21 -16 -32 -39.5q-11 -23.5 -11 -56.5q0 -31 17.5 -53.5q17.5 -22.5 44 -42q26.5 -19.5 57.5 -38q31 -18.5 57.5 -42q26.5 -23.5 44 -53.5q17.5 -30 17.5 -71q0 -70 -48 -110q-48 -40 -137 -40q-83 0 -162 29q2 25 8.5 46.5q6.5 21.5 15.5 38.5l25 0l65 -62q11 -5 21.5 -6.5q10.5 -1.5 24.5 -1.5q48 0 72.5 24q24.5 24 24.5 58q0 33 -17.5 56q-17.5 23 -44 42.5q-26.5 19.5 -57.5 38q-31 18.5 -57.5 42.5q-26.5 24 -44 56q-17.5 32 -17.5 78q0 55 36.5 96t125.5 67z" />
<glyph unicode="&#224;" horiz-adv-x="505" d="M410 131q0 -22 1 -38q1 -16 2 -34l69 -10v-21q-25 -13 -55.5 -23q-30.5 -10 -58.5 -15l-25 0q-10 23 -12 50.5q-2 27.5 -3 60.5l-5 0q-4 -20 -15.5 -40.5q-11.5 -20.5 -30 -36.5q-18.5 -16 -43.5 -26q-25 -10 -57 -10q-61 0 -99.5 37q-38.5 37 -38.5 97q0 46 18.5 75.5q18.5 29.5 54.5 46.5q36 17 89 24.5q53 7.5 123 11.5q4 43 2.5 77.5q-1.5 34.5 -11 59q-9.5 24.5 -28 38q-18.5 13.5 -48.5 13.5q-14 0 -31.5 -1.5q-17.5 -1.5 -34.5 -8.5l-47 -120h-26q-10 30 -17.5 62q-7.5 32 -9.5 63q38 23 84.5 36q46.5 13 103.5 13q51 0 81.5 -14.5q30.5 -14.5 46.5 -37.5q16 -23 21 -51q5 -28 5 -56q0 -60 -2.5 -115.5q-2.5 -55.5 -2.5 -106.5zt0 0zM217 50q25 0 44 10q19 10 32 24q13 14 21 28.5q8 14.5 11 24.5l0 105q-58 0 -95 -6q-37 -6 -58 -19q-21 -13 -29 -32.5q-8 -19.5 -8 -44.5q0 -43 22 -66.5q22 -23.5 60 -23.5zt0 0zM316 593l-22 -17l-186 149v20q6 5 19.5 9.5q13.5 4.5 29.5 7.5q16 3 30.5 4.5q14.5 1.5 22.5 0.5z" />
<glyph unicode="&#225;" horiz-adv-x="505" d="M410 131q0 -22 1 -38q1 -16 2 -34l69 -10v-21q-25 -13 -55.5 -23q-30.5 -10 -58.5 -15l-25 0q-10 23 -12 50.5q-2 27.5 -3 60.5l-5 0q-4 -20 -15.5 -40.5q-11.5 -20.5 -30 -36.5q-18.5 -16 -43.5 -26q-25 -10 -57 -10q-61 0 -99.5 37q-38.5 37 -38.5 97q0 46 18.5 75.5q18.5 29.5 54.5 46.5q36 17 89 24.5q53 7.5 123 11.5q4 43 2.5 77.5q-1.5 34.5 -11 59q-9.5 24.5 -28 38q-18.5 13.5 -48.5 13.5q-14 0 -31.5 -1.5q-17.5 -1.5 -34.5 -8.5l-47 -120h-26q-10 30 -17.5 62q-7.5 32 -9.5 63q38 23 84.5 36q46.5 13 103.5 13q51 0 81.5 -14.5q30.5 -14.5 46.5 -37.5q16 -23 21 -51q5 -28 5 -56q0 -60 -2.5 -115.5q-2.5 -55.5 -2.5 -106.5zt0 0zM217 50q25 0 44 10q19 10 32 24q13 14 21 28.5q8 14.5 11 24.5l0 105q-58 0 -95 -6q-37 -6 -58 -19q-21 -13 -29 -32.5q-8 -19.5 -8 -44.5q0 -43 22 -66.5q22 -23.5 60 -23.5zt0 0zM305 767q8 1 21 -0.5q13 -1.5 27 -4.5q14 -3 26 -7.5q12 -4.5 18 -9.5l0 -19l-187 -151l-22 18z" />
<glyph unicode="&#226;" horiz-adv-x="505" d="M410 131q0 -22 1 -38q1 -16 2 -34l69 -10v-21q-25 -13 -55.5 -23q-30.5 -10 -58.5 -15l-25 0q-10 23 -12 50.5q-2 27.5 -3 60.5l-5 0q-4 -20 -15.5 -40.5q-11.5 -20.5 -30 -36.5q-18.5 -16 -43.5 -26q-25 -10 -57 -10q-61 0 -99.5 37q-38.5 37 -38.5 97q0 46 18.5 75.5q18.5 29.5 54.5 46.5q36 17 89 24.5q53 7.5 123 11.5q4 43 2.5 77.5q-1.5 34.5 -11 59q-9.5 24.5 -28 38q-18.5 13.5 -48.5 13.5q-14 0 -31.5 -1.5q-17.5 -1.5 -34.5 -8.5l-47 -120h-26q-10 30 -17.5 62q-7.5 32 -9.5 63q38 23 84.5 36q46.5 13 103.5 13q51 0 81.5 -14.5q30.5 -14.5 46.5 -37.5q16 -23 21 -51q5 -28 5 -56q0 -60 -2.5 -115.5q-2.5 -55.5 -2.5 -106.5zt0 0zM217 50q25 0 44 10q19 10 32 24q13 14 21 28.5q8 14.5 11 24.5l0 105q-58 0 -95 -6q-37 -6 -58 -19q-21 -13 -29 -32.5q-8 -19.5 -8 -44.5q0 -43 22 -66.5q22 -23.5 60 -23.5zt0 0zM157 590l-29 16l110 186q5 3 12.5 3.5q7.5 0.5 12.5 -3.5l114 -185l-27 -17l-103 107z" />
<glyph unicode="&#227;" horiz-adv-x="505" d="M410 131q0 -22 1 -38q1 -16 2 -34l69 -10v-21q-25 -13 -55.5 -23q-30.5 -10 -58.5 -15l-25 0q-10 23 -12 50.5q-2 27.5 -3 60.5l-5 0q-4 -20 -15.5 -40.5q-11.5 -20.5 -30 -36.5q-18.5 -16 -43.5 -26q-25 -10 -57 -10q-61 0 -99.5 37q-38.5 37 -38.5 97q0 46 18.5 75.5q18.5 29.5 54.5 46.5q36 17 89 24.5q53 7.5 123 11.5q4 43 2.5 77.5q-1.5 34.5 -11 59q-9.5 24.5 -28 38q-18.5 13.5 -48.5 13.5q-14 0 -31.5 -1.5q-17.5 -1.5 -34.5 -8.5l-47 -120h-26q-10 30 -17.5 62q-7.5 32 -9.5 63q38 23 84.5 36q46.5 13 103.5 13q51 0 81.5 -14.5q30.5 -14.5 46.5 -37.5q16 -23 21 -51q5 -28 5 -56q0 -60 -2.5 -115.5q-2.5 -55.5 -2.5 -106.5zt0 0zM217 50q25 0 44 10q19 10 32 24q13 14 21 28.5q8 14.5 11 24.5l0 105q-58 0 -95 -6q-37 -6 -58 -19q-21 -13 -29 -32.5q-8 -19.5 -8 -44.5q0 -43 22 -66.5q22 -23.5 60 -23.5zt0 0zM396 672q-32 -32 -58.5 -44.5q-26.5 -12.5 -49.5 -12.5q-18 0 -34 5.5q-16 5.5 -31 11.5q-15 6 -29.5 11.5q-14.5 5.5 -29.5 5.5q-13 0 -26.5 -5q-13.5 -5 -29.5 -19l-19 28q37 35 66 47q29 12 52 12q18 0 33.5 -5q15.5 -5 29.5 -11q14 -6 28.5 -11q14.5 -5 29.5 -5q13 0 26 4.5q13 4.5 29 15.5z" />
<glyph unicode="&#228;" horiz-adv-x="505" d="M410 131q0 -22 1 -38q1 -16 2 -34l69 -10v-21q-25 -13 -55.5 -23q-30.5 -10 -58.5 -15l-25 0q-10 23 -12 50.5q-2 27.5 -3 60.5l-5 0q-4 -20 -15.5 -40.5q-11.5 -20.5 -30 -36.5q-18.5 -16 -43.5 -26q-25 -10 -57 -10q-61 0 -99.5 37q-38.5 37 -38.5 97q0 46 18.5 75.5q18.5 29.5 54.5 46.5q36 17 89 24.5q53 7.5 123 11.5q4 43 2.5 77.5q-1.5 34.5 -11 59q-9.5 24.5 -28 38q-18.5 13.5 -48.5 13.5q-14 0 -31.5 -1.5q-17.5 -1.5 -34.5 -8.5l-47 -120h-26q-10 30 -17.5 62q-7.5 32 -9.5 63q38 23 84.5 36q46.5 13 103.5 13q51 0 81.5 -14.5q30.5 -14.5 46.5 -37.5q16 -23 21 -51q5 -28 5 -56q0 -60 -2.5 -115.5q-2.5 -55.5 -2.5 -106.5zt0 0zM217 50q25 0 44 10q19 10 32 24q13 14 21 28.5q8 14.5 11 24.5l0 105q-58 0 -95 -6q-37 -6 -58 -19q-21 -13 -29 -32.5q-8 -19.5 -8 -44.5q0 -43 22 -66.5q22 -23.5 60 -23.5zt0 0zM77 663q0 24 15 38.5q15 14.5 39 14.5q24 0 39 -14.5q15 -14.5 15 -38.5q0 -23 -15 -37q-15 -14 -39 -14q-24 0 -39 14q-15 14 -15 37zt0 0zM299 663q0 24 15 38.5q15 14.5 39 14.5q24 0 39 -14.5q15 -14.5 15 -38.5q0 -23 -15 -37q-15 -14 -39 -14q-24 0 -39 14t-15 37z" />
<glyph unicode="&#229;" horiz-adv-x="505" d="M410 131q0 -22 1 -38q1 -16 2 -34l69 -10v-21q-25 -13 -55.5 -23q-30.5 -10 -58.5 -15l-25 0q-10 23 -12 50.5q-2 27.5 -3 60.5l-5 0q-4 -20 -15.5 -40.5q-11.5 -20.5 -30 -36.5q-18.5 -16 -43.5 -26q-25 -10 -57 -10q-61 0 -99.5 37q-38.5 37 -38.5 97q0 46 18.5 75.5q18.5 29.5 54.5 46.5q36 17 89 24.5q53 7.5 123 11.5q4 43 2.5 77.5q-1.5 34.5 -11 59q-9.5 24.5 -28 38q-18.5 13.5 -48.5 13.5q-14 0 -31.5 -1.5q-17.5 -1.5 -34.5 -8.5l-47 -120h-26q-10 30 -17.5 62q-7.5 32 -9.5 63q38 23 84.5 36q46.5 13 103.5 13q51 0 81.5 -14.5q30.5 -14.5 46.5 -37.5q16 -23 21 -51q5 -28 5 -56q0 -60 -2.5 -115.5q-2.5 -55.5 -2.5 -106.5zt0 0zM217 50q25 0 44 10q19 10 32 24q13 14 21 28.5q8 14.5 11 24.5l0 105q-58 0 -95 -6q-37 -6 -58 -19q-21 -13 -29 -32.5q-8 -19.5 -8 -44.5q0 -43 22 -66.5q22 -23.5 60 -23.5zt0 0zM143 683q0 41 28.5 69q28.5 28 71.5 28q39 0 66.5 -25q27.5 -25 27.5 -69q0 -21 -8 -38q-8 -17 -21 -29q-13 -12 -30.5 -19q-17.5 -7 -35.5 -7q-45 0 -72 24q-27 24 -27 66zt0 0zM195 685q0 -26 13.5 -38.5q13.5 -12.5 30.5 -12.5q20 0 32.5 11.5q12.5 11.5 12.5 36.5q0 27 -12 42q-12 15 -32 15q-24 0 -34.5 -15t-10.5 -39z" />
<glyph unicode="&#230;" horiz-adv-x="778" d="M390 453q11 12 24 23q13 11 30.5 19q17.5 8 41 12.5q23.5 4.5 56.5 4.5q35 0 69 -9.5q34 -9.5 60.5 -31.5q26.5 -22 43 -58.5q16.5 -36.5 16.5 -90.5q0 -17 -1.5 -34.5q-1.5 -17.5 -5.5 -37.5l-310 0q0 -42 10.5 -78.5q10.5 -36.5 31 -63.5q20.5 -27 52 -42.5q31.5 -15.5 74.5 -15.5q17 0 35.5 2.5q18.5 2.5 35.5 7.5q17 5 31 11.5q14 6.5 23 14.5l15 -16q-8 -17 -25 -32q-17 -15 -39.5 -26q-22.5 -11 -48.5 -17.5q-26 -6.5 -53 -6.5q-27 0 -56.5 5q-29.5 5 -58 17.5q-28.5 12.5 -52.5 34q-24 21.5 -39 53.5q-8 -23 -24 -43q-16 -20 -38.5 -35q-22.5 -15 -50.5 -23.5q-28 -8.5 -60 -8.5q-61 0 -99.5 37q-38.5 37 -38.5 97q0 46 18.5 75.5q18.5 29.5 54.5 46.5q36 17 89 24.5q53 7.5 123 11.5q3 31 3 58q0 61 -19 95.5q-19 34.5 -69 34.5q-14 0 -31.5 -1.5q-17.5 -1.5 -34.5 -8.5l-47 -120h-26q-10 30 -17.5 62q-7.5 32 -9.5 63q38 23 84.5 36q46.5 13 103.5 13q57 0 87 -16.5q30 -16.5 42 -42.5zt0 0zM217 50q25 0 43.5 9.5q18.5 9.5 31.5 23q13 13.5 21 27.5q8 14 11 24l0 108q-58 0 -95 -6q-37 -6 -58 -19q-21 -13 -28.5 -32.5q-7.5 -19.5 -7.5 -44.5q0 -43 22 -66.5q22 -23.5 60 -23.5zt0 0zM538 468q-56 0 -86 -38.5q-30 -38.5 -36 -135.5l219 0q1 9 1.5 17.5q0.5 8.5 0.5 16.5q0 64 -24 102t-75 38z" />
<glyph unicode="&#231;" horiz-adv-x="466" d="M427 70q-19 -36 -60 -59q-41 -23 -98 -23l-21 -56q55 -2 79.5 -20.5q24.5 -18.5 26.5 -50.5q1 -29 -14.5 -50.5q-15.5 -21.5 -39.5 -35.5q-24 -14 -53 -20.5q-29 -6.5 -56 -5.5l0 30q38 5 61 20q23 15 22 46q-1 25 -20.5 36q-19.5 11 -61.5 14l34 97q-93 14 -139 83q-46 69 -46 175q0 127 62 194.5q62 67.5 169 67.5q49 0 87.5 -8.5q38.5 -8.5 65.5 -22.5q-3 -33 -11 -74q-8 -41 -20 -68l-27 0l-42 119q-7 5 -16 7.5q-9 2.5 -30 2.5q-68 0 -105 -49.5q-37 -49.5 -37 -167.5q0 -38 10.5 -74q10.5 -36 32 -64.5q21.5 -28.5 54 -45.5q32.5 -17 75.5 -17q35 0 61 10q26 10 44 24z" />
<glyph unicode="&#232;" horiz-adv-x="503" d="M446 70q-8 -17 -25 -32q-17 -15 -39 -26q-22 -11 -48 -17.5q-26 -6.5 -53 -6.5q-59 0 -104 18.5q-45 18.5 -75 53q-30 34.5 -45.5 82.5q-15.5 48 -15.5 108q0 128 59 195q59 67 167 67q35 0 69 -9.5q34 -9.5 60.5 -31.5q26.5 -22 43 -58.5q16.5 -36.5 16.5 -90.5q0 -17 -1.5 -34.5q-1.5 -17.5 -5.5 -37.5l-312 0q0 -42 10.5 -78.5q10.5 -36.5 31.5 -63.5q21 -27 53 -42.5q32 -15.5 75 -15.5q35 0 71 10q36 10 54 26zM263 468q-57 0 -87 -38.5q-30 -38.5 -36 -135.5l220 0q1 9 1.5 17.5q0.5 8.5 0.5 16.5q0 64 -24 102q-24 38 -75 38zt0 0zM325 593l-22 -17l-186 149v20q6 5 19.5 9.5q13.5 4.5 29.5 7.5q16 3 30.5 4.5q14.5 1.5 22.5 0.5z" />
<glyph unicode="&#233;" horiz-adv-x="503" d="M446 70q-8 -17 -25 -32q-17 -15 -39 -26q-22 -11 -48 -17.5q-26 -6.5 -53 -6.5q-59 0 -104 18.5q-45 18.5 -75 53q-30 34.5 -45.5 82.5q-15.5 48 -15.5 108q0 128 59 195q59 67 167 67q35 0 69 -9.5q34 -9.5 60.5 -31.5q26.5 -22 43 -58.5q16.5 -36.5 16.5 -90.5q0 -17 -1.5 -34.5q-1.5 -17.5 -5.5 -37.5l-312 0q0 -42 10.5 -78.5q10.5 -36.5 31.5 -63.5q21 -27 53 -42.5q32 -15.5 75 -15.5q35 0 71 10q36 10 54 26zM263 468q-57 0 -87 -38.5q-30 -38.5 -36 -135.5l220 0q1 9 1.5 17.5q0.5 8.5 0.5 16.5q0 64 -24 102q-24 38 -75 38zt0 0zM322 767q8 1 21 -0.5q13 -1.5 27 -4.5q14 -3 26 -7.5q12 -4.5 18 -9.5l0 -19l-187 -151l-22 18z" />
<glyph unicode="&#234;" horiz-adv-x="503" d="M446 70q-8 -17 -25 -32q-17 -15 -39 -26q-22 -11 -48 -17.5q-26 -6.5 -53 -6.5q-59 0 -104 18.5q-45 18.5 -75 53q-30 34.5 -45.5 82.5q-15.5 48 -15.5 108q0 128 59 195q59 67 167 67q35 0 69 -9.5q34 -9.5 60.5 -31.5q26.5 -22 43 -58.5q16.5 -36.5 16.5 -90.5q0 -17 -1.5 -34.5q-1.5 -17.5 -5.5 -37.5l-312 0q0 -42 10.5 -78.5q10.5 -36.5 31.5 -63.5q21 -27 53 -42.5q32 -15.5 75 -15.5q35 0 71 10q36 10 54 26zM263 468q-57 0 -87 -38.5q-30 -38.5 -36 -135.5l220 0q1 9 1.5 17.5q0.5 8.5 0.5 16.5q0 64 -24 102q-24 38 -75 38zt0 0zM166 590l-29 16l110 186q5 3 12.5 3.5q7.5 0.5 12.5 -3.5l114 -185l-27 -17l-103 107z" />
<glyph unicode="&#235;" horiz-adv-x="503" d="M446 70q-8 -17 -25 -32q-17 -15 -39 -26q-22 -11 -48 -17.5q-26 -6.5 -53 -6.5q-59 0 -104 18.5q-45 18.5 -75 53q-30 34.5 -45.5 82.5q-15.5 48 -15.5 108q0 128 59 195q59 67 167 67q35 0 69 -9.5q34 -9.5 60.5 -31.5q26.5 -22 43 -58.5q16.5 -36.5 16.5 -90.5q0 -17 -1.5 -34.5q-1.5 -17.5 -5.5 -37.5l-312 0q0 -42 10.5 -78.5q10.5 -36.5 31.5 -63.5q21 -27 53 -42.5q32 -15.5 75 -15.5q35 0 71 10q36 10 54 26zM263 468q-57 0 -87 -38.5q-30 -38.5 -36 -135.5l220 0q1 9 1.5 17.5q0.5 8.5 0.5 16.5q0 64 -24 102q-24 38 -75 38zt0 0zM93 663q0 24 15 38.5q15 14.5 39 14.5q24 0 39 -14.5q15 -14.5 15 -38.5q0 -23 -15 -37q-15 -14 -39 -14q-24 0 -39 14q-15 14 -15 37zt0 0zM315 663q0 24 15 38.5q15 14.5 39 14.5q24 0 39 -14.5q15 -14.5 15 -38.5q0 -23 -15 -37q-15 -14 -39 -14q-24 0 -39 14t-15 37z" />
<glyph unicode="&#236;" horiz-adv-x="301" d="M263 0h-222v25q15 8 31 13.5q16 5.5 35 10.5l0 393l-66 8v26q29 12 63 21q34 9 68 15l25 0v-463q20 -5 36 -10.5q16 -5.5 30 -13.5zM201 593l-22 -17l-186 149v20q6 5 19.5 9.5q13.5 4.5 29.5 7.5q16 3 30.5 4.5q14.5 1.5 22.5 0.5z" />
<glyph unicode="&#237;" horiz-adv-x="301" d="M263 0h-222v25q15 8 31 13.5q16 5.5 35 10.5l0 393l-66 8v26q29 12 63 21q34 9 68 15l25 0v-463q20 -5 36 -10.5q16 -5.5 30 -13.5zM199 767q8 1 21 -0.5q13 -1.5 27 -4.5q14 -3 26 -7.5q12 -4.5 18 -9.5l0 -19l-187 -151l-22 18z" />
<glyph unicode="&#238;" horiz-adv-x="301" d="M263 0h-222v25q15 8 31 13.5q16 5.5 35 10.5l0 393l-66 8v26q29 12 63 21q34 9 68 15l25 0v-463q20 -5 36 -10.5q16 -5.5 30 -13.5zM54 590l-29 16l110 186q5 3 12.5 3.5q7.5 0.5 12.5 -3.5l114 -185l-27 -17l-103 107z" />
<glyph unicode="&#239;" horiz-adv-x="301" d="M263 0h-222v25q15 8 31 13.5q16 5.5 35 10.5l0 393l-66 8v26q29 12 63 21q34 9 68 15l25 0v-463q20 -5 36 -10.5q16 -5.5 30 -13.5zM-15 663q0 24 15 38.5q15 14.5 39 14.5q24 0 39 -14.5q15 -14.5 15 -38.5q0 -23 -15 -37q-15 -14 -39 -14q-24 0 -39 14q-15 14 -15 37zt0 0zM207 663q0 24 15 38.5q15 14.5 39 14.5q24 0 39 -14.5q15 -14.5 15 -38.5q0 -23 -15 -37q-15 -14 -39 -14q-24 0 -39 14t-15 37z" />
<glyph unicode="&#240;" horiz-adv-x="535" d="M158 604l114 46q-26 27 -56.5 48.5q-30.5 21.5 -64.5 34.5l0 17h61q31 -9 62.5 -27.5q31.5 -18.5 60.5 -46.5l110 46l19 -43l-93 -38q54 -63 90 -152q36 -89 36 -200q0 -65 -14.5 -120.5q-14.5 -55.5 -44 -95.5q-29.5 -40 -73.5 -62.5q-44 -22.5 -103 -22.5q-54 0 -97.5 18.5q-43.5 18.5 -74 52.5q-30.5 34 -46.5 80.5q-16 46.5 -16 102.5q0 67 19 118q19 51 49.5 84.5q30.5 33.5 69.5 50.5q39 17 79 17q53 0 85.5 -16.5q32.5 -16.5 55.5 -40.5q-12 38 -32.5 79q-20.5 41 -49.5 79l-126 -52zM124 242q0 -41 9.5 -78.5q9.5 -37.5 28.5 -66.5q19 -29 45.5 -46q26.5 -17 61.5 -17q32 0 57 17q25 17 41.5 48.5q16.5 31.5 25 75.5q8.5 44 8.5 99q0 53 -3.5 84q-3.5 31 -6.5 44q-15 25 -47.5 41.5q-32.5 16.5 -79.5 16.5q-61 0 -100.5 -54.5t-39.5 -163.5z" />
<glyph unicode="&#241;" horiz-adv-x="594" d="M577 0h-215v25q27 14 59 24l0 237q0 76 -22 120q-22 44 -80 44q-25 0 -46.5 -9q-21.5 -9 -38 -24.5q-16.5 -15.5 -28.5 -35q-12 -19.5 -19 -40.5l0 -292q31 -6 60 -24l0 -25h-216v25q25 13 66 24l0 393l-66 8v26q26 11 60 20q34 9 71 16l25 0v-112h1q21 46 60.5 79q39.5 33 95.5 33q40 0 71.5 -9.5q31.5 -9.5 52.5 -33.5q21 -24 32 -64.5q11 -40.5 11 -102.5v-253q40 -7 66 -24zM451 672q-32 -32 -58.5 -44.5q-26.5 -12.5 -49.5 -12.5q-18 0 -34 5.5q-16 5.5 -31 11.5q-15 6 -29.5 11.5q-14.5 5.5 -29.5 5.5q-13 0 -26.5 -5q-13.5 -5 -29.5 -19l-19 28q37 35 66 47q29 12 52 12q18 0 33.5 -5q15.5 -5 29.5 -11q14 -6 28.5 -11q14.5 -5 29.5 -5q13 0 26 4.5q13 4.5 29 15.5z" />
<glyph unicode="&#242;" horiz-adv-x="553" d="M41 250q0 63 16.5 111.5q16.5 48.5 47.5 82q31 33.5 74.5 51q43.5 17.5 96.5 17.5q62 0 107 -19q45 -19 73.5 -53.5q28.5 -34.5 42 -82.5q13.5 -48 13.5 -107q0 -126 -64 -194q-64 -68 -172 -68q-60 0 -104 18.5q-44 18.5 -73 53q-29 34.5 -43.5 83q-14.5 48.5 -14.5 107.5zt0 0zM137 250q0 -45 8.5 -85q8.5 -40 27 -69.5q18.5 -29.5 48.5 -46.5q30 -17 72 -17q54 0 88.5 53q34.5 53 34.5 165q0 46 -8.5 85.5q-8.5 39.5 -26.5 69q-18 29.5 -46 46.5q-28 17 -67 17q-59 0 -95 -53q-36 -53 -36 -165zt0 0zM340 593l-22 -17l-186 149v20q6 5 19.5 9.5q13.5 4.5 29.5 7.5q16 3 30.5 4.5q14.5 1.5 22.5 0.5z" />
<glyph unicode="&#243;" horiz-adv-x="553" d="M41 250q0 63 16.5 111.5q16.5 48.5 47.5 82q31 33.5 74.5 51q43.5 17.5 96.5 17.5q62 0 107 -19q45 -19 73.5 -53.5q28.5 -34.5 42 -82.5q13.5 -48 13.5 -107q0 -126 -64 -194q-64 -68 -172 -68q-60 0 -104 18.5q-44 18.5 -73 53q-29 34.5 -43.5 83q-14.5 48.5 -14.5 107.5zt0 0zM137 250q0 -45 8.5 -85q8.5 -40 27 -69.5q18.5 -29.5 48.5 -46.5q30 -17 72 -17q54 0 88.5 53q34.5 53 34.5 165q0 46 -8.5 85.5q-8.5 39.5 -26.5 69q-18 29.5 -46 46.5q-28 17 -67 17q-59 0 -95 -53q-36 -53 -36 -165zt0 0zM329 767q8 1 21 -0.5q13 -1.5 27 -4.5q14 -3 26 -7.5q12 -4.5 18 -9.5l0 -19l-187 -151l-22 18z" />
<glyph unicode="&#244;" horiz-adv-x="553" d="M41 250q0 63 16.5 111.5q16.5 48.5 47.5 82q31 33.5 74.5 51q43.5 17.5 96.5 17.5q62 0 107 -19q45 -19 73.5 -53.5q28.5 -34.5 42 -82.5q13.5 -48 13.5 -107q0 -126 -64 -194q-64 -68 -172 -68q-60 0 -104 18.5q-44 18.5 -73 53q-29 34.5 -43.5 83q-14.5 48.5 -14.5 107.5zt0 0zM137 250q0 -45 8.5 -85q8.5 -40 27 -69.5q18.5 -29.5 48.5 -46.5q30 -17 72 -17q54 0 88.5 53q34.5 53 34.5 165q0 46 -8.5 85.5q-8.5 39.5 -26.5 69q-18 29.5 -46 46.5q-28 17 -67 17q-59 0 -95 -53q-36 -53 -36 -165zt0 0zM180 590l-29 16l110 186q5 3 12.5 3.5q7.5 0.5 12.5 -3.5l114 -185l-27 -17l-103 107z" />
<glyph unicode="&#245;" horiz-adv-x="553" d="M41 250q0 63 16.5 111.5q16.5 48.5 47.5 82q31 33.5 74.5 51q43.5 17.5 96.5 17.5q62 0 107 -19q45 -19 73.5 -53.5q28.5 -34.5 42 -82.5q13.5 -48 13.5 -107q0 -126 -64 -194q-64 -68 -172 -68q-60 0 -104 18.5q-44 18.5 -73 53q-29 34.5 -43.5 83q-14.5 48.5 -14.5 107.5zt0 0zM137 250q0 -45 8.5 -85q8.5 -40 27 -69.5q18.5 -29.5 48.5 -46.5q30 -17 72 -17q54 0 88.5 53q34.5 53 34.5 165q0 46 -8.5 85.5q-8.5 39.5 -26.5 69q-18 29.5 -46 46.5q-28 17 -67 17q-59 0 -95 -53q-36 -53 -36 -165zt0 0zM429 672q-32 -32 -58.5 -44.5q-26.5 -12.5 -49.5 -12.5q-18 0 -34 5.5q-16 5.5 -31 11.5q-15 6 -29.5 11.5q-14.5 5.5 -29.5 5.5q-13 0 -26.5 -5q-13.5 -5 -29.5 -19l-19 28q37 35 66 47q29 12 52 12q18 0 33.5 -5q15.5 -5 29.5 -11q14 -6 28.5 -11q14.5 -5 29.5 -5q13 0 26 4.5q13 4.5 29 15.5z" />
<glyph unicode="&#246;" horiz-adv-x="553" d="M41 250q0 63 16.5 111.5q16.5 48.5 47.5 82q31 33.5 74.5 51q43.5 17.5 96.5 17.5q62 0 107 -19q45 -19 73.5 -53.5q28.5 -34.5 42 -82.5q13.5 -48 13.5 -107q0 -126 -64 -194q-64 -68 -172 -68q-60 0 -104 18.5q-44 18.5 -73 53q-29 34.5 -43.5 83q-14.5 48.5 -14.5 107.5zt0 0zM137 250q0 -45 8.5 -85q8.5 -40 27 -69.5q18.5 -29.5 48.5 -46.5q30 -17 72 -17q54 0 88.5 53q34.5 53 34.5 165q0 46 -8.5 85.5q-8.5 39.5 -26.5 69q-18 29.5 -46 46.5q-28 17 -67 17q-59 0 -95 -53q-36 -53 -36 -165zt0 0zM111 663q0 24 15 38.5q15 14.5 39 14.5q24 0 39 -14.5q15 -14.5 15 -38.5q0 -23 -15 -37q-15 -14 -39 -14q-24 0 -39 14q-15 14 -15 37zt0 0zM333 663q0 24 15 38.5q15 14.5 39 14.5q24 0 39 -14.5q15 -14.5 15 -38.5q0 -23 -15 -37q-15 -14 -39 -14q-24 0 -39 14t-15 37z" />
<glyph unicode="&#247;" horiz-adv-x="533" d="M42 372h450v-53h-450zM198 535q0 30 19 48q19 18 49 18q31 0 50 -18q19 -18 19 -48q0 -29 -19 -47q-19 -18 -50 -18q-30 0 -49 18q-19 18 -19 47zt0 0zM198 154q0 30 19 48q19 18 49 18q31 0 50 -18q19 -18 19 -48q0 -29 -19 -47q-19 -18 -50 -18q-30 0 -49 18t-19 47z" />
<glyph unicode="&#248;" horiz-adv-x="553" d="M116 41q-38 35 -56.5 88q-18.5 53 -18.5 121q0 63 16.5 111.5q16.5 48.5 47.5 82q31 33.5 74.5 51q43.5 17.5 96.5 17.5q77 0 128 -30l46 71l38 -26l-47 -71q36 -35 53.5 -87.5q17.5 -52.5 17.5 -118.5q0 -126 -64 -194q-64 -68 -172 -68q-36 0 -66.5 7q-30.5 7 -55.5 20l-50 -77l-38 27zM137 250q0 -39 6.5 -73.5q6.5 -34.5 20.5 -62.5l202 311q-18 21 -42 32q-24 11 -56 11q-60 0 -95.5 -53q-35.5 -53 -35.5 -165zt0 0zM416 250q0 37 -6 70q-6 33 -19 61l-200 -310q36 -39 102 -39q54 0 88.5 53t34.5 165z" />
<glyph unicode="&#249;" horiz-adv-x="574" d="M77 198q0 63 3 123.5q3 60.5 3 120.5l-66 8v26q32 12 65.5 21q33.5 9 65.5 15l25 0q0 -75 -3 -149q-3 -74 -3 -147q0 -39 4.5 -70q4.5 -31 16 -52q11.5 -21 31.5 -32.5q20 -11.5 51 -11.5q45 0 75.5 32.5q30.5 32.5 47.5 84.5l0 275l-65 8v26q31 12 64.5 21q33.5 9 65.5 15l25 0v-455l66 -8v-21q-29 -13 -58.5 -23q-29.5 -10 -61.5 -15l-25 0l-7 119h-4q-5 -21 -17.5 -42.5q-12.5 -21.5 -32.5 -39q-20 -17.5 -45.5 -28.5q-25.5 -11 -55.5 -11q-40 0 -70.5 9.5q-30.5 9.5 -51.5 33.5q-21 24 -32 64.5q-11 40.5 -11 102.5zt0 0zM351 593l-22 -17l-186 149v20q6 5 19.5 9.5q13.5 4.5 29.5 7.5q16 3 30.5 4.5q14.5 1.5 22.5 0.5z" />
<glyph unicode="&#250;" horiz-adv-x="574" d="M77 198q0 63 3 123.5q3 60.5 3 120.5l-66 8v26q32 12 65.5 21q33.5 9 65.5 15l25 0q0 -75 -3 -149q-3 -74 -3 -147q0 -39 4.5 -70q4.5 -31 16 -52q11.5 -21 31.5 -32.5q20 -11.5 51 -11.5q45 0 75.5 32.5q30.5 32.5 47.5 84.5l0 275l-65 8v26q31 12 64.5 21q33.5 9 65.5 15l25 0v-455l66 -8v-21q-29 -13 -58.5 -23q-29.5 -10 -61.5 -15l-25 0l-7 119h-4q-5 -21 -17.5 -42.5q-12.5 -21.5 -32.5 -39q-20 -17.5 -45.5 -28.5q-25.5 -11 -55.5 -11q-40 0 -70.5 9.5q-30.5 9.5 -51.5 33.5q-21 24 -32 64.5q-11 40.5 -11 102.5zt0 0zM338 767q8 1 21 -0.5q13 -1.5 27 -4.5q14 -3 26 -7.5q12 -4.5 18 -9.5l0 -19l-187 -151l-22 18z" />
<glyph unicode="&#251;" horiz-adv-x="574" d="M77 198q0 63 3 123.5q3 60.5 3 120.5l-66 8v26q32 12 65.5 21q33.5 9 65.5 15l25 0q0 -75 -3 -149q-3 -74 -3 -147q0 -39 4.5 -70q4.5 -31 16 -52q11.5 -21 31.5 -32.5q20 -11.5 51 -11.5q45 0 75.5 32.5q30.5 32.5 47.5 84.5l0 275l-65 8v26q31 12 64.5 21q33.5 9 65.5 15l25 0v-455l66 -8v-21q-29 -13 -58.5 -23q-29.5 -10 -61.5 -15l-25 0l-7 119h-4q-5 -21 -17.5 -42.5q-12.5 -21.5 -32.5 -39q-20 -17.5 -45.5 -28.5q-25.5 -11 -55.5 -11q-40 0 -70.5 9.5q-30.5 9.5 -51.5 33.5q-21 24 -32 64.5q-11 40.5 -11 102.5zt0 0zM190 590l-29 16l110 186q5 3 12.5 3.5q7.5 0.5 12.5 -3.5l114 -185l-27 -17l-103 107z" />
<glyph unicode="&#252;" horiz-adv-x="574" d="M77 198q0 63 3 123.5q3 60.5 3 120.5l-66 8v26q32 12 65.5 21q33.5 9 65.5 15l25 0q0 -75 -3 -149q-3 -74 -3 -147q0 -39 4.5 -70q4.5 -31 16 -52q11.5 -21 31.5 -32.5q20 -11.5 51 -11.5q45 0 75.5 32.5q30.5 32.5 47.5 84.5l0 275l-65 8v26q31 12 64.5 21q33.5 9 65.5 15l25 0v-455l66 -8v-21q-29 -13 -58.5 -23q-29.5 -10 -61.5 -15l-25 0l-7 119h-4q-5 -21 -17.5 -42.5q-12.5 -21.5 -32.5 -39q-20 -17.5 -45.5 -28.5q-25.5 -11 -55.5 -11q-40 0 -70.5 9.5q-30.5 9.5 -51.5 33.5q-21 24 -32 64.5q-11 40.5 -11 102.5zt0 0zM121 663q0 24 15 38.5q15 14.5 39 14.5q24 0 39 -14.5q15 -14.5 15 -38.5q0 -23 -15 -37q-15 -14 -39 -14q-24 0 -39 14q-15 14 -15 37zt0 0zM343 663q0 24 15 38.5q15 14.5 39 14.5q24 0 39 -14.5q15 -14.5 15 -38.5q0 -23 -15 -37q-15 -14 -39 -14q-24 0 -39 14t-15 37z" />
<glyph unicode="&#253;" horiz-adv-x="505" d="M42 450q-15 4 -27.5 10q-12.5 6 -25.5 14l0 26h209v-25q-21 -14 -57 -25l128 -296l19 -62h2l15 63l95 295q-30 6 -55 24l0 26h171v-26q-21 -14 -57 -24l-156 -450q-24 -64 -45.5 -103.5q-21.5 -39.5 -43 -62.5q-21.5 -23 -44 -33.5q-22.5 -10.5 -48.5 -15.5q-11 19 -19.5 42q-8.5 23 -14.5 44l13 24h104q6 8 10.5 15.5q4.5 7.5 9.5 18.5q5 11 11 28q6 17 14 43zM315 767q8 1 21 -0.5q13 -1.5 27 -4.5q14 -3 26 -7.5q12 -4.5 18 -9.5l0 -19l-187 -151l-22 18z" />
<glyph unicode="&#254;" horiz-adv-x="566" d="M95 682l-76 8v26q26 12 65 21q39 9 76 15l25 0v-352h1q20 51 56 81.5q36 30.5 94 30.5q89 0 138 -59q49 -59 49 -192q0 -63 -16.5 -114q-16.5 -51 -47 -86q-30.5 -35 -74 -54q-43.5 -19 -96.5 -19q-37 0 -58 4.5q-21 4.5 -46 15.5l0 -159q16 -2 32 -7.5q16 -5.5 34 -16.5l0 -25h-222v25q34 16 66 24zM304 450q-49 0 -78 -31q-29 -31 -41 -85l0 -280q18 -11 40.5 -16.5q22.5 -5.5 58.5 -5.5q33 0 59.5 17q26.5 17 45 48q18.5 31 28.5 72.5q10 41.5 10 91.5q0 41 -6.5 75.5q-6.5 34.5 -21 60q-14.5 25.5 -38 39.5t-57.5 14z" />
<glyph unicode="&#255;" horiz-adv-x="505" d="M42 450q-15 4 -27.5 10q-12.5 6 -25.5 14l0 26h209v-25q-21 -14 -57 -25l128 -296l19 -62h2l15 63l95 295q-30 6 -55 24l0 26h171v-26q-21 -14 -57 -24l-156 -450q-24 -64 -45.5 -103.5q-21.5 -39.5 -43 -62.5q-21.5 -23 -44 -33.5q-22.5 -10.5 -48.5 -15.5q-11 19 -19.5 42q-8.5 23 -14.5 44l13 24h104q6 8 10.5 15.5q4.5 7.5 9.5 18.5q5 11 11 28q6 17 14 43zM98 663q0 24 15 38.5q15 14.5 39 14.5q24 0 39 -14.5q15 -14.5 15 -38.5q0 -23 -15 -37q-15 -14 -39 -14q-24 0 -39 14q-15 14 -15 37zt0 0zM320 663q0 24 15 38.5q15 14.5 39 14.5q24 0 39 -14.5q15 -14.5 15 -38.5q0 -23 -15 -37q-15 -14 -39 -14q-24 0 -39 14t-15 37z" />
<glyph unicode="&#256;" horiz-adv-x="683" d="M222 0h-222v29q36 16 72 24l253 659h29l253 -659q20 -4 39.5 -9q19.5 -5 36.5 -15l0 -29h-256v29q20 8 41 14q21 6 41 10l-68 183h-239l-66 -183q42 -6 86 -24zM222 288h202l-79 212l-19 86h-2l-25 -88zM192 788v52h301l0 -52z" />
<glyph unicode="&#257;" horiz-adv-x="505" d="M410 131q0 -22 1 -38q1 -16 2 -34l69 -10v-21q-25 -13 -55.5 -23q-30.5 -10 -58.5 -15l-25 0q-10 23 -12 50.5q-2 27.5 -3 60.5l-5 0q-4 -20 -15.5 -40.5q-11.5 -20.5 -30 -36.5q-18.5 -16 -43.5 -26q-25 -10 -57 -10q-61 0 -99.5 37q-38.5 37 -38.5 97q0 46 18.5 75.5q18.5 29.5 54.5 46.5q36 17 89 24.5q53 7.5 123 11.5q4 43 2.5 77.5q-1.5 34.5 -11 59q-9.5 24.5 -28 38q-18.5 13.5 -48.5 13.5q-14 0 -31.5 -1.5q-17.5 -1.5 -34.5 -8.5l-47 -120h-26q-10 30 -17.5 62q-7.5 32 -9.5 63q38 23 84.5 36q46.5 13 103.5 13q51 0 81.5 -14.5q30.5 -14.5 46.5 -37.5q16 -23 21 -51q5 -28 5 -56q0 -60 -2.5 -115.5q-2.5 -55.5 -2.5 -106.5zt0 0zM217 50q25 0 44 10q19 10 32 24q13 14 21 28.5q8 14.5 11 24.5l0 105q-58 0 -95 -6q-37 -6 -58 -19q-21 -13 -29 -32.5q-8 -19.5 -8 -44.5q0 -43 22 -66.5q22 -23.5 60 -23.5zt0 0zM125 637v52h253l0 -52z" />
<glyph unicode="&#258;" horiz-adv-x="683" d="M222 0h-222v29q36 16 72 24l253 659h29l253 -659q20 -4 39.5 -9q19.5 -5 36.5 -15l0 -29h-256v29q20 8 41 14q21 6 41 10l-68 183h-239l-66 -183q42 -6 86 -24zM222 288h202l-79 212l-19 86h-2l-25 -88zM461 883q16 2 32 -14q-9 -22 -23.5 -42q-14.5 -20 -34 -35q-19.5 -15 -42.5 -24q-23 -9 -48 -9q-54 0 -94.5 29q-40.5 29 -59.5 83q12 19 42 15q7 -12 19.5 -22.5q12.5 -10.5 28.5 -18q16 -7.5 33 -12q17 -4.5 32 -4.5q32 -1 63.5 11t51.5 43z" />
<glyph unicode="&#259;" horiz-adv-x="505" d="M410 131q0 -22 1 -38q1 -16 2 -34l69 -10v-21q-25 -13 -55.5 -23q-30.5 -10 -58.5 -15l-25 0q-10 23 -12 50.5q-2 27.5 -3 60.5l-5 0q-4 -20 -15.5 -40.5q-11.5 -20.5 -30 -36.5q-18.5 -16 -43.5 -26q-25 -10 -57 -10q-61 0 -99.5 37q-38.5 37 -38.5 97q0 46 18.5 75.5q18.5 29.5 54.5 46.5q36 17 89 24.5q53 7.5 123 11.5q4 43 2.5 77.5q-1.5 34.5 -11 59q-9.5 24.5 -28 38q-18.5 13.5 -48.5 13.5q-14 0 -31.5 -1.5q-17.5 -1.5 -34.5 -8.5l-47 -120h-26q-10 30 -17.5 62q-7.5 32 -9.5 63q38 23 84.5 36q46.5 13 103.5 13q51 0 81.5 -14.5q30.5 -14.5 46.5 -37.5q16 -23 21 -51q5 -28 5 -56q0 -60 -2.5 -115.5q-2.5 -55.5 -2.5 -106.5zt0 0zM217 50q25 0 44 10q19 10 32 24q13 14 21 28.5q8 14.5 11 24.5l0 105q-58 0 -95 -6q-37 -6 -58 -19q-21 -13 -29 -32.5q-8 -19.5 -8 -44.5q0 -43 22 -66.5q22 -23.5 60 -23.5zt0 0zM388 719q-9 -22 -21.5 -44q-12.5 -22 -29.5 -39q-17 -17 -37.5 -28q-20.5 -11 -45.5 -11q-27 0 -48 9.5q-21 9.5 -38 26q-17 16.5 -30 39q-13 22.5 -22 49.5l28 13q7 -13 19.5 -24.5q12.5 -11.5 27.5 -20.5q15 -9 32 -14.5q17 -5.5 32 -5.5q68 -2 109 61z" />
<glyph unicode="&#260;" horiz-adv-x="683" d="M222 0h-222v29q36 16 72 24l253 659h29l253 -659q20 -4 39.5 -9q19.5 -5 36.5 -15l0 -29h-42q-43 -24 -72 -57.5q-29 -33.5 -29 -77.5q0 -28 18 -46q18 -18 49 -18q31 0 55 6l0 -29q-14 -11 -36 -20q-22 -9 -55 -9q-23 0 -43.5 7q-20.5 7 -36 20q-15.5 13 -24.5 31.5q-9 18.5 -9 40.5q0 26 9.5 47.5q9.5 21.5 26.5 40q17 18.5 40.5 34q23.5 15.5 51.5 30.5l-159 0v29q20 8 41 14q21 6 41 10l-68 183h-239l-66 -183q42 -6 86 -24zM222 288h202l-79 212l-19 86h-2l-25 -88z" />
<glyph unicode="&#261;" horiz-adv-x="505" d="M410 131q0 -22 1 -38q1 -16 2 -34l69 -10v-21q-7 -4 -14 -7q-7 -3 -15 -6q-44 -23 -73.5 -55.5q-29.5 -32.5 -29.5 -77.5q0 -10 3.5 -20.5q3.5 -10.5 10.5 -19.5q7 -9 18 -14.5q11 -5.5 26 -5.5q14 0 26.5 2.5q12.5 2.5 26.5 6.5l0 -33q-14 -8 -35.5 -14q-21.5 -6 -39.5 -6q-60 0 -90 25q-30 25 -30 63q0 40 26 70.5q26 30.5 68 53.5l-8 0h-9q-10 23 -12 50.5q-2 27.5 -3 60.5l-5 0q-4 -20 -15.5 -40.5q-11.5 -20.5 -30 -36.5q-18.5 -16 -43.5 -26q-25 -10 -57 -10q-61 0 -99.5 37q-38.5 37 -38.5 97q0 46 18.5 75.5q18.5 29.5 54.5 46.5q36 17 89 24.5q53 7.5 123 11.5q4 43 2.5 77.5q-1.5 34.5 -11 59q-9.5 24.5 -28 38q-18.5 13.5 -48.5 13.5q-14 0 -31.5 -1.5q-17.5 -1.5 -34.5 -8.5l-47 -120h-26q-10 30 -17.5 62q-7.5 32 -9.5 63q38 23 84.5 36q46.5 13 103.5 13q51 0 81.5 -14.5q30.5 -14.5 46.5 -37.5q16 -23 21 -51q5 -28 5 -56q0 -60 -2.5 -115.5q-2.5 -55.5 -2.5 -106.5zt0 0zM217 50q25 0 44 10q19 10 32 24q13 14 21 28.5q8 14.5 11 24.5l0 105q-58 0 -95 -6q-37 -6 -58 -19q-21 -13 -29 -32.5q-8 -19.5 -8 -44.5q0 -43 22 -66.5t60 -23.5z" />
<glyph unicode="&#262;" horiz-adv-x="644" d="M547 182h26q5 -28 9 -70.5q4 -42.5 2 -82.5q-15 -12 -36 -19.5q-21 -7.5 -44.5 -12.5q-23.5 -5 -48 -7q-24.5 -2 -46.5 -2q-84 0 -150 21.5q-66 21.5 -111.5 65.5q-45.5 44 -70 112.5q-24.5 68.5 -24.5 162.5q0 98 27 166.5q27 68.5 73 112q46 43.5 107 63.5q61 20 128 20q66 0 111 -8.5q45 -8.5 79 -25.5q0 -16 -1 -37.5q-1 -21.5 -3 -45.5q-2 -24 -5 -47q-3 -23 -6 -42l-26 0l-52 144q-11 6 -36.5 8q-25.5 2 -50.5 2q-50 0 -94.5 -18.5q-44.5 -18.5 -78 -57q-33.5 -38.5 -53.5 -97q-20 -58.5 -20 -137.5q0 -71 18 -128.5q18 -57.5 52 -98q34 -40.5 83 -62q49 -21.5 111 -21.5q33 0 55 5q22 5 29 13zM440 893q9 1 23 -1q14 -2 28.5 -6.5q14.5 -4.5 27 -11q12.5 -6.5 18.5 -13.5l0 -20l-226 -91l-17 19z" />
<glyph unicode="&#263;" horiz-adv-x="466" d="M427 70q-18 -35 -58.5 -58.5q-40.5 -23.5 -94.5 -23.5q-59 0 -102.5 18.5q-43.5 18.5 -72.5 53q-29 34.5 -43.5 83q-14.5 48.5 -14.5 107.5q0 127 62 194.5q62 67.5 169 67.5q49 0 87.5 -8.5q38.5 -8.5 65.5 -22.5q-3 -33 -11 -74q-8 -41 -20 -68l-27 0l-42 119q-7 5 -16 7.5q-9 2.5 -30 2.5q-68 0 -105 -49.5q-37 -49.5 -37 -167.5q0 -38 10.5 -74q10.5 -36 32 -64.5q21.5 -28.5 54 -45.5q32.5 -17 75.5 -17q35 0 61 10q26 10 44 24zM315 767q8 1 21 -0.5q13 -1.5 27 -4.5q14 -3 26 -7.5q12 -4.5 18 -9.5l0 -19l-187 -151l-22 18z" />
<glyph unicode="&#264;" horiz-adv-x="644" d="M547 182h26q5 -28 9 -70.5q4 -42.5 2 -82.5q-15 -12 -36 -19.5q-21 -7.5 -44.5 -12.5q-23.5 -5 -48 -7q-24.5 -2 -46.5 -2q-84 0 -150 21.5q-66 21.5 -111.5 65.5q-45.5 44 -70 112.5q-24.5 68.5 -24.5 162.5q0 98 27 166.5q27 68.5 73 112q46 43.5 107 63.5q61 20 128 20q66 0 111 -8.5q45 -8.5 79 -25.5q0 -16 -1 -37.5q-1 -21.5 -3 -45.5q-2 -24 -5 -47q-3 -23 -6 -42l-26 0l-52 144q-11 6 -36.5 8q-25.5 2 -50.5 2q-50 0 -94.5 -18.5q-44.5 -18.5 -78 -57q-33.5 -38.5 -53.5 -97q-20 -58.5 -20 -137.5q0 -71 18 -128.5q18 -57.5 52 -98q34 -40.5 83 -62q49 -21.5 111 -21.5q33 0 55 5q22 5 29 13zM246 752l-14 19l127 112q5 3 12.5 3.5q7.5 0.5 13.5 -3.5l125 -109l-15 -21l-127 56z" />
<glyph unicode="&#265;" horiz-adv-x="466" d="M427 70q-18 -35 -58.5 -58.5q-40.5 -23.5 -94.5 -23.5q-59 0 -102.5 18.5q-43.5 18.5 -72.5 53q-29 34.5 -43.5 83q-14.5 48.5 -14.5 107.5q0 127 62 194.5q62 67.5 169 67.5q49 0 87.5 -8.5q38.5 -8.5 65.5 -22.5q-3 -33 -11 -74q-8 -41 -20 -68l-27 0l-42 119q-7 5 -16 7.5q-9 2.5 -30 2.5q-68 0 -105 -49.5q-37 -49.5 -37 -167.5q0 -38 10.5 -74q10.5 -36 32 -64.5q21.5 -28.5 54 -45.5q32.5 -17 75.5 -17q35 0 61 10q26 10 44 24zM167 590l-29 16l110 186q5 3 12.5 3.5q7.5 0.5 12.5 -3.5l114 -185l-27 -17l-103 107z" />
<glyph unicode="&#268;" horiz-adv-x="644" d="M547 182h26q5 -28 9 -70.5q4 -42.5 2 -82.5q-15 -12 -36 -19.5q-21 -7.5 -44.5 -12.5q-23.5 -5 -48 -7q-24.5 -2 -46.5 -2q-84 0 -150 21.5q-66 21.5 -111.5 65.5q-45.5 44 -70 112.5q-24.5 68.5 -24.5 162.5q0 98 27 166.5q27 68.5 73 112q46 43.5 107 63.5q61 20 128 20q66 0 111 -8.5q45 -8.5 79 -25.5q0 -16 -1 -37.5q-1 -21.5 -3 -45.5q-2 -24 -5 -47q-3 -23 -6 -42l-26 0l-52 144q-11 6 -36.5 8q-25.5 2 -50.5 2q-50 0 -94.5 -18.5q-44.5 -18.5 -78 -57q-33.5 -38.5 -53.5 -97q-20 -58.5 -20 -137.5q0 -71 18 -128.5q18 -57.5 52 -98q34 -40.5 83 -62q49 -21.5 111 -21.5q33 0 55 5q22 5 29 13zM499 888q8 0 15 -5q7 -5 10 -12l-127 -112q-5 -2 -12.5 -2.5q-7.5 -0.5 -13.5 2.5l-125 109q4 7 9.5 13.5q5.5 6.5 15.5 6.5l117 -55z" />
<glyph unicode="&#269;" horiz-adv-x="466" d="M427 70q-18 -35 -58.5 -58.5q-40.5 -23.5 -94.5 -23.5q-59 0 -102.5 18.5q-43.5 18.5 -72.5 53q-29 34.5 -43.5 83q-14.5 48.5 -14.5 107.5q0 127 62 194.5q62 67.5 169 67.5q49 0 87.5 -8.5q38.5 -8.5 65.5 -22.5q-3 -33 -11 -74q-8 -41 -20 -68l-27 0l-42 119q-7 5 -16 7.5q-9 2.5 -30 2.5q-68 0 -105 -49.5q-37 -49.5 -37 -167.5q0 -38 10.5 -74q10.5 -36 32 -64.5q21.5 -28.5 54 -45.5q32.5 -17 75.5 -17q35 0 61 10q26 10 44 24zM359 796q9 1 17.5 -4q8.5 -5 11.5 -12l-124 -185q-5 -2 -12 -2.5q-7 -0.5 -13 2.5l-121 184q4 8 14 13q10 5 20 4l107 -106z" />
</font>
</defs>
</svg>
