<?xml version="1.0" standalone="no"?>
<!DOCTYPE svg PUBLIC "-//W3C//DTD SVG 1.1//EN" "http://www.w3.org/Graphics/SVG/1.1/DTD/svg11.dtd" >
<svg xmlns="http://www.w3.org/2000/svg">
<metadata>
Generated by SVGconv.
Copyright   : Copyright  2010 ParaType Ltd. All rights reserved.
Designer    : A.Korolkova, O.Umpeleva, V.Yefimov
Foundry     : ParaType Ltd
Foundry URL : http://www.paratype.com
</metadata>
<defs>
<font id="PTSerif-Caption" horiz-adv-x="632" >
<font-face units-per-em="1000" ascent="1039" descent="286" />
<missing-glyph horiz-adv-x="709" />
<glyph unicode="&#32;" horiz-adv-x="274" />
<glyph unicode="&#33;" horiz-adv-x="368" d="M195 218l-38 177v305h105v-305l-37 -177zM133 58q0 31 21.5 49q21.5 18 55.5 18q35 0 57 -18q22 -18 22 -49q0 -30 -22 -48q-22 -18 -57 -18q-34 0 -55.5 18t-21.5 48z" />
<glyph unicode="&#34;" horiz-adv-x="428" d="M234 700h98l-27 -197h-44zM97 700h98l-27 -197l-44 0z" />
<glyph unicode="&#35;" horiz-adv-x="600" d="M345 233h-160l-46 -175h-59l46 175h-90l17 47h85l40 149h-86l17 47h83l44 166h59l-44 -166h159l45 166h59l-45 -166h90l-20 -47h-83l-40 -149h87l-21 -47h-78l-46 -175h-59zM199 280h158l40 149l-160 0z" />
<glyph unicode="&#36;" horiz-adv-x="600" d="M267 -12q-34 0 -64 6q-30 6 -54.5 15.5q-24.5 9.5 -43.5 20q-19 10.5 -31 19.5l0 139h72v-100l20 -26q18 -9 39 -15q21 -6 62 -7l0 284q-1 0 -8 2.5q-7 2.5 -34 13.5q-33 13 -63 29q-30 16 -53.5 38.5q-23.5 22.5 -37.5 53q-14 30.5 -14 72.5q0 36 15.5 67q15.5 31 43.5 55q28 24 66.5 38.5q38.5 14.5 84.5 17.5l0 49h60v-49q54 -3 92.5 -12.5q38.5 -9.5 68.5 -22.5l0 -131h-72v82l-20 20q-35 12 -69 12l0 -266q48 -20 88 -39q40 -19 69 -43q29 -24 45 -56.5q16 -32.5 16 -78.5q0 -74 -57.5 -124q-57.5 -50 -160.5 -61l0 -61h-60zM440 168q0 26 -9 46q-9 20 -24.5 35.5q-15.5 15.5 -36.5 28q-21 12.5 -45 22.5l0 -254q51 12 83 43q32 31 32 79zt0 0zM162 550q0 -52 30.5 -82q30.5 -30 76.5 -52l0 242q-50 -5 -78.5 -35.5t-28.5 -72.5z" />
<glyph unicode="&#37;" horiz-adv-x="908" d="M757 714l41 -38l-657 -686l-39 39zM58 542q0 39 15 70q15 31 41 53.5q26 22.5 62.5 34.5q36.5 12 78.5 12q43 0 79 -10.5q36 -10.5 62 -31.5q26 -21 40.5 -53q14.5 -32 14.5 -75q0 -39 -14.5 -70.5q-14.5 -31.5 -40.5 -53.5q-26 -22 -62 -34q-36 -12 -79 -12q-42 0 -78.5 10.5q-36.5 10.5 -62.5 31.5q-26 21 -41 53q-15 32 -15 75zt0 0zM154 542q0 -60 26 -96q26 -36 75 -36q100 0 100 132q0 132 -100 132q-49 0 -75 -33q-26 -33 -26 -99zt0 0zM456 158q0 39 15 70q15 31 41 53.5q26 22.5 62.5 34.5q36.5 12 78.5 12q43 0 79 -10.5q36 -10.5 62 -31.5q26 -21 40.5 -53q14.5 -32 14.5 -75q0 -39 -14.5 -70.5q-14.5 -31.5 -40.5 -53.5q-26 -22 -62 -34q-36 -12 -79 -12q-42 0 -78.5 10.5q-36.5 10.5 -62.5 31.5q-26 21 -41 53q-15 32 -15 75zt0 0zM552 158q0 -60 26 -96q26 -36 75 -36q100 0 100 132q0 132 -100 132q-49 0 -75 -33t-26 -99z" />
<glyph unicode="&#38;" horiz-adv-x="977" d="M605 123q-34 27 -73.5 63.5q-39.5 36.5 -76.5 74q-37 37.5 -68 72.5q-31 35 -48 58q-47 -41 -69 -80.5q-22 -39.5 -22 -91.5q0 -38 14 -70.5q14 -32.5 39 -56q25 -23.5 60 -37q35 -13.5 76 -13.5q49 0 92 20q43 20 76 61zt0 0zM319 583q0 -18 8 -38q8 -20 20.5 -40.5q12.5 -20.5 28 -39q15.5 -18.5 29.5 -33.5q41 30 63 67.5q22 37.5 22 94.5q0 32 -21 54q-21 22 -65 22q-24 0 -40.5 -7.5q-16.5 -7.5 -26 -20q-9.5 -12.5 -14 -28q-4.5 -15.5 -4.5 -31.5zt0 0zM780 0q-23 14 -58.5 34.5q-35.5 20.5 -77.5 55.5q-15 -18 -39 -36q-24 -18 -55.5 -33q-31.5 -15 -71 -24q-39.5 -9 -84.5 -9q-61 0 -109.5 16.5q-48.5 16.5 -82 43.5q-33.5 27 -51.5 62q-18 35 -18 73q0 49 20 88q20 39 47.5 69q27.5 30 58 50.5q30.5 20.5 51.5 33.5q-32 32 -54.5 74.5q-22.5 42.5 -22.5 79.5q0 25 11 49.5q11 24.5 33 43q22 18.5 54 30q32 11.5 73 11.5q75 0 121 -29q46 -29 46 -83q0 -33 -13 -61q-13 -28 -33 -52q-20 -24 -45.5 -44q-25.5 -20 -50.5 -37q46 -51 106 -104.5q60 -53.5 127 -107.5q8 10 20 32.5q12 22.5 23 53.5q11 31 19 67.5q8 36.5 8 74.5q0 7 0 14q0 7 -1 14l-66 0v50h230v-50h-75q-10 -58 -25 -106q-15 -48 -31.5 -84.5q-16.5 -36.5 -32 -62q-15.5 -25.5 -24.5 -37.5q42 -31 83 -58q41 -27 91 -52l61 0l0 -50z" />
<glyph unicode="&#39;" horiz-adv-x="250" d="M97 700h98l-27 -197l-44 0z" />
<glyph unicode="&#40;" horiz-adv-x="389" d="M341 -210q-57 36 -107 80q-50 44 -87 98.5q-37 54.5 -58.5 122.5q-21.5 68 -21.5 152q0 82 22 148.5q22 66.5 59.5 121.5q37.5 55 88 101q50.5 46 107.5 88l28 -30q-45 -43 -82.5 -86.5q-37.5 -43.5 -64.5 -93.5q-27 -50 -42 -111q-15 -61 -15 -138q0 -74 16 -135.5q16 -61.5 43.5 -112.5q27.5 -51 64 -93.5q36.5 -42.5 78.5 -78.5z" />
<glyph unicode="&#41;" horiz-adv-x="389" d="M20 -180q42 36 78.5 80.5q36.5 44.5 64 98q27.5 53.5 43 117q15.5 63.5 15.5 137.5q0 77 -15 136q-15 59 -42 108q-27 49 -64.5 90.5q-37.5 41.5 -82.5 84.5l28 30q58 -38 108.5 -82.5q50.5 -44.5 88 -98.5q37.5 -54 59 -120q21.5 -66 21.5 -148q0 -83 -20.5 -151.5q-20.5 -68.5 -57.5 -125.5q-37 -57 -87 -103q-50 -46 -110 -83z" />
<glyph unicode="&#42;" horiz-adv-x="522" d="M461 505l-62 -108l-103 113l16 28zM398 693l62 -110l-147 -27l-18 25zM195 743h128l-47 -148h-35zM56 583l68 110l100 -111l-16 -26zM123 397l-67 108l153 35l15 -29zM323 349h-128l46 148l35 0z" />
<glyph unicode="&#43;" horiz-adv-x="600" d="M68 371h202v209h60v-209h202v-54h-202v-215h-60v215l-202 0z" />
<glyph unicode="&#44;" horiz-adv-x="319" d="M61 -144q21 7 38.5 21.5q17.5 14.5 31 32.5q13.5 18 21 39q7.5 21 7.5 42v9h-70q-10 16 -14 30q-4 14 -4 28q0 17 5 32q5 15 13 30l126 0q10 -25 14 -48.5q4 -23.5 4 -45.5q0 -40 -12.5 -74q-12.5 -34 -34 -60.5q-21.5 -26.5 -49 -44.5q-27.5 -18 -57.5 -26z" />
<glyph unicode="&#45;" horiz-adv-x="475" d="M80 314h316v-64l-316 0z" />
<glyph unicode="&#46;" horiz-adv-x="314" d="M80 58q0 31 21 49q21 18 56 18q35 0 57 -18q22 -18 22 -49q0 -30 -22 -48q-22 -18 -57 -18q-35 0 -56 18t-21 48z" />
<glyph unicode="&#47;" horiz-adv-x="386" d="M366 713l49 -19l-410 -824l-48 20z" />
<glyph unicode="&#48;" horiz-adv-x="600" d="M37 350q0 180 68.5 271q68.5 91 194.5 91q135 0 199 -89.5q64 -89.5 64 -272.5q0 -180 -69 -271q-69 -91 -201 -91q-69 0 -117.5 24.5q-48.5 24.5 -79 71q-30.5 46.5 -45 113.5q-14.5 67 -14.5 153zt0 0zM149 350q0 -72 7.5 -131q7.5 -59 25 -101q17.5 -42 44.5 -65q27 -23 66 -23q88 0 123.5 77.5q35.5 77.5 35.5 242.5q0 72 -6.5 131q-6.5 59 -24 101q-17.5 42 -46.5 65q-29 23 -74 23q-83 0 -117 -77.5t-34 -242.5z" />
<glyph unicode="&#49;" horiz-adv-x="600" d="M479 0h-331v64h114v564l-118 -62l-27 49l145 85h105v-636l112 0z" />
<glyph unicode="&#50;" horiz-adv-x="600" d="M170 533h-96v111q39 30 94 48q55 18 121 18q56 0 97 -14q41 -14 67.5 -37.5q26.5 -23.5 39 -54.5q12.5 -31 12.5 -66q0 -63 -31 -126q-31 -63 -78 -119q-47 -56 -103 -103q-56 -47 -107 -80l-22 -14q-8 -5 -16 -10.5q-8 -5.5 -11 -7.5l0 -4l65 6h232l20 20v96h64v-196h-454v84q26 15 60.5 40q34.5 25 71.5 58q37 33 73 72.5q36 39.5 64 83q28 43.5 45.5 89q17.5 45.5 17.5 91.5q0 29 -8.5 54q-8.5 25 -25 44q-16.5 19 -41 29.5q-24.5 10.5 -55.5 10.5q-33 0 -54.5 -5q-21.5 -5 -41.5 -13z" />
<glyph unicode="&#51;" horiz-adv-x="600" d="M271 44q37 0 67 11.5q30 11.5 52 31.5q22 20 34 46.5q12 26.5 12 57.5q0 36 -13 63.5q-13 27.5 -35.5 46q-22.5 18.5 -52.5 28q-30 9.5 -64 9.5h-71v68l225 216v4l-60 -6h-201l-20 -20v-80h-64v180h432v-78l-188 -176q-12 -11 -23 -21q-9 -8 -16.5 -15q-7.5 -7 -9.5 -8l0 -2q1 0 7 1q6 1 13 3q8 2 18 3q53 -2 96 -15.5q43 -13.5 74 -39q31 -25.5 47.5 -62q16.5 -36.5 16.5 -84.5q0 -50 -21.5 -90q-21.5 -40 -58.5 -68q-37 -28 -87 -43q-50 -15 -107 -15q-26 0 -55.5 4q-29.5 4 -57.5 10.5q-28 6.5 -52.5 16q-24.5 9.5 -40.5 21.5l0 118h96v-89q14 -10 43.5 -18.5t64.5 -8.5z" />
<glyph unicode="&#52;" horiz-adv-x="600" d="M548 0h-294v64h103v129h-343v64l343 443h105v-443h124v-64h-124v-129h86zM357 549l7 72h-3l-39 -72l-208 -266l-37 -33l72 7l208 0z" />
<glyph unicode="&#53;" horiz-adv-x="600" d="M438 750h64v-130h-305v-190h64q56 0 103 -14q47 -14 80.5 -40q33.5 -26 52 -65q18.5 -39 18.5 -88q0 -58 -22.5 -101.5q-22.5 -43.5 -59.5 -73q-37 -29.5 -85.5 -44q-48.5 -14.5 -99.5 -14.5q-46 0 -90 10q-44 10 -76 33l0 107h96v-87q11 -2 30 -5.5q19 -3.5 39 -3.5q37 0 67 11.5q30 11.5 51.5 32.5q21.5 21 33 49.5q11.5 28.5 11.5 63.5q0 40 -16 68.5q-16 28.5 -44 47q-28 18.5 -65.5 27q-37.5 8.5 -80.5 8.5h-71v348h285l20 20z" />
<glyph unicode="&#54;" horiz-adv-x="600" d="M565 212q0 -47 -18 -88q-18 -41 -50.5 -71q-32.5 -30 -78.5 -47.5q-46 -17.5 -103 -17.5q-63 0 -112 19.5q-49 19.5 -82 54.5q-33 35 -50 83q-17 48 -17 105q0 94 34.5 171q34.5 77 92.5 135q58 58 133 96q75 38 156 55l14 -50q-52 -15 -104.5 -42q-52.5 -27 -96 -66q-43.5 -39 -74 -90q-30.5 -51 -37.5 -114q9 13 25.5 26q16.5 13 38.5 23q22 10 49.5 16.5q27.5 6.5 58.5 6.5q48 0 89 -14q41 -14 70 -40q29 -26 45.5 -64q16.5 -38 16.5 -87zt0 0zM453 203q0 72 -37.5 116q-37.5 44 -105.5 44q-53 0 -89 -23q-36 -23 -53 -52q-2 -14 -2 -33q0 -19 0 -30q0 -32 9.5 -65.5q9.5 -33.5 28.5 -61q19 -27.5 48.5 -45.5q29.5 -18 68.5 -18q35 0 60 14.5q25 14.5 41 38.5q16 24 23.5 54t7.5 61z" />
<glyph unicode="&#55;" horiz-adv-x="600" d="M135 519h-64v181h470v-79l-251 -621h-106l276 578l34 47l-57 -5h-282l-20 -20z" />
<glyph unicode="&#56;" horiz-adv-x="600" d="M55 157q0 34 12.5 64.5q12.5 30.5 35 56q22.5 25.5 52.5 46q30 20.5 65 35.5q-63 29 -99.5 70q-36.5 41 -36.5 107q0 39 15.5 71q15.5 32 44.5 55.5q29 23.5 70.5 36.5q41.5 13 92.5 13q100 0 155.5 -44.5q55.5 -44.5 55.5 -114.5q0 -58 -37.5 -106.5q-37.5 -48.5 -102.5 -72.5q79 -38 124.5 -85.5q45.5 -47.5 45.5 -117.5q0 -38 -16.5 -71q-16.5 -33 -49 -58q-32.5 -25 -79.5 -39.5q-47 -14.5 -108 -14.5q-61 0 -106 14q-45 14 -75 37q-30 23 -44.5 54q-14.5 31 -14.5 64zt0 0zM445 153q0 34 -15 61q-15 27 -40.5 48.5q-25.5 21.5 -58 39.5q-32.5 18 -68.5 33q-31 -17 -52 -37.5q-21 -20.5 -33.5 -43q-12.5 -22.5 -17.5 -44.5q-5 -22 -5 -41q0 -24 8 -48q8 -24 25.5 -43q17.5 -19 46 -31q28.5 -12 69.5 -12q35 0 61.5 10.5q26.5 10.5 44 27q17.5 16.5 26.5 38q9 21.5 9 42.5zt0 0zM187 550q0 -30 12 -53.5q12 -23.5 32.5 -41.5q20.5 -18 47.5 -33q27 -15 57 -28q47 34 64.5 67.5q17.5 33.5 17.5 74.5q0 62 -29.5 95.5q-29.5 33.5 -83.5 33.5q-30 0 -52 -10q-22 -10 -36.5 -26q-14.5 -16 -22 -36.5t-7.5 -42.5z" />
<glyph unicode="&#57;" horiz-adv-x="600" d="M52 487q0 49 17 90q17 41 49 71q32 30 79 47q47 17 107 17q66 0 113.5 -19.5q47.5 -19.5 79 -54.5q31.5 -35 46.5 -85.5q15 -50.5 15 -111.5q0 -93 -32 -171.5q-32 -78.5 -87 -138q-55 -59.5 -128.5 -96q-73.5 -36.5 -157.5 -45.5l-14 50q132 26 207.5 106q75.5 80 93.5 193q-26 -24 -61.5 -40.5q-35.5 -16.5 -94.5 -16.5q-51 0 -93.5 13.5q-42.5 13.5 -73 40q-30.5 26.5 -48 64.5q-17.5 38 -17.5 87zt0 0zM164 488q0 -29 10 -56.5q10 -27.5 28.5 -48.5q18.5 -21 45 -34q26.5 -13 59.5 -13q52 0 87 16q35 16 52 41q2 13 2.5 32q0.5 19 0.5 31q0 36 -8 73.5q-8 37.5 -26 67.5q-18 30 -46.5 49q-28.5 19 -68.5 19q-67 0 -101.5 -47.5t-34.5 -129.5z" />
<glyph unicode="&#58;" horiz-adv-x="368" d="M134 441q0 31 21 49q21 18 56 18q35 0 57 -18q22 -18 22 -49q0 -30 -22 -48q-22 -18 -57 -18q-35 0 -56 18q-21 18 -21 48zt0 0zM134 58q0 31 21 49q21 18 56 18q35 0 57 -18q22 -18 22 -49q0 -30 -22 -48q-22 -18 -57 -18q-35 0 -56 18t-21 48z" />
<glyph unicode="&#59;" horiz-adv-x="373" d="M138 441q0 31 21 49q21 18 56 18q35 0 57 -18q22 -18 22 -49q0 -30 -22 -48q-22 -18 -57 -18q-35 0 -56 18q-21 18 -21 48zt0 0zM119 -144q21 7 38.5 21.5q17.5 14.5 31 32.5q13.5 18 21 39q7.5 21 7.5 42v9h-70q-10 16 -14 30q-4 14 -4 28q0 17 5 32q5 15 13 30l126 0q10 -25 14 -48.5q4 -23.5 4 -45.5q0 -40 -12.5 -74q-12.5 -34 -34 -60.5q-21.5 -26.5 -49 -44.5q-27.5 -18 -57.5 -26z" />
<glyph unicode="&#60;" horiz-adv-x="600" d="M52 324v31l431 235l30 -59l-351 -186l357 -186l-37 -56z" />
<glyph unicode="&#61;" horiz-adv-x="600" d="M47 452h505v-54h-505zM47 290h505v-54l-505 0z" />
<glyph unicode="&#62;" horiz-adv-x="600" d="M551 369v-31l-432 -235l-33 55l354 194l-357 183l37 55z" />
<glyph unicode="&#63;" horiz-adv-x="531" d="M174 548h-96v121q42 23 88 33q46 10 100 10q118 0 173 -53.5q55 -53.5 55 -148.5q0 -44 -15.5 -82q-15.5 -38 -45 -68q-29.5 -30 -71.5 -50.5q-42 -20.5 -96 -27.5l0 -100h-64v142q45 9 78.5 23q33.5 14 56 36q22.5 22 34 53.5q11.5 31.5 11.5 75.5q0 27 -7 53.5q-7 26.5 -22 47.5q-15 21 -38.5 34q-23.5 13 -56.5 13q-35 0 -54.5 -5.5q-19.5 -5.5 -29.5 -13.5zM155 58q0 31 21 49q21 18 56 18q35 0 57 -18q22 -18 22 -49q0 -30 -22 -48q-22 -18 -57 -18q-35 0 -56 18t-21 48z" />
<glyph unicode="&#64;" horiz-adv-x="1111" d="M792 490l-57 -285v-148h13q45 0 83.5 19.5q38.5 19.5 66 55q27.5 35.5 43.5 85q16 49.5 16 109.5q0 76 -30.5 137.5q-30.5 61.5 -82.5 105q-52 43.5 -122.5 66.5q-70.5 23 -149.5 23q-95 0 -172 -32q-77 -32 -131.5 -88.5q-54.5 -56.5 -84.5 -132.5q-30 -76 -30 -163q0 -89 35 -157.5q35 -68.5 93 -115q58 -46.5 132.5 -71q74.5 -24.5 153.5 -24.5q32 0 73.5 7q41.5 7 75.5 21l18 -46q-40 -20 -87 -28q-47 -8 -104 -8q-51 0 -105 11.5q-54 11.5 -104.5 34.5q-50.5 23 -95 58q-44.5 35 -77.5 81q-33 46 -52.5 104q-19.5 58 -19.5 127q0 109 39 197q39 88 105.5 150q66.5 62 155 95.5q88.5 33.5 187.5 33.5q94 0 175.5 -26.5q81.5 -26.5 141 -76q59.5 -49.5 93.5 -121q34 -71.5 34 -162.5q0 -59 -16.5 -117.5q-16.5 -58.5 -53 -104.5q-36.5 -46 -94.5 -74.5q-58 -28.5 -141 -28.5q-17 0 -33.5 1.5q-16.5 1.5 -35.5 3.5l0 176h-6q-13 -32 -34.5 -63q-21.5 -31 -49.5 -56.5q-28 -25.5 -59.5 -41q-31.5 -15.5 -64.5 -15.5q-67 0 -103.5 41.5q-36.5 41.5 -36.5 110.5q0 63 23.5 124q23.5 61 64 109q40.5 48 94 77q53.5 29 113.5 29q40 0 65 -6.5q25 -6.5 51 -17.5zM685 425q-17 10 -36 15q-19 5 -46 5q-43 0 -80.5 -26.5q-37.5 -26.5 -65.5 -67q-28 -40.5 -44.5 -89.5q-16.5 -49 -16.5 -93q0 -48 17 -74q17 -26 62 -26q21 0 45.5 18q24.5 18 48.5 47.5q24 29.5 46.5 66q22.5 36.5 40.5 74.5z" />
<glyph unicode="&#65;" horiz-adv-x="755" d="M245 0h-245v56h78l259 644h106l237 -644h75v-56h-286v56h89l-65 176h-266l-68 -176h86zM250 288h226l-82 231l-25 106h-4l-29 -108z" />
<glyph unicode="&#66;" horiz-adv-x="690" d="M32 0v56h91v588h-91v56h131q21 0 40 1q19 1 40 2q21 1 45.5 2q24.5 1 54.5 1q44 0 90 -6.5q46 -6.5 83 -24.5q37 -18 60.5 -50.5q23.5 -32.5 23.5 -84.5q0 -27 -9.5 -53q-9.5 -26 -28 -48q-18.5 -22 -46.5 -39q-28 -17 -65 -25l0 -4q33 -5 66 -17q33 -12 59.5 -32.5q26.5 -20.5 42.5 -50.5q16 -30 16 -72q0 -54 -26.5 -93q-26.5 -39 -69.5 -64q-43 -25 -97.5 -36.5q-54.5 -11.5 -110.5 -11.5q-39 0 -87.5 3q-48.5 3 -93.5 3zM339 50q39 0 72.5 10.5q33.5 10.5 57.5 29.5q24 19 37.5 45.5q13.5 26.5 13.5 58.5q0 40 -16.5 66.5q-16.5 26.5 -44 42q-27.5 15.5 -64.5 21.5q-37 6 -78 6h-82v-271q15 -4 36.5 -6.5q21.5 -2.5 67.5 -2.5zt0 0zM289 382q20 0 44.5 1.5q24.5 1.5 41.5 3.5q51 16 82 51.5q31 35.5 31 83.5q0 66 -42 97q-42 31 -114 31q-34 0 -57.5 -1.5q-23.5 -1.5 -39.5 -3.5l0 -263z" />
<glyph unicode="&#67;" horiz-adv-x="698" d="M569 184h64v-157q-31 -17 -82 -28q-51 -11 -101 -11q-92 0 -165 21q-73 21 -123.5 65.5q-50.5 44.5 -77.5 112.5q-27 68 -27 163q0 98 30 166.5q30 68.5 81 112q51 43.5 118 63.5q67 20 141 20q36 0 65 -2.5q29 -2.5 52.5 -7.5q23.5 -5 43.5 -12q20 -7 39 -15l0 -171h-64v105l-14 20q-11 5 -34.5 12q-23.5 7 -75.5 7q-54 0 -101 -17q-47 -17 -81.5 -53q-34.5 -36 -54.5 -92.5q-20 -56.5 -20 -135.5q0 -143 72.5 -220.5q72.5 -77.5 203.5 -77.5q36 0 60.5 5.5q24.5 5.5 36.5 14.5l14 19z" />
<glyph unicode="&#68;" horiz-adv-x="782" d="M32 0v56h91v588h-91v56h123q19 0 44.5 1q25.5 1 52.5 2.5q27 1.5 51.5 3q24.5 1.5 41.5 1.5q93 0 164 -23.5q71 -23.5 119 -68q48 -44.5 72.5 -109.5q24.5 -65 24.5 -148q0 -80 -23 -147q-23 -67 -72 -116.5q-49 -49.5 -125.5 -77q-76.5 -27.5 -182.5 -27.5q-16 0 -37 1.5q-21 1.5 -44.5 3q-23.5 1.5 -47.5 3q-24 1.5 -45 1.5zM330 652q-28 0 -54 -1q-26 -1 -41 -4l0 -596q6 -1 20 -1.5q14 -0.5 30.5 -1q16.5 -0.5 31.5 -1q15 -0.5 21 -0.5q75 0 125 25.5q50 25.5 80.5 68q30.5 42.5 43.5 99q13 56.5 13 119.5q0 49 -12.5 101q-12.5 52 -43.5 95q-31 43 -83 70t-131 27z" />
<glyph unicode="&#69;" horiz-adv-x="645" d="M564 700v-164h-64v86l-20 22h-245v-259h169l15 15v42h64v-171h-64v42l-15 16h-169v-273h262l20 20v98h64v-174h-549v56h91v588h-91l0 56z" />
<glyph unicode="&#70;" horiz-adv-x="623" d="M235 56h107v-56h-310v56h91v588h-91v56h541v-164h-64v86l-20 22h-254v-274h181l15 15v48h64v-183h-64v48l-15 16l-181 0z" />
<glyph unicode="&#71;" horiz-adv-x="774" d="M669 48q-21 -12 -48 -23q-27 -11 -56.5 -19q-29.5 -8 -59.5 -13q-30 -5 -58 -5q-93 0 -165.5 21.5q-72.5 21.5 -122.5 66q-50 44.5 -76 113q-26 68.5 -26 161.5q0 98 31.5 167q31.5 69 83.5 112.5q52 43.5 119.5 63q67.5 19.5 138.5 19.5q74 0 122 -10q48 -10 86 -27l0 -171h-64v105l-14 20q-9 5 -23 8.5q-14 3.5 -29.5 6q-15.5 2.5 -32 3.5q-16.5 1 -30.5 1q-55 0 -103 -17q-48 -17 -83.5 -53q-35.5 -36 -56 -92.5q-20.5 -56.5 -20.5 -135.5q0 -142 70.5 -220q70.5 -78 202.5 -78q33 0 56.5 4.5q23.5 4.5 41.5 11.5l15 18v189h-106v56h277v-56l-70 0z" />
<glyph unicode="&#72;" horiz-adv-x="820" d="M318 56v-56h-286v56h91v588h-91v56h286v-56h-83v-257h350v257h-83v56h286v-56h-91v-588h91v-56h-286v56h83v275h-350l0 -275z" />
<glyph unicode="&#73;" horiz-adv-x="398" d="M346 0h-294v56h91v588h-91v56h294v-56h-91v-588l91 0z" />
<glyph unicode="&#74;" horiz-adv-x="380" d="M36 -113q17 8 33 19.5q16 11.5 28.5 32q12.5 20.5 20 53.5q7.5 33 7.5 86v566h-83v56h286v-56h-91v-556q0 -71 -18.5 -116.5q-18.5 -45.5 -45.5 -73q-27 -27.5 -58 -40.5q-31 -13 -56 -18z" />
<glyph unicode="&#75;" horiz-adv-x="712" d="M300 382l218 262h-81v56h247v-56h-79l-238 -267l283 -321h62v-56h-161l-263 332h-53v-276h83v-56h-286v56h91v588h-91v56h286v-56h-83l0 -262z" />
<glyph unicode="&#76;" horiz-adv-x="609" d="M32 644v56h311v-56h-108v-588h266l20 22v138h72v-216h-561v56h91l0 588z" />
<glyph unicode="&#77;" horiz-adv-x="984" d="M32 644v56h228l236 -448l241 448h215v-56h-91v-588h91v-56h-290v56h91v446q1 5 1.5 23.5q0.5 18.5 1.5 39.5q1 25 2 54l-9 0l-43 -107l-205 -362h-61l-200 362l-44 117h-10v-62q0 -23 0.5 -43.5q0.5 -20.5 0.5 -21.5v-446h85v-56h-240v56h91l0 588z" />
<glyph unicode="&#78;" horiz-adv-x="820" d="M542 700h246v-56h-91v-656h-65l-407 549l-44 77h-4l10 -78v-480h91v-56h-246v56h91v588h-91v56h200l350 -471l52 -86h5l-6 86v415l-91 0z" />
<glyph unicode="&#79;" horiz-adv-x="830" d="M57 350q0 78 24 144.5q24 66.5 69.5 115q45.5 48.5 112 75.5q66.5 27 151.5 27q85 0 152 -27q67 -27 113 -75.5q46 -48.5 70 -115q24 -66.5 24 -144.5q0 -78 -24 -144.5q-24 -66.5 -70 -115q-46 -48.5 -113 -75.5q-67 -27 -152 -27q-85 0 -151.5 27q-66.5 27 -112 75.5q-45.5 48.5 -69.5 115q-24 66.5 -24 144.5zt0 0zM182 350q0 -64 14.5 -120q14.5 -56 44.5 -97q30 -41 75.5 -65q45.5 -24 107.5 -24q57 0 99 24q42 24 69.5 65q27.5 41 41.5 97q14 56 14 120q0 64 -14.5 120q-14.5 56 -44.5 97q-30 41 -75.5 65q-45.5 24 -108.5 24q-60 0 -102.5 -24q-42.5 -24 -69.5 -65q-27 -41 -39 -97t-12 -120z" />
<glyph unicode="&#80;" horiz-adv-x="667" d="M32 644v56h104q45 0 97.5 4q52.5 4 101.5 4q55 0 108 -10.5q53 -10.5 94 -35.5q41 -25 66.5 -66.5q25.5 -41.5 25.5 -103.5q0 -59 -26 -101.5q-26 -42.5 -68.5 -69.5q-42.5 -27 -98 -40q-55.5 -13 -114.5 -13q-6 0 -18 0q-12 0 -25.5 0.5q-13.5 0.5 -25.5 1.5q-12 1 -18 2l0 -216h100v-56h-303v56h91v588zM235 329q5 -2 15.5 -2.5q10.5 -0.5 22.5 -1.5q12 -1 23.5 -1q11.5 0 17.5 0q39 0 73.5 9.5q34.5 9.5 60.5 29.5q26 20 41 52q15 32 15 77q0 82 -51.5 121q-51.5 39 -140.5 39q-27 0 -45 -1.5q-18 -1.5 -32 -4.5z" />
<glyph unicode="&#81;" horiz-adv-x="830" d="M859 -131q-44 -37 -94.5 -54q-50.5 -17 -104.5 -17q-46 0 -99.5 17q-53.5 17 -112.5 38.5q-59 21.5 -122 42q-63 20.5 -129 27.5l8 40q24 3 47 3q57 0 113 -12.5q56 -12.5 113 -27.5q57 -15 115 -27.5q58 -12.5 118 -12.5q32 0 65 5q33 5 67 16zM57 350q0 78 24 144.5q24 66.5 69.5 115q45.5 48.5 112 75.5q66.5 27 151.5 27q85 0 152 -27q67 -27 113 -75.5q46 -48.5 70 -115q24 -66.5 24 -144.5q0 -78 -24 -144.5q-24 -66.5 -70 -115q-46 -48.5 -113 -75.5q-67 -27 -152 -27q-85 0 -151.5 27q-66.5 27 -112 75.5q-45.5 48.5 -69.5 115q-24 66.5 -24 144.5zt0 0zM182 350q0 -64 14.5 -120q14.5 -56 44.5 -97q30 -41 75.5 -65q45.5 -24 107.5 -24q57 0 99 24q42 24 69.5 65q27.5 41 41.5 97q14 56 14 120q0 64 -14.5 120q-14.5 56 -44.5 97q-30 41 -75.5 65q-45.5 24 -108.5 24q-60 0 -102.5 -24q-42.5 -24 -69.5 -65q-27 -41 -39 -97t-12 -120z" />
<glyph unicode="&#82;" horiz-adv-x="708" d="M235 56h86v-56h-289v56h91v588h-91v56h101q45 0 98 4q53 4 104 4q55 0 103.5 -11.5q48.5 -11.5 83.5 -35.5q35 -24 55.5 -61.5q20.5 -37.5 20.5 -89.5q0 -72 -44.5 -122.5q-44.5 -50.5 -116.5 -71.5l199 -260h62v-56h-162l-199 302h-102zM314 354q77 0 120.5 42q43.5 42 43.5 114q0 74 -46 108q-46 34 -122 34q-26 0 -43.5 -2q-17.5 -2 -31.5 -4l0 -292z" />
<glyph unicode="&#83;" horiz-adv-x="596" d="M126 98l18 -24q18 -13 49.5 -21.5q31.5 -8.5 69.5 -8.5q36 0 66.5 7.5q30.5 7.5 53.5 22.5q23 15 36 38q13 23 13 55q0 41 -27.5 68q-27.5 27 -68.5 48q-41 21 -89 41q-48 20 -89 47q-41 27 -68.5 65q-27.5 38 -27.5 96q0 85 64.5 132.5q64.5 47.5 174.5 47.5q69 0 119 -9q50 -9 85 -24l0 -172h-64v108l-16 25q-19 8 -55 12q-36 4 -71 4q-60 0 -94 -27.5q-34 -27.5 -34 -77.5q0 -41 27.5 -68.5q27.5 -27.5 68.5 -49.5q41 -22 89 -42.5q48 -20.5 89 -47q41 -26.5 68.5 -63.5q27.5 -37 27.5 -92q0 -97 -75 -148.5q-75 -51.5 -205 -51.5q-71 0 -123 15q-52 15 -76 32l0 182l64 0z" />
<glyph unicode="&#84;" horiz-adv-x="698" d="M508 0h-318v56h103v588h-179l-20 -22v-129h-72v207h654v-207h-72v129l-20 22h-179v-588l103 0z" />
<glyph unicode="&#85;" horiz-adv-x="762" d="M659 239q0 -64 -19 -110.5q-19 -46.5 -53.5 -77q-34.5 -30.5 -83.5 -45.5q-49 -15 -109 -15q-142 0 -216.5 56.5q-74.5 56.5 -74.5 174.5v422h-91v56h284v-56h-81v-401q0 -52 13 -87.5q13 -35.5 37.5 -57q24.5 -21.5 60.5 -31q36 -9.5 82 -9.5q88 0 137.5 44q49.5 44 49.5 144v398h-81v56h236v-56h-91l0 -405z" />
<glyph unicode="&#86;" horiz-adv-x="771" d="M614 644h-91v56h248v-56h-82l-232 -644h-111l-260 644h-86v56h307v-56h-96l180 -467l29 -95h4l30 97z" />
<glyph unicode="&#87;" horiz-adv-x="1056" d="M897 644h-87v56h246v-56h-83l-167 -644h-116l-156 554l-157 -554h-116l-175 644h-86v56h299v-56h-95l107 -428l26 -133h4l39 135q0 1 6 22.5q6 21.5 16 55.5q10 34 22 77.5q12 43.5 25 88.5q30 106 68 238l74 0l142 -482l31 -133h5l30 135z" />
<glyph unicode="&#88;" horiz-adv-x="756" d="M449 700h252v-56h-82l-196 -269l230 -319h91v-56h-291v56h73l-176 247l-166 -247h77v-56h-251v56h84l219 296l-210 292h-89v56h298v-56h-80l155 -223l150 223l-88 0z" />
<glyph unicode="&#89;" horiz-adv-x="727" d="M478 700h249v-56h-85l-213 -347v-241h91v-56h-294v56h91v240l-226 348h-91v56h302v-56h-84l181 -291l171 291l-92 0z" />
<glyph unicode="&#90;" horiz-adv-x="672" d="M40 56l458 588h-341l-20 -22v-125h-72v203h561v-56l-458 -588h372l20 22v125h72v-203l-592 0z" />
<glyph unicode="&#91;" horiz-adv-x="346" d="M92 700h215v-42h-115v-846h115v-42l-215 0z" />
<glyph unicode="&#92;" horiz-adv-x="428" d="M459 -107l-58 -27l-455 823l58 29z" />
<glyph unicode="&#93;" horiz-adv-x="346" d="M254 -230h-215v42h115v846h-115v42l215 0z" />
<glyph unicode="&#94;" horiz-adv-x="600" d="M284 711h39l191 -277h-102l-126 199l-146 -199l-64 0z" />
<glyph unicode="&#95;" horiz-adv-x="460" d="M0 -141h460v-55l-460 0z" />
<glyph unicode="&#96;" horiz-adv-x="344" d="M284 615l-28 -23l-196 117v41l126 0z" />
<glyph unicode="&#97;" horiz-adv-x="569" d="M464 139q0 -23 1 -46.5q1 -23.5 3 -42.5l66 0v-50h-157l-10 95h-5q-5 -20 -18.5 -39q-13.5 -19 -34 -34q-20.5 -15 -48.5 -24q-28 -9 -62 -9q-34 0 -62.5 10q-28.5 10 -49.5 28q-21 18 -32.5 43.5q-11.5 25.5 -11.5 57.5q0 49 20.5 81q20.5 32 60.5 50.5q40 18.5 100 26.5q60 8 140 9q2 16 2 30.5q0 14.5 0 28.5q0 62 -21 94.5q-21 32.5 -75 32.5q-20 0 -43 -2q-23 -2 -42 -12l0 -92h-90v111q36 19 85 34q49 15 115 15q57 0 91.5 -14.5q34.5 -14.5 53 -38q18.5 -23.5 24 -53q5.5 -29.5 5.5 -58.5q0 -63 -2.5 -120.5q-2.5 -57.5 -2.5 -111.5zt0 0zM245 56q24 0 43 7.5q19 7.5 33.5 19q14.5 11.5 25 25.5q10.5 14 17.5 27l0 119q-65 0 -105.5 -8.5q-40.5 -8.5 -63.5 -22.5q-23 -14 -31.5 -33.5q-8.5 -19.5 -8.5 -41.5q0 -45 24 -68.5t66 -23.5z" />
<glyph unicode="&#98;" horiz-adv-x="614" d="M85 700h-85v50h190v-328h3q19 53 64 83q45 30 101 30q102 0 156.5 -64q54.5 -64 54.5 -199q0 -139 -75.5 -210.5q-75.5 -71.5 -215.5 -71.5q-28 0 -56.5 3.5q-28.5 3.5 -55 9q-26.5 5.5 -47.5 12.5q-21 7 -34 15zM325 468q-54 0 -86.5 -32.5q-32.5 -32.5 -48.5 -83.5l0 -291q20 -11 48.5 -17.5q28.5 -6.5 61.5 -6.5q74 0 115 60q41 60 41 175q0 41 -7 77q-7 36 -23 62.5q-16 26.5 -40.5 41.5t-60.5 15z" />
<glyph unicode="&#99;" horiz-adv-x="523" d="M482 67q-21 -29 -66.5 -53.5q-45.5 -24.5 -107.5 -24.5q-66 0 -115.5 19.5q-49.5 19.5 -82.5 55q-33 35.5 -49 86q-16 50.5 -16 112.5q0 133 70.5 203q70.5 70 191.5 70q55 0 91 -7q36 -7 66 -22l0 -130h-90v96q-15 9 -60 9q-38 0 -67 -11q-29 -11 -49 -36q-20 -25 -30 -67q-10 -42 -10 -103q0 -40 11 -76.5q11 -36.5 33 -64q22 -27.5 55.5 -43.5q33.5 -16 78.5 -16q24 0 42.5 5q18.5 5 32.5 10.5q14 5.5 25 12.5q11 7 21 15z" />
<glyph unicode="&#100;" horiz-adv-x="625" d="M418 104q-6 -23 -19.5 -44q-13.5 -21 -33 -37q-19.5 -16 -44.5 -25q-25 -9 -54 -9q-111 0 -166.5 65.5q-55.5 65.5 -55.5 204.5q0 67 18.5 118.5q18.5 51.5 52.5 86.5q34 35 82 53q48 18 107 18q21 0 36 -1q15 -1 28 -3q13 -2 25 -5.5q12 -3.5 26 -7.5l0 182h-85v50h190v-700h68v-50h-162l-9 104zM290 56q55 0 86 31q31 31 44 86l0 295q-20 10 -44.5 15q-24.5 5 -64.5 5q-37 0 -65.5 -16q-28.5 -16 -48 -46q-19.5 -30 -29.5 -72.5q-10 -42.5 -10 -94.5q0 -42 7.5 -79q7.5 -37 23.5 -64.5q16 -27.5 41 -43.5t60 -16z" />
<glyph unicode="&#101;" horiz-adv-x="566" d="M499 69q-26 -37 -73.5 -58.5q-47.5 -21.5 -110.5 -21.5q-66 0 -116.5 19.5q-50.5 19.5 -84.5 55q-34 35.5 -51.5 86q-17.5 50.5 -17.5 112.5q0 134 67 203.5q67 69.5 188 69.5q40 0 78.5 -10q38.5 -10 68.5 -33q30 -23 48.5 -61q18.5 -38 18.5 -94q0 -17 -2 -36q-2 -19 -6 -40l-348 0q0 -44 11.5 -80q11.5 -36 35 -62q23.5 -26 58.5 -40.5q35 -14.5 83 -14.5q39 0 72.5 13q33.5 13 53.5 30zM296 488q-31 0 -54.5 -9q-23.5 -9 -40.5 -30q-17 -21 -27 -55.5q-10 -34.5 -13 -85.5l241 0q1 9 1.5 18.5q0.5 9.5 0.5 17.5q0 66 -26.5 105t-81.5 39z" />
<glyph unicode="&#102;" horiz-adv-x="385" d="M347 750q35 0 62.5 -6q27.5 -6 41.5 -11l0 -97h-96v64q-33 0 -57.5 -6q-24.5 -6 -40.5 -23q-16 -17 -24 -46.5q-8 -29.5 -8 -77.5v-22h128v-64h-128v-411h107v-50h-286v50h74v411h-85v64h85v16q0 101 60.5 155t166.5 54z" />
<glyph unicode="&#103;" horiz-adv-x="592" d="M582 525v-64h-117q14 -14 26 -39q12 -25 12 -60q0 -74 -58 -119q-58 -45 -167 -45q-20 0 -34 0.5q-14 0.5 -30 4.5q-5 -10 -12.5 -21.5q-7.5 -11.5 -7.5 -24.5q0 -21 26 -31.5q26 -10.5 65 -19q39 -8.5 85 -17q46 -8.5 85.5 -25q39.5 -16.5 65.5 -43.5q26 -27 26 -71q0 -38 -19.5 -66.5q-19.5 -28.5 -55 -47q-35.5 -18.5 -84.5 -27.5q-49 -9 -107 -9q-125 0 -187 33q-62 33 -62 91q0 56 38 86q38 30 107 50q-26 11 -42 24q-16 13 -16 39q0 12 6 24.5q6 12.5 16 24q10 11.5 22 21q12 9.5 23 15.5q-64 17 -98.5 58q-34.5 41 -34.5 98q0 73 57 117q57 44 168 44zM442 -74q0 33 -23.5 52.5q-23.5 19.5 -59 32q-35.5 12.5 -76.5 20.5q-41 8 -77 19q-42 -25 -55.5 -50.5q-13.5 -25.5 -13.5 -54.5q0 -42 42 -70q42 -28 122 -28q41 0 68 6.5q27 6.5 43.5 17.5q16.5 11 23 25q6.5 14 6.5 30zt0 0zM158 364q0 -26 6 -48q6 -22 19.5 -37.5q13.5 -15.5 36.5 -24.5q23 -9 58 -9q64 0 92 32.5q28 32.5 28 86.5q0 21 -1.5 35q-1.5 14 -4 25q-2.5 11 -5.5 19.5q-3 8.5 -6 17.5q-23 10 -49 13.5q-26 3.5 -54 3.5q-68 0 -94 -28t-26 -86z" />
<glyph unicode="&#104;" horiz-adv-x="661" d="M642 0h-245v50h66v246q0 83 -22 127.5q-22 44.5 -78 44.5q-30 0 -56 -10q-26 -10 -46 -26q-20 -16 -34.5 -35.5q-14.5 -19.5 -21.5 -38.5l0 -308h66v-50h-245v50h74v650h-85v50h190v-331h1q23 49 72.5 82.5q49.5 33.5 118.5 33.5q39 0 71 -9.5q32 -9.5 54 -34.5q22 -25 34 -67q12 -42 12 -107v-267l74 0z" />
<glyph unicode="&#105;" horiz-adv-x="339" d="M298 0h-253v50h74v425h-74v50h179v-475h74zM97 687q0 29 20.5 46q20.5 17 52.5 17q34 0 53.5 -17q19.5 -17 19.5 -46q0 -29 -19.5 -46q-19.5 -17 -53.5 -17q-32 0 -52.5 17t-20.5 46z" />
<glyph unicode="&#106;" horiz-adv-x="326" d="M119 475h-74v50h179v-463q0 -75 -20.5 -124q-20.5 -49 -48.5 -79.5q-28 -30.5 -56.5 -45q-28.5 -14.5 -44.5 -19.5l-27 43q13 6 29 18.5q16 12.5 30 35.5q14 23 23.5 59.5q9.5 36.5 9.5 91.5zM96 687q0 29 20.5 46q20.5 17 52.5 17q34 0 53.5 -17q19.5 -17 19.5 -46q0 -29 -19.5 -46q-19.5 -17 -53.5 -17q-32 0 -52.5 17t-20.5 46z" />
<glyph unicode="&#107;" horiz-adv-x="582" d="M317 525h220v-50h-64l-155 -179l204 -246h50v-50h-144l-186 249h-37v-199h74v-50h-253v50h74v650h-85v50h190v-461h35l153 186l-76 0z" />
<glyph unicode="&#108;" horiz-adv-x="339" d="M298 0h-253v50h74v650h-85v50h190v-700l74 0z" />
<glyph unicode="&#109;" horiz-adv-x="971" d="M617 0h-242v50h65v243q0 42 -3.5 75q-3.5 33 -14 55q-10.5 22 -30.5 33.5q-20 11.5 -52 11.5q-24 0 -44 -8.5q-20 -8.5 -36 -23.5q-16 -15 -27.5 -34.5q-11.5 -19.5 -18.5 -41.5l0 -310h65v-50h-244v50h74v425h-74v50h179v-106h1q17 49 60.5 82.5q43.5 33.5 106.5 33.5q26 0 51.5 -5q25.5 -5 46.5 -19q21 -14 36.5 -38.5q15.5 -24.5 21.5 -64.5q10 25 26.5 48q16.5 23 39 40.5q22.5 17.5 50.5 28q28 10.5 61 10.5q41 0 71.5 -10q30.5 -10 51 -34.5q20.5 -24.5 30.5 -67q10 -42.5 10 -108.5v-265h74v-50h-244v50h65v262q0 37 -4 66.5q-4 29.5 -15 49q-11 19.5 -31 30q-20 10.5 -53 10.5q-53 0 -82.5 -32.5q-29.5 -32.5 -42.5 -85.5l0 -300l72 0z" />
<glyph unicode="&#110;" horiz-adv-x="670" d="M651 0h-245v50h66v251q0 79 -24 123q-24 44 -88 44q-28 0 -51.5 -9q-23.5 -9 -42 -24q-18.5 -15 -32 -35q-13.5 -20 -20.5 -42l0 -308h66v-50h-245v50h74v425h-74v50h179v-104h1q23 48 67.5 81q44.5 33 107.5 33q45 0 80 -9.5q35 -9.5 58.5 -34.5q23.5 -25 36 -67q12.5 -42 12.5 -107v-267l74 0z" />
<glyph unicode="&#111;" horiz-adv-x="622" d="M45 262q0 66 19 117q19 51 53.5 85.5q34.5 34.5 84 52.5q49.5 18 109.5 18q70 0 120.5 -19.5q50.5 -19.5 82.5 -55q32 -35.5 47.5 -86q15.5 -50.5 15.5 -112.5q0 -66 -18.5 -116.5q-18.5 -50.5 -53 -85q-34.5 -34.5 -84 -52.5q-49.5 -18 -110.5 -18q-68 0 -118 19.5q-50 19.5 -83 55q-33 35.5 -49 85.5q-16 50 -16 112zt0 0zM158 262q0 -48 9 -89q9 -41 29.5 -71q20.5 -30 53 -47.5q32.5 -17.5 79.5 -17.5q59 0 97 54q38 54 38 171q0 48 -9 89.5q-9 41.5 -28.5 72q-19.5 30.5 -50 47.5q-30.5 17 -74.5 17q-66 0 -105 -54t-39 -172z" />
<glyph unicode="&#112;" horiz-adv-x="636" d="M287 -200h-253v50h74v625h-74v50h179v-105h1q22 53 62.5 84q40.5 31 106.5 31q99 0 153.5 -61q54.5 -61 54.5 -200q0 -66 -18.5 -119q-18.5 -53 -53 -90q-34.5 -37 -83 -56.5q-48.5 -19.5 -108.5 -19.5q-20 0 -35.5 1q-15.5 1 -28.5 3q-13 2 -25.5 6q-12.5 4 -25.5 9l0 -158h74zM344 468q-54 0 -85.5 -30.5q-31.5 -30.5 -45.5 -86.5l0 -293q20 -13 44.5 -17.5q24.5 -4.5 65.5 -4.5q37 0 66 17.5q29 17.5 49 49q20 31.5 30.5 75q10.5 43.5 10.5 96.5q0 43 -7 78.5q-7 35.5 -22.5 61q-15.5 25.5 -41.5 40t-64 14.5z" />
<glyph unicode="&#113;" horiz-adv-x="616" d="M417 93q-8 -21 -22 -39.5q-14 -18.5 -33.5 -33q-19.5 -14.5 -44.5 -23q-25 -8.5 -56 -8.5q-106 0 -161 66q-55 66 -55 203q0 137 73 207q73 70 210 70q30 0 60 -3q30 -3 56.5 -8q26.5 -5 48 -10.5q21.5 -5.5 33.5 -11.5l0 -652h74v-50h-253v50h74v243zM290 56q54 0 85.5 31q31.5 31 45.5 85l0 301q-20 5 -47.5 10q-27.5 5 -62.5 5q-74 0 -113.5 -54.5q-39.5 -54.5 -39.5 -172.5q0 -44 7 -81.5q7 -37.5 22.5 -65q15.5 -27.5 40.5 -43t62 -15.5z" />
<glyph unicode="&#114;" horiz-adv-x="433" d="M284 435q-23 -12 -38 -28q-15 -16 -32 -46l0 -311h88v-50h-267v50h74v425h-74v50h179v-101h4q17 33 40 57.5q23 24.5 52 43.5l96 0l0 -90z" />
<glyph unicode="&#115;" horiz-adv-x="486" d="M332 119q0 27 -20 47.5q-20 20.5 -50 38q-30 17.5 -65 35q-35 17.5 -65 40q-30 22.5 -50 53q-20 30.5 -20 73.5q0 29 14 52.5q14 23.5 37.5 40.5q23.5 17 55.5 26.5q32 9.5 68 9.5q30 0 53 -2q23 -2 42 -5.5q19 -3.5 36 -8.5q17 -5 35 -11l0 -135h-64v79l-19 22q-13 3 -28 5q-15 2 -32 2q-48 0 -71.5 -18.5q-23.5 -18.5 -23.5 -46.5q0 -27 20 -47q20 -20 50 -37.5q30 -17.5 65 -34.5q35 -17 65 -38.5q30 -21.5 50 -49.5q20 -28 20 -67q0 -36 -16.5 -64q-16.5 -28 -45 -47.5q-28.5 -19.5 -67 -30q-38.5 -10.5 -81.5 -10.5q-48 0 -93.5 12.5q-45.5 12.5 -71.5 29.5l0 131h64v-76l20 -21q13 -10 31 -16q18 -6 47 -6q48 0 79 20t31 55z" />
<glyph unicode="&#116;" horiz-adv-x="418" d="M17 525h89v125h105v-125h166v-64h-166v-292q0 -63 16 -89q16 -26 52 -26q31 0 53.5 11q22.5 11 41.5 24l25 -39q-9 -9 -24.5 -19.5q-15.5 -10.5 -35.5 -19.5q-20 -9 -44.5 -15q-24.5 -6 -50.5 -6q-67 0 -102.5 34.5q-35.5 34.5 -35.5 114.5v322l-89 0z" />
<glyph unicode="&#117;" horiz-adv-x="647" d="M87 208q0 66 3 135q3 69 3 132l-74 0v50h178q-2 -78 -3.5 -149.5q-1.5 -71.5 -1.5 -148.5q0 -41 4.5 -72.5q4.5 -31.5 17 -53.5q12.5 -22 34.5 -33q22 -11 56 -11q50 0 84 32q34 32 52 86l0 300h-73v50h178v-475h74v-50h-167l-7 114h-5q-5 -21 -19.5 -43q-14.5 -22 -36.5 -40q-22 -18 -51 -29.5q-29 -11.5 -63 -11.5q-45 0 -79 9.5q-34 9.5 -57 34.5q-23 25 -35 67t-12 107z" />
<glyph unicode="&#118;" horiz-adv-x="571" d="M238 0l-192 475h-57v50h238v-50h-67l120 -315l26 -109h5l28 109l112 315h-61v50h192v-50h-62l-174 -475z" />
<glyph unicode="&#119;" horiz-adv-x="820" d="M176 0l-127 475h-60v50h236v-50h-67l83 -337l12 -77h6l15 78l120 373h79l102 -351l22 -100h5l19 98l79 316h-62v50h193v-50h-63l-132 -475h-117l-80 299q-1 1 -3.5 14.5q-2.5 13.5 -6.5 30.5q-4 19 -10 43l-6 0q-7 -25 -12 -43q-5 -17 -9 -30q-4 -13 -4 -15l-102 -299z" />
<glyph unicode="&#120;" horiz-adv-x="586" d="M338 281l177 -231h59v-50h-244v50h67l-123 174l-124 -174h55v-50h-193v50h63l167 210l-168 215h-55v50h240v-50h-65l115 -159l112 159h-55v50h188v-50l-62 0z" />
<glyph unicode="&#121;" horiz-adv-x="568" d="M47 475h-59v50h258v-50h-84l136 -332l20 -76h5l19 77l107 331h-61v50h192v-50h-64l-164 -475q-14 -41 -30.5 -75.5q-16.5 -34.5 -32 -61q-15.5 -26.5 -30 -43q-14.5 -16.5 -24.5 -20.5l-101 0v90h102q7 8 13 16q6 8 12 20q6 12 13 29.5q7 17.5 16 44.5l-37 0z" />
<glyph unicode="&#122;" horiz-adv-x="549" d="M491 181v-181h-434v50l329 425h-217l-20 -20v-100h-64v170h416v-50l-331 -425h237l20 20l0 111z" />
<glyph unicode="&#123;" horiz-adv-x="391" d="M150 110q0 51 -23 80q-23 29 -67 29l0 32q44 0 67 30.5q23 30.5 23 74.5v238q0 48 27 77q27 29 81 29h103v-42h-53q-30 0 -44 -14q-14 -14 -14 -46v-233q0 -33 -12 -56q-12 -23 -30 -37.5q-18 -14.5 -40 -22q-22 -7.5 -42 -9.5l0 -6q19 -2 41 -10q22 -8 40.5 -24q18.5 -16 30.5 -39.5q12 -23.5 12 -55.5v-233q0 -31 14 -45.5q14 -14.5 46 -14.5h51v-42h-103q-50 0 -79 26.5q-29 26.5 -29 78.5z" />
<glyph unicode="&#124;" horiz-adv-x="266" d="M103 700h59v-830l-59 0z" />
<glyph unicode="&#125;" horiz-adv-x="391" d="M241 361q0 -51 23.5 -80q23.5 -29 66.5 -29l0 -32q-43 0 -66.5 -30.5q-23.5 -30.5 -23.5 -74.5v-239q0 -48 -27 -77q-27 -29 -82 -29h-102v42h53q30 0 44 14q14 14 14 46v234q0 33 10 56q10 23 26.5 37.5q16.5 14.5 36.5 22q20 7.5 40 9.5l0 6q-20 2 -40 10q-20 8 -36 24q-16 16 -26.5 39.5q-10.5 23.5 -10.5 55.5v232q0 31 -13.5 45.5q-13.5 14.5 -45.5 14.5h-52v42h103q50 0 79 -26.5q29 -26.5 29 -78.5z" />
<glyph unicode="&#126;" horiz-adv-x="600" d="M61 331q41 54 82 70.5q41 16.5 76 16.5q29 0 55.5 -10.5q26.5 -10.5 52.5 -23.5q26 -13 52 -23.5q26 -10.5 54 -10.5q21 0 42.5 7.5q21.5 7.5 44.5 26.5l19 -32q-32 -42 -65.5 -54.5q-33.5 -12.5 -65.5 -12.5q-29 0 -56.5 10.5q-27.5 10.5 -54.5 23.5q-27 13 -54 23.5q-27 10.5 -54 10.5q-25 0 -49.5 -10.5q-24.5 -10.5 -50.5 -41.5z" />
<glyph unicode="&#160;" horiz-adv-x="274" />
<glyph unicode="&#161;" horiz-adv-x="368" d="M173 286l38 -177v-305h-105v305l37 177zM235 446q0 -31 -21.5 -49q-21.5 -18 -55.5 -18q-35 0 -57 18q-22 18 -22 49q0 30 22 48q22 18 57 18q34 0 55.5 -18t21.5 -48z" />
<glyph unicode="&#162;" horiz-adv-x="600" d="M547 78q-10 -18 -27.5 -34q-17.5 -16 -41 -28.5q-23.5 -12.5 -51 -20q-27.5 -7.5 -58.5 -7.5l0 -158h-64v162q-53 6 -96.5 27q-43.5 21 -75 54.5q-31.5 33.5 -48.5 78.5q-17 45 -17 98q0 62 17 111q17 49 48.5 84q31.5 35 75 56.5q43.5 21.5 96.5 29.5l0 129h64v-125q54 0 87.5 -8q33.5 -8 63.5 -22l0 -167h-64v137q-3 2 -11.5 4.5q-8.5 2.5 -19.5 5q-11 2.5 -23 4q-12 1.5 -24 1.5h-11v-440q4 0 8 -0.5q4 -0.5 8 -0.5q38 0 72 14q34 14 67 46zM181 269q0 -71 32 -123.5q32 -52.5 96 -77.5l0 414q-57 -16 -92.5 -70.5t-35.5 -142.5z" />
<glyph unicode="&#163;" horiz-adv-x="600" d="M34 381h95q-17 32 -30 67q-13 35 -13 86q0 41 17 74q17 33 47.5 56q30.5 23 73 35.5q42.5 12.5 94.5 12.5q69 0 121 -9.5q52 -9.5 84 -23.5l0 -172h-64v115l-20 24q-11 3 -21 5.5q-10 2.5 -23.5 4q-13.5 1.5 -32 2q-18.5 0.5 -45.5 0.5q-24 0 -46.5 -7q-22.5 -7 -39.5 -21q-17 -14 -27 -34.5q-10 -20.5 -10 -47.5q0 -51 15 -90.5q15 -39.5 29 -76.5l173 0v-52h-153q8 -25 10 -50q2 -25 2 -53q0 -16 -2.5 -31.5q-2.5 -15.5 -11.5 -32.5q-9 -17 -26 -36q-17 -19 -45 -43l279 0l20 20v93h64v-196h-511v33q72 27 107.5 66q35.5 39 35.5 99q0 32 -5.5 62.5q-5.5 30.5 -19.5 68.5l-121 0z" />
<glyph unicode="&#164;" horiz-adv-x="600" d="M40 171l93 81l38 12q-16 17 -22 37.5q-6 20.5 -6 44.5q0 23 7 44q7 21 21 38l-38 12l-92 82l61 56l92 -83l14 -34q20 13 42.5 20q22.5 7 49.5 7q56 -2 92 -27l14 34l91 82l62 -56l-92 -81l-38 -11q14 -17 20.5 -38q6.5 -21 7.5 -45q0 -49 -28 -83l38 -11l92 -82l-63 -56l-91 82l-13 34q-38 -24 -92 -24q-27 0 -50 6.5q-23 6.5 -45 17.5l-11 -33l-93 -82zM300 264q41 0 68 23q27 23 27 59q0 36 -27 60q-27 24 -68 24q-41 0 -68 -24q-27 -24 -27 -60q0 -36 27 -59t68 -23z" />
<glyph unicode="&#165;" horiz-adv-x="600" d="M404 700h247v-50h-86l-177 -315h159v-52h-181v-63h181v-52h-181v-118h91v-50h-294v50h91v118h-181v52h181v63h-181v52h158l-193 315h-91v50h303v-50h-86l171 -299l160 299l-91 0z" />
<glyph unicode="&#166;" horiz-adv-x="266" d="M103 190h59v-320h-59zM162 380h-59v320l59 0z" />
<glyph unicode="&#167;" horiz-adv-x="595" d="M390 43q0 30 -24 48q-24 18 -60 31.5q-36 13.5 -78 26q-42 12.5 -78 31.5q-36 19 -60 48q-24 29 -24 76q0 25 11.5 46.5q11.5 21.5 31.5 39.5q20 18 46.5 32.5q26.5 14.5 57.5 26.5q-23 10 -43.5 22q-20.5 12 -35.5 28.5q-15 16.5 -24 38q-9 21.5 -9 49.5q0 27 13.5 50q13.5 23 38 39.5q24.5 16.5 59 26q34.5 9.5 76.5 9.5q60 0 103.5 -6q43.5 -6 79.5 -17l0 -102h-72v63q-12 5 -35 11.5q-23 6.5 -49 6.5q-30 0 -51 -6.5q-21 -6.5 -34.5 -16.5q-13.5 -10 -19.5 -23q-6 -13 -6 -26q0 -30 24 -49q24 -19 60 -34q36 -15 78 -29q42 -14 78 -32.5q36 -18.5 60 -46q24 -27.5 24 -68.5q0 -29 -13.5 -52.5q-13.5 -23.5 -34.5 -42q-21 -18.5 -46.5 -33.5q-25.5 -15 -49.5 -25q22 -9 42 -19.5q20 -10.5 35 -24.5q15 -14 23.5 -31.5q8.5 -17.5 8.5 -40.5q0 -35 -15.5 -62.5q-15.5 -27.5 -44.5 -47q-29 -19.5 -70 -30q-41 -10.5 -91 -10.5q-97 0 -182 30l0 105h72v-63q12 -8 41 -18q29 -10 67 -10q54 0 87 24q33 24 33 57zt0 0zM425 312q0 24 -13.5 41q-13.5 17 -36 30q-22.5 13 -51.5 23.5q-29 10.5 -59 21.5q-18 -8 -35.5 -19q-17.5 -11 -31 -24q-13.5 -13 -21.5 -28q-8 -15 -8 -31q0 -26 14 -45q14 -19 37 -33q23 -14 52.5 -24.5q29.5 -10.5 60.5 -20.5q18 10 34.5 23.5q16.5 13.5 29.5 28q13 14.5 20.5 29t7.5 28.5z" />
<glyph unicode="&#168;" horiz-adv-x="494" d="M60 688q0 29 17.5 46.5q17.5 17.5 46.5 17.5q29 0 46.5 -17.5q17.5 -17.5 17.5 -46.5q0 -27 -17.5 -44.5q-17.5 -17.5 -46.5 -17.5q-29 0 -46.5 17.5q-17.5 17.5 -17.5 44.5zt0 0zM306 688q0 29 18.5 46.5q18.5 17.5 46.5 17.5q29 0 46 -17.5q17 -17.5 17 -46.5q0 -27 -17 -44.5q-17 -17.5 -46 -17.5q-28 0 -46.5 17.5t-18.5 44.5z" />
<glyph unicode="&#169;" horiz-adv-x="907" d="M78 290q0 83 31 148.5q31 65.5 83 110.5q52 45 120 69q68 24 141 24q73 0 139.5 -24q66.5 -24 117 -69q50.5 -45 80 -110.5q29.5 -65.5 29.5 -148.5q0 -83 -29.5 -148.5q-29.5 -65.5 -80 -110.5q-50.5 -45 -117 -69q-66.5 -24 -139.5 -24q-81 0 -149.5 24q-68.5 24 -119 69q-50.5 45 -78.5 110.5q-28 65.5 -28 148.5zt0 0zM132 290q0 -69 24 -125q24 -56 67 -95.5q43 -39.5 102 -61.5q59 -22 128 -22q70 0 127.5 22q57.5 22 98.5 61.5q41 39.5 63.5 95.5q22.5 56 22.5 125q0 69 -24 125q-24 56 -66 96q-42 40 -99 61.5q-57 21.5 -123 21.5q-74 0 -133 -22q-59 -22 -101 -61.5q-42 -39.5 -64.5 -95.5q-22.5 -56 -22.5 -125zt0 0zM545 207h46v-100q-20 -14 -49 -19.5q-29 -5.5 -61 -5.5q-54 0 -99.5 13.5q-45.5 13.5 -78.5 40q-33 26.5 -51.5 65.5q-18.5 39 -18.5 90q0 52 20.5 91q20.5 39 53.5 65q33 26 75 39.5q42 13.5 85 13.5q45 0 75 -5.5q30 -5.5 53 -16.5l0 -109h-50v78q-3 2 -11.5 4q-8.5 2 -18.5 3.5q-10 1.5 -21 2.5q-11 1 -19 1q-63 0 -98.5 -44.5q-35.5 -44.5 -35.5 -122.5q0 -33 8 -63.5q8 -30.5 25.5 -53.5q17.5 -23 45.5 -36.5q28 -13.5 67 -13.5q21 0 37 5q16 5 21 9z" />
<glyph unicode="&#170;" horiz-adv-x="484" d="M96 600l-6 73q14 6 29.5 12q15.5 6 36 10q20.5 4 47 6.5q26.5 2.5 62.5 2.5q72 0 99 -26q27 -26 27 -75q0 -19 -0.5 -42.5q-0.5 -23.5 -1 -47.5q-0.5 -24 -1 -45.5q-0.5 -21.5 -0.5 -37.5l56 0v-50h-123l-10 59h-5q-6 -9 -16 -21q-10 -12 -25.5 -22q-15.5 -10 -38.5 -17q-23 -7 -54 -7q-52 0 -84.5 24.5q-32.5 24.5 -32.5 68.5q0 31 17.5 50.5q17.5 19.5 47.5 30.5q30 11 70 15.5q40 4.5 84 4.5q8 0 15.5 -0.5q7.5 -0.5 15.5 -0.5q1 6 1 17.5q0 11.5 0 16.5q0 13 -3 25q-3 12 -12 21.5q-9 9.5 -24.5 15q-15.5 5.5 -39.5 5.5q-13 0 -28.5 -2.5q-15.5 -2.5 -31.5 -7.5l0 -56zM206 419q23 0 39.5 6.5q16.5 6.5 28.5 15.5q12 9 19 19.5q7 10.5 12 19.5l0 52q-11 1 -23 1q-12 0 -23 0q-22 0 -42.5 -3.5q-20.5 -3.5 -36 -11q-15.5 -7.5 -24.5 -19.5q-9 -12 -9 -28q0 -20 15 -36t44 -16z" />
<glyph unicode="&#171;" horiz-adv-x="530" d="M246 259l191 206l29 -20l-119 -179l125 -189l-27 -21zM27 259l241 208l29 -21l-155 -181l162 -189l-30 -22z" />
<glyph unicode="&#172;" horiz-adv-x="600" d="M67 388h478v-190h-71v126l-407 0z" />
<glyph unicode="&#173;" horiz-adv-x="475" d="M80 314h316v-64l-316 0z" />
<glyph unicode="&#174;" horiz-adv-x="785" d="M109 451q0 64 23 114q23 50 62 84q39 34 90.5 51.5q51.5 17.5 108.5 17.5q59 0 111 -17.5q52 -17.5 90.5 -51.5q38.5 -34 61 -84q22.5 -50 22.5 -114q0 -65 -23 -114.5q-23 -49.5 -62.5 -83.5q-39.5 -34 -91 -51.5q-51.5 -17.5 -108.5 -17.5q-56 0 -107 17.5q-51 17.5 -90.5 51.5q-39.5 34 -63 83.5q-23.5 49.5 -23.5 114.5zt0 0zM157 451q0 -52 19.5 -93.5q19.5 -41.5 52 -71q32.5 -29.5 75 -45q42.5 -15.5 89.5 -15.5q49 0 92 15.5q43 15.5 75.5 44.5q32.5 29 51 70.5q18.5 41.5 18.5 94.5q0 52 -19.5 93.5q-19.5 41.5 -52 70.5q-32.5 29 -75.5 45q-43 16 -90 16q-50 0 -93 -16q-43 -16 -75 -45q-32 -29 -50 -70.5q-18 -41.5 -18 -93.5zt0 0zM356 343h40v-34h-140v34h39v231h-39v34h44q20 0 48 2q28 2 46 2q25 0 48.5 -4.5q23.5 -4.5 41 -15q17.5 -10.5 28 -26.5q10.5 -16 10.5 -38q0 -31 -21.5 -51.5q-21.5 -20.5 -52.5 -29.5l73 -104h27v-34h-77l-76 134h-39zM389 579q-13 0 -19.5 -0.5q-6.5 -0.5 -13.5 -2.5l0 -103h35q65 0 65 55q0 26 -19 38.5t-48 12.5z" />
<glyph unicode="&#175;" horiz-adv-x="408" d="M60 668v55h288l0 -55z" />
<glyph unicode="&#176;" horiz-adv-x="474" d="M101 571q0 31 11 57q11 26 31 44.5q20 18.5 47.5 29q27.5 10.5 60.5 10.5q66 0 108.5 -35.5q42.5 -35.5 42.5 -105.5q0 -66 -42.5 -103.5q-42.5 -37.5 -108.5 -37.5q-33 0 -60.5 9.5q-27.5 9.5 -47.5 28q-20 18.5 -31 44.5q-11 26 -11 59zt0 0zM161 571q0 -40 26 -65.5q26 -25.5 64 -25.5q43 0 67 23.5q24 23.5 24 67.5q0 42 -24.5 66.5q-24.5 24.5 -66.5 24.5q-43 0 -66.5 -24.5t-23.5 -66.5z" />
<glyph unicode="&#177;" horiz-adv-x="600" d="M48 491h222v209h60v-209h222v-54h-222v-153h-60v153h-222zM48 231h504v-54l-504 0z" />
<glyph unicode="&#178;" horiz-adv-x="480" d="M143 633h-64v124q17 11 33 20q16 9 35 16q19 7 43 10.5q24 3.5 58 3.5q43 0 72.5 -9.5q29.5 -9.5 47.5 -25q18 -15.5 26 -36.5q8 -21 8 -45q0 -33 -18 -66.5q-18 -33.5 -51 -65.5q-33 -32 -78.5 -61.5q-45.5 -29.5 -99.5 -54.5l0 -6l35 6h172v68h64v-131h-360v63q46 23 89 50q43 27 76.5 57q33.5 30 54 62q20.5 32 20.5 65q0 19 -4 33.5q-4 14.5 -14.5 25q-10.5 10.5 -28.5 16q-18 5.5 -46 5.5q-20 0 -37.5 -3q-17.5 -3 -32.5 -11z" />
<glyph unicode="&#179;" horiz-adv-x="480" d="M231 420q27 0 46 7q19 7 31 18q12 11 17.5 24.5q5.5 13.5 5.5 26.5q0 42 -26.5 60q-26.5 18 -87.5 18h-38v32l146 144h-190v-94h-64v144h334v-50l-147 -131v-1l35 4q27 0 51 -7.5q24 -7.5 42.5 -22q18.5 -14.5 29.5 -36.5q11 -22 11 -51q0 -65 -56.5 -98.5q-56.5 -33.5 -152.5 -33.5q-46 0 -89 16q-43 16 -72 35l0 72h90v-53q10 -6 30 -14.5t54 -8.5z" />
<glyph unicode="&#180;" horiz-adv-x="344" d="M158 750h126v-41l-196 -117l-28 23z" />
<glyph unicode="&#181;" horiz-adv-x="653" d="M177 -200h-84v675h-74v50h179v-298q0 -41 4.5 -73q4.5 -32 17 -54.5q12.5 -22.5 34.5 -34q22 -11.5 56 -11.5q50 0 84 33.5q34 33.5 52 87.5l0 300h-74v50h179v-475h74v-50h-175v114h-5q-5 -21 -19 -43.5q-14 -22.5 -36 -41q-22 -18.5 -50.5 -30.5q-28.5 -12 -61.5 -12q-35 0 -57.5 8q-22.5 8 -43.5 24z" />
<glyph unicode="&#182;" horiz-adv-x="592" d="M444 94q0 -67 -12 -109.5q-12 -42.5 -33 -68q-21 -25.5 -49.5 -38q-28.5 -12.5 -61.5 -18.5q-23 -32 -53 -48q-30 -16 -59 -24l-23 33q25 9 46 22.5q21 13.5 36 36q15 22.5 23.5 57.5q8.5 35 8.5 87v286q-36 0 -71.5 10q-35.5 10 -64 32.5q-28.5 22.5 -46.5 59q-18 36.5 -18 88.5q0 42 14 78.5q14 36.5 42 63.5q28 27 70.5 42.5q42.5 15.5 99.5 15.5h235v-50h-84zM310 -94q35 13 52.5 56q17.5 43 17.5 132v556h-49v-626q0 -40 -4 -68.5t-17 -49.5z" />
<glyph unicode="&#183;" horiz-adv-x="269" d="M58 308q0 31 21 49q21 18 56 18q35 0 57 -18q22 -18 22 -49q0 -30 -22 -48q-22 -18 -57 -18q-35 0 -56 18t-21 48z" />
<glyph unicode="&#184;" horiz-adv-x="306" d="M125 -61q63 -2 92 -17.5q29 -15.5 29 -48.5q0 -32 -17.5 -51q-17.5 -19 -44.5 -29q-27 -10 -60 -13.5q-33 -3.5 -64 -3.5l0 32q21 1 38.5 3q17.5 2 29.5 7q12 5 18.5 14q6.5 9 6.5 25q0 26 -23 32q-23 6 -69 10l42 102l51 0z" />
<glyph unicode="&#185;" horiz-adv-x="480" d="M410 380h-315v50h112v309l-99 -37l-22 45l121 53h91v-370l112 0z" />
<glyph unicode="&#186;" horiz-adv-x="490" d="M48 542q0 39 15 70q15 31 41 53.5q26 22.5 62.5 34.5q36.5 12 78.5 12q43 0 79 -10.5q36 -10.5 62 -31.5q26 -21 40.5 -53q14.5 -32 14.5 -75q0 -39 -14.5 -70.5q-14.5 -31.5 -40.5 -53.5q-26 -22 -62 -34q-36 -12 -79 -12q-42 0 -78.5 10.5q-36.5 10.5 -62.5 31.5q-26 21 -41 53q-15 32 -15 75zt0 0zM144 542q0 -60 26 -96q26 -36 75 -36q100 0 100 132q0 132 -100 132q-49 0 -75 -33t-26 -99z" />
<glyph unicode="&#187;" horiz-adv-x="530" d="M88 56l-29 21l125 184l-119 184l29 20l191 -206zM257 54l-31 22l164 184l-157 186l29 21l242 -208z" />
<glyph unicode="&#188;" horiz-adv-x="1055" d="M392 280h-315v50h112v309l-99 -37l-22 45l121 53h91v-370h112zM845 714l41 -38l-657 -686l-39 39zM941 0h-240v50h89v69h-250v50l250 251h84v-251h95v-50h-95v-69h67zM790 344l-179 -175l179 0z" />
<glyph unicode="&#189;" horiz-adv-x="1129" d="M392 280h-315v50h112v309l-99 -37l-22 45l121 53h91v-370h112zM845 714l41 -38l-657 -686l-39 39zM767 253h-64v124q17 11 33 20q16 9 35 16q19 7 43 10.5q24 3.5 58 3.5q43 0 72.5 -9.5q29.5 -9.5 47.5 -25q18 -15.5 26 -36.5q8 -21 8 -45q0 -33 -18 -66.5q-18 -33.5 -51 -65.5q-33 -32 -78.5 -61.5q-45.5 -29.5 -99.5 -54.5l0 -6l35 6h172v68h64v-131h-360v63q46 23 89 50q43 27 76.5 57q33.5 30 54 62q20.5 32 20.5 65q0 19 -4 33.5q-4 14.5 -14.5 25q-10.5 10.5 -28.5 16q-18 5.5 -46 5.5q-20 0 -37.5 -3q-17.5 -3 -32.5 -11z" />
<glyph unicode="&#190;" horiz-adv-x="1111" d="M260 320q27 0 46 7q19 7 31 18q12 11 17.5 24.5q5.5 13.5 5.5 26.5q0 42 -26.5 60q-26.5 18 -87.5 18h-38v32l146 144h-190v-94h-64v144h334v-50l-147 -131v-1l35 4q27 0 51 -7.5q24 -7.5 42.5 -22q18.5 -14.5 29.5 -36.5q11 -22 11 -51q0 -65 -56.5 -98.5q-56.5 -33.5 -152.5 -33.5q-46 0 -89 16q-43 16 -72 35l0 72h90v-53q10 -6 30 -14.5q20 -8.5 54 -8.5zt0 0zM901 714l41 -38l-657 -686l-39 39zM998 0h-240v50h89v69h-250v50l250 251h84v-251h95v-50h-95v-69h67zM847 344l-179 -175l179 0z" />
<glyph unicode="&#191;" horiz-adv-x="531" d="M352 -44h96v-121q-42 -23 -88 -33q-46 -10 -100 -10q-118 0 -173 53.5q-55 53.5 -55 148.5q0 44 15.5 82q15.5 38 45 68q29.5 30 71.5 50.5q42 20.5 96 27.5l0 100h64v-142q-45 -9 -78.5 -23q-33.5 -14 -56 -36q-22.5 -22 -34 -53.5q-11.5 -31.5 -11.5 -75.5q0 -27 7 -53.5q7 -26.5 22 -47.5q15 -21 38.5 -34q23.5 -13 56.5 -13q35 0 54.5 5.5q19.5 5.5 29.5 13.5zM371 446q0 -31 -21 -49q-21 -18 -56 -18q-35 0 -57 18q-22 18 -22 49q0 30 22 48q22 18 57 18q35 0 56 -18t21 -48z" />
<glyph unicode="&#192;" horiz-adv-x="755" d="M245 0h-245v56h78l259 644h106l237 -644h75v-56h-286v56h89l-65 176h-266l-68 -176h86zM250 288h226l-82 231l-25 106h-4l-29 -108zM433 793l-13 -24l-256 72v40l123 33z" />
<glyph unicode="&#193;" horiz-adv-x="755" d="M245 0h-245v56h78l259 644h106l237 -644h75v-56h-286v56h89l-65 176h-266l-68 -176h86zM250 288h226l-82 231l-25 106h-4l-29 -108zM485 914l123 -33v-40l-256 -72l-13 24z" />
<glyph unicode="&#194;" horiz-adv-x="755" d="M245 0h-245v56h78l259 644h106l237 -644h75v-56h-286v56h89l-65 176h-266l-68 -176h86zM250 288h226l-82 231l-25 106h-4l-29 -108zM244 761l-16 20l142 133h31l141 -130l-18 -22l-142 56z" />
<glyph unicode="&#195;" horiz-adv-x="755" d="M245 0h-245v56h78l259 644h106l237 -644h75v-56h-286v56h89l-65 176h-266l-68 -176h86zM250 288h226l-82 231l-25 106h-4l-29 -108zM564 843q-36 -38 -65.5 -53q-29.5 -15 -58.5 -15q-21 0 -39.5 6.5q-18.5 6.5 -36.5 14q-18 7.5 -35 14q-17 6.5 -35 6.5q-14 0 -31 -6.5q-17 -6.5 -35 -23.5l-22 36q43 42 76 57q33 15 62 15q21 0 39 -6q18 -6 35 -13.5q17 -7.5 33.5 -13.5q16.5 -6 34.5 -6q14 0 30.5 5q16.5 5 33.5 19z" />
<glyph unicode="&#196;" horiz-adv-x="755" d="M245 0h-245v56h78l259 644h106l237 -644h75v-56h-286v56h89l-65 176h-266l-68 -176h86zM250 288h226l-82 231l-25 106h-4l-29 -108zM194 796q0 29 18.5 43.5q18.5 14.5 46.5 14.5q29 0 48 -14.5q19 -14.5 19 -43.5q0 -26 -19 -40q-19 -14 -48 -14q-28 0 -46.5 14q-18.5 14 -18.5 40zt0 0zM446 796q0 29 19 43.5q19 14.5 46 14.5q29 0 48 -14.5q19 -14.5 19 -43.5q0 -26 -19 -40q-19 -14 -48 -14q-27 0 -46 14t-19 40z" />
<glyph unicode="&#197;" horiz-adv-x="755" d="M245 0h-245v56h78l259 644h106l237 -644h75v-56h-286v56h89l-65 176h-266l-68 -176h86zM250 288h226l-82 231l-25 106h-4l-29 -108zM259 788q0 41 38 63.5q38 22.5 93 22.5q22 0 44 -5q22 -5 39.5 -15q17.5 -10 28.5 -25.5q11 -15.5 11 -37.5q0 -20 -10 -35q-10 -15 -27.5 -26q-17.5 -11 -40 -16.5q-22.5 -5.5 -46.5 -5.5q-58 0 -94 21q-36 21 -36 59zt0 0zM334 788q0 -17 14.5 -27.5q14.5 -10.5 34.5 -10.5q29 0 42 10q13 10 13 27q0 26 -15 35.5q-15 9.5 -36 9.5q-27 0 -40 -12.5t-13 -31.5z" />
<glyph unicode="&#198;" horiz-adv-x="1027" d="M943 700v-164h-64v86l-20 22h-242v-259h169l15 15v42h64v-171h-64v42l-15 16h-169v-273h262l20 20v98h64v-174h-546v56h88v197h-218l-129 -197h94v-56h-252v56h82l390 588h-60v56zM321 309h184v301h-2l-45 -93z" />
<glyph unicode="&#199;" horiz-adv-x="698" d="M569 184h64v-157q-31 -17 -82 -28q-51 -11 -101 -11h-7l-27 -52q68 -2 101 -18.5q33 -16.5 33 -52.5q0 -30 -20 -49q-20 -19 -50.5 -29.5q-30.5 -10.5 -66.5 -14.5q-36 -4 -68 -4l0 33q22 1 40.5 3.5q18.5 2.5 32.5 7.5q14 5 22 13.5q8 8.5 8 22.5q0 27 -25 35q-25 8 -75 10l40 98q-78 6 -139.5 30.5q-61.5 24.5 -104 69q-42.5 44.5 -65 109q-22.5 64.5 -22.5 150.5q0 98 30 166.5q30 68.5 81 112q51 43.5 118 63.5q67 20 141 20q36 0 65 -2.5q29 -2.5 52.5 -7.5q23.5 -5 43.5 -12q20 -7 39 -15l0 -171h-64v105l-14 20q-11 5 -34.5 12q-23.5 7 -75.5 7q-54 0 -101 -17q-47 -17 -81.5 -53q-34.5 -36 -54.5 -92.5q-20 -56.5 -20 -135.5q0 -143 72.5 -220.5q72.5 -77.5 203.5 -77.5q36 0 60.5 5.5q24.5 5.5 36.5 14.5l14 19z" />
<glyph unicode="&#200;" horiz-adv-x="645" d="M564 700v-164h-64v86l-20 22h-245v-259h169l15 15v42h64v-171h-64v42l-15 16h-169v-273h262l20 20v98h64v-174h-549v56h91v588h-91v56zM411 793l-13 -24l-256 72v40l123 33z" />
<glyph unicode="&#201;" horiz-adv-x="645" d="M564 700v-164h-64v86l-20 22h-245v-259h169l15 15v42h64v-171h-64v42l-15 16h-169v-273h262l20 20v98h64v-174h-549v56h91v588h-91v56zM379 914l123 -33v-40l-256 -72l-13 24z" />
<glyph unicode="&#202;" horiz-adv-x="645" d="M564 700v-164h-64v86l-20 22h-245v-259h169l15 15v42h64v-171h-64v42l-15 16h-169v-273h262l20 20v98h64v-174h-549v56h91v588h-91v56zM181 761l-16 20l142 133h31l141 -130l-18 -22l-142 56z" />
<glyph unicode="&#203;" horiz-adv-x="645" d="M564 700v-164h-64v86l-20 22h-245v-259h169l15 15v42h64v-171h-64v42l-15 16h-169v-273h262l20 20v98h64v-174h-549v56h91v588h-91v56zM135 796q0 29 18.5 43.5q18.5 14.5 46.5 14.5q29 0 48 -14.5q19 -14.5 19 -43.5q0 -26 -19 -40q-19 -14 -48 -14q-28 0 -46.5 14q-18.5 14 -18.5 40zt0 0zM387 796q0 29 19 43.5q19 14.5 46 14.5q29 0 48 -14.5q19 -14.5 19 -43.5q0 -26 -19 -40q-19 -14 -48 -14q-27 0 -46 14t-19 40z" />
<glyph unicode="&#204;" horiz-adv-x="398" d="M346 0h-294v56h91v588h-91v56h294v-56h-91v-588h91zM309 793l-13 -24l-256 72v40l123 33z" />
<glyph unicode="&#205;" horiz-adv-x="398" d="M346 0h-294v56h91v588h-91v56h294v-56h-91v-588h91zM258 914l123 -33v-40l-256 -72l-13 24z" />
<glyph unicode="&#206;" horiz-adv-x="398" d="M346 0h-294v56h91v588h-91v56h294v-56h-91v-588h91zM58 761l-16 20l142 133h31l141 -130l-18 -22l-142 56z" />
<glyph unicode="&#207;" horiz-adv-x="398" d="M346 0h-294v56h91v588h-91v56h294v-56h-91v-588h91zM7 796q0 29 18.5 43.5q18.5 14.5 46.5 14.5q29 0 48 -14.5q19 -14.5 19 -43.5q0 -26 -19 -40q-19 -14 -48 -14q-28 0 -46.5 14q-18.5 14 -18.5 40zt0 0zM259 796q0 29 19 43.5q19 14.5 46 14.5q29 0 48 -14.5q19 -14.5 19 -43.5q0 -26 -19 -40q-19 -14 -48 -14q-27 0 -46 14t-19 40z" />
<glyph unicode="&#208;" horiz-adv-x="782" d="M32 0v56h91v275h-100v54h100v259h-91v56h123q19 0 44.5 1q25.5 1 52.5 2.5q27 1.5 51.5 3q24.5 1.5 41.5 1.5q93 0 164 -23.5q71 -23.5 119 -68q48 -44.5 72.5 -109.5q24.5 -65 24.5 -148q0 -80 -23 -147q-23 -67 -72 -116.5q-49 -49.5 -125.5 -77q-76.5 -27.5 -182.5 -27.5q-16 0 -37 1.5q-21 1.5 -44.5 3q-23.5 1.5 -47.5 3q-24 1.5 -45 1.5zM330 652q-28 0 -54 -1q-26 -1 -41 -4l0 -262h179v-54h-179v-280q6 -1 20 -1.5q14 -0.5 30.5 -1q16.5 -0.5 31.5 -1q15 -0.5 21 -0.5q75 0 125 25.5q50 25.5 80.5 68q30.5 42.5 43.5 99q13 56.5 13 119.5q0 49 -12.5 101q-12.5 52 -43.5 95q-31 43 -83 70t-131 27z" />
<glyph unicode="&#209;" horiz-adv-x="820" d="M542 700h246v-56h-91v-656h-65l-407 549l-44 77h-4l10 -78v-480h91v-56h-246v56h91v588h-91v56h200l350 -471l52 -86h5l-6 86v415h-91zM593 843q-36 -38 -65.5 -53q-29.5 -15 -58.5 -15q-21 0 -39.5 6.5q-18.5 6.5 -36.5 14q-18 7.5 -35 14q-17 6.5 -35 6.5q-14 0 -31 -6.5q-17 -6.5 -35 -23.5l-22 36q43 42 76 57q33 15 62 15q21 0 39 -6q18 -6 35 -13.5q17 -7.5 33.5 -13.5q16.5 -6 34.5 -6q14 0 30.5 5q16.5 5 33.5 19z" />
<glyph unicode="&#210;" horiz-adv-x="830" d="M57 350q0 78 24 144.5q24 66.5 69.5 115q45.5 48.5 112 75.5q66.5 27 151.5 27q85 0 152 -27q67 -27 113 -75.5q46 -48.5 70 -115q24 -66.5 24 -144.5q0 -78 -24 -144.5q-24 -66.5 -70 -115q-46 -48.5 -113 -75.5q-67 -27 -152 -27q-85 0 -151.5 27q-66.5 27 -112 75.5q-45.5 48.5 -69.5 115q-24 66.5 -24 144.5zt0 0zM182 350q0 -64 14.5 -120q14.5 -56 44.5 -97q30 -41 75.5 -65q45.5 -24 107.5 -24q57 0 99 24q42 24 69.5 65q27.5 41 41.5 97q14 56 14 120q0 64 -14.5 120q-14.5 56 -44.5 97q-30 41 -75.5 65q-45.5 24 -108.5 24q-60 0 -102.5 -24q-42.5 -24 -69.5 -65q-27 -41 -39 -97q-12 -56 -12 -120zt0 0zM488 793l-13 -24l-256 72v40l123 33z" />
<glyph unicode="&#211;" horiz-adv-x="830" d="M57 350q0 78 24 144.5q24 66.5 69.5 115q45.5 48.5 112 75.5q66.5 27 151.5 27q85 0 152 -27q67 -27 113 -75.5q46 -48.5 70 -115q24 -66.5 24 -144.5q0 -78 -24 -144.5q-24 -66.5 -70 -115q-46 -48.5 -113 -75.5q-67 -27 -152 -27q-85 0 -151.5 27q-66.5 27 -112 75.5q-45.5 48.5 -69.5 115q-24 66.5 -24 144.5zt0 0zM182 350q0 -64 14.5 -120q14.5 -56 44.5 -97q30 -41 75.5 -65q45.5 -24 107.5 -24q57 0 99 24q42 24 69.5 65q27.5 41 41.5 97q14 56 14 120q0 64 -14.5 120q-14.5 56 -44.5 97q-30 41 -75.5 65q-45.5 24 -108.5 24q-60 0 -102.5 -24q-42.5 -24 -69.5 -65q-27 -41 -39 -97q-12 -56 -12 -120zt0 0zM462 914l123 -33v-40l-256 -72l-13 24z" />
<glyph unicode="&#212;" horiz-adv-x="830" d="M57 350q0 78 24 144.5q24 66.5 69.5 115q45.5 48.5 112 75.5q66.5 27 151.5 27q85 0 152 -27q67 -27 113 -75.5q46 -48.5 70 -115q24 -66.5 24 -144.5q0 -78 -24 -144.5q-24 -66.5 -70 -115q-46 -48.5 -113 -75.5q-67 -27 -152 -27q-85 0 -151.5 27q-66.5 27 -112 75.5q-45.5 48.5 -69.5 115q-24 66.5 -24 144.5zt0 0zM182 350q0 -64 14.5 -120q14.5 -56 44.5 -97q30 -41 75.5 -65q45.5 -24 107.5 -24q57 0 99 24q42 24 69.5 65q27.5 41 41.5 97q14 56 14 120q0 64 -14.5 120q-14.5 56 -44.5 97q-30 41 -75.5 65q-45.5 24 -108.5 24q-60 0 -102.5 -24q-42.5 -24 -69.5 -65q-27 -41 -39 -97q-12 -56 -12 -120zt0 0zM273 761l-16 20l142 133h31l141 -130l-18 -22l-142 56z" />
<glyph unicode="&#213;" horiz-adv-x="830" d="M57 350q0 78 24 144.5q24 66.5 69.5 115q45.5 48.5 112 75.5q66.5 27 151.5 27q85 0 152 -27q67 -27 113 -75.5q46 -48.5 70 -115q24 -66.5 24 -144.5q0 -78 -24 -144.5q-24 -66.5 -70 -115q-46 -48.5 -113 -75.5q-67 -27 -152 -27q-85 0 -151.5 27q-66.5 27 -112 75.5q-45.5 48.5 -69.5 115q-24 66.5 -24 144.5zt0 0zM182 350q0 -64 14.5 -120q14.5 -56 44.5 -97q30 -41 75.5 -65q45.5 -24 107.5 -24q57 0 99 24q42 24 69.5 65q27.5 41 41.5 97q14 56 14 120q0 64 -14.5 120q-14.5 56 -44.5 97q-30 41 -75.5 65q-45.5 24 -108.5 24q-60 0 -102.5 -24q-42.5 -24 -69.5 -65q-27 -41 -39 -97q-12 -56 -12 -120zt0 0zM593 843q-36 -38 -65.5 -53q-29.5 -15 -58.5 -15q-21 0 -39.5 6.5q-18.5 6.5 -36.5 14q-18 7.5 -35 14q-17 6.5 -35 6.5q-14 0 -31 -6.5q-17 -6.5 -35 -23.5l-22 36q43 42 76 57q33 15 62 15q21 0 39 -6q18 -6 35 -13.5q17 -7.5 33.5 -13.5q16.5 -6 34.5 -6q14 0 30.5 5q16.5 5 33.5 19z" />
<glyph unicode="&#214;" horiz-adv-x="830" d="M57 350q0 78 24 144.5q24 66.5 69.5 115q45.5 48.5 112 75.5q66.5 27 151.5 27q85 0 152 -27q67 -27 113 -75.5q46 -48.5 70 -115q24 -66.5 24 -144.5q0 -78 -24 -144.5q-24 -66.5 -70 -115q-46 -48.5 -113 -75.5q-67 -27 -152 -27q-85 0 -151.5 27q-66.5 27 -112 75.5q-45.5 48.5 -69.5 115q-24 66.5 -24 144.5zt0 0zM182 350q0 -64 14.5 -120q14.5 -56 44.5 -97q30 -41 75.5 -65q45.5 -24 107.5 -24q57 0 99 24q42 24 69.5 65q27.5 41 41.5 97q14 56 14 120q0 64 -14.5 120q-14.5 56 -44.5 97q-30 41 -75.5 65q-45.5 24 -108.5 24q-60 0 -102.5 -24q-42.5 -24 -69.5 -65q-27 -41 -39 -97q-12 -56 -12 -120zt0 0zM223 796q0 29 18.5 43.5q18.5 14.5 46.5 14.5q29 0 48 -14.5q19 -14.5 19 -43.5q0 -26 -19 -40q-19 -14 -48 -14q-28 0 -46.5 14q-18.5 14 -18.5 40zt0 0zM475 796q0 29 19 43.5q19 14.5 46 14.5q29 0 48 -14.5q19 -14.5 19 -43.5q0 -26 -19 -40q-19 -14 -48 -14q-27 0 -46 14t-19 40z" />
<glyph unicode="&#215;" horiz-adv-x="600" d="M98 205l156 139l-154 138l44 39l155 -138l156 140l44 -39l-158 -139l160 -142l-44 -40l-159 143l-156 -140z" />
<glyph unicode="&#216;" horiz-adv-x="830" d="M57 350q0 78 24 144.5q24 66.5 69.5 115q45.5 48.5 112 75.5q66.5 27 151.5 27q54 0 100.5 -11.5q46.5 -11.5 85.5 -31.5l52 74l52 -35l-52 -74q59 -49 90 -122q31 -73 31 -162q0 -78 -24 -144.5q-24 -66.5 -70 -115q-46 -48.5 -113 -75.5q-67 -27 -152 -27q-107 0 -187 43l-62 -88l-50 36l61 87q-58 49 -88.5 121.5q-30.5 72.5 -30.5 162.5zt0 0zM648 350q0 60 -12.5 112.5q-12.5 52.5 -38.5 93.5l-324 -460q29 -26 66 -40q37 -14 85 -14q57 0 99 24q42 24 69.5 66q27.5 42 41.5 98q14 56 14 120zt0 0zM182 350q0 -60 12 -112q12 -52 38 -93l323 460q-29 25 -66 39q-37 14 -84 14q-60 0 -102.5 -24q-42.5 -24 -69.5 -66q-27 -42 -39 -98t-12 -120z" />
<glyph unicode="&#217;" horiz-adv-x="762" d="M659 239q0 -64 -19 -110.5q-19 -46.5 -53.5 -77q-34.5 -30.5 -83.5 -45.5q-49 -15 -109 -15q-142 0 -216.5 56.5q-74.5 56.5 -74.5 174.5v422h-91v56h284v-56h-81v-401q0 -52 13 -87.5q13 -35.5 37.5 -57q24.5 -21.5 60.5 -31q36 -9.5 82 -9.5q88 0 137.5 44q49.5 44 49.5 144v398h-81v56h236v-56h-91v-405zM448 793l-13 -24l-256 72v40l123 33z" />
<glyph unicode="&#218;" horiz-adv-x="762" d="M659 239q0 -64 -19 -110.5q-19 -46.5 -53.5 -77q-34.5 -30.5 -83.5 -45.5q-49 -15 -109 -15q-142 0 -216.5 56.5q-74.5 56.5 -74.5 174.5v422h-91v56h284v-56h-81v-401q0 -52 13 -87.5q13 -35.5 37.5 -57q24.5 -21.5 60.5 -31q36 -9.5 82 -9.5q88 0 137.5 44q49.5 44 49.5 144v398h-81v56h236v-56h-91v-405zM515 914l123 -33v-40l-256 -72l-13 24z" />
<glyph unicode="&#219;" horiz-adv-x="762" d="M659 239q0 -64 -19 -110.5q-19 -46.5 -53.5 -77q-34.5 -30.5 -83.5 -45.5q-49 -15 -109 -15q-142 0 -216.5 56.5q-74.5 56.5 -74.5 174.5v422h-91v56h284v-56h-81v-401q0 -52 13 -87.5q13 -35.5 37.5 -57q24.5 -21.5 60.5 -31q36 -9.5 82 -9.5q88 0 137.5 44q49.5 44 49.5 144v398h-81v56h236v-56h-91v-405zM262 761l-16 20l142 133h31l141 -130l-18 -22l-142 56z" />
<glyph unicode="&#220;" horiz-adv-x="762" d="M659 239q0 -64 -19 -110.5q-19 -46.5 -53.5 -77q-34.5 -30.5 -83.5 -45.5q-49 -15 -109 -15q-142 0 -216.5 56.5q-74.5 56.5 -74.5 174.5v422h-91v56h284v-56h-81v-401q0 -52 13 -87.5q13 -35.5 37.5 -57q24.5 -21.5 60.5 -31q36 -9.5 82 -9.5q88 0 137.5 44q49.5 44 49.5 144v398h-81v56h236v-56h-91v-405zM213 796q0 29 18.5 43.5q18.5 14.5 46.5 14.5q29 0 48 -14.5q19 -14.5 19 -43.5q0 -26 -19 -40q-19 -14 -48 -14q-28 0 -46.5 14q-18.5 14 -18.5 40zt0 0zM465 796q0 29 19 43.5q19 14.5 46 14.5q29 0 48 -14.5q19 -14.5 19 -43.5q0 -26 -19 -40q-19 -14 -48 -14q-27 0 -46 14t-19 40z" />
<glyph unicode="&#221;" horiz-adv-x="727" d="M478 700h249v-56h-85l-213 -347v-241h91v-56h-294v56h91v240l-226 348h-91v56h302v-56h-84l181 -291l171 291h-92zM504 914l123 -33v-40l-256 -72l-13 24z" />
<glyph unicode="&#222;" horiz-adv-x="666" d="M32 644v56h292v-56h-89v-47q25 2 50.5 3q25.5 1 50.5 1q55 0 107.5 -10.5q52.5 -10.5 93.5 -34.5q41 -24 66 -64.5q25 -40.5 25 -100.5q0 -57 -26 -97.5q-26 -40.5 -68.5 -67q-42.5 -26.5 -98 -39q-55.5 -12.5 -114.5 -12.5q-6 0 -18 0q-12 0 -25 0.5q-13 0.5 -25 1q-12 0.5 -18 1.5l0 -122h109v-56h-312v56h91v588zM311 545q-27 0 -44.5 -1.5q-17.5 -1.5 -31.5 -4.5l0 -303q5 -2 15.5 -2.5q10.5 -0.5 22.5 -1.5q12 -1 23 -1q11 0 17 0q39 0 73.5 9q34.5 9 60.5 28.5q26 19.5 41 49.5q15 30 15 73q0 78 -51.5 116t-140.5 38z" />
<glyph unicode="&#223;" horiz-adv-x="719" d="M487 589q-1 47 -34 77q-33 30 -80 30q-34 0 -61.5 -6.5q-27.5 -6.5 -47 -25.5q-19.5 -19 -30 -52.5q-10.5 -33.5 -10.5 -88.5v-523h-179v50h74v425h-84v50h84v16q0 60 25 100q25 40 62 64q37 24 80 34.5q43 10.5 80 10.5q61 0 103.5 -14.5q42.5 -14.5 69 -38.5q26.5 -24 38.5 -56q12 -32 13 -68q-84 -11 -132 -37.5q-48 -26.5 -48 -74.5q0 -32 20 -56q20 -24 49.5 -44.5q29.5 -20.5 64.5 -40.5q35 -20 64.5 -44.5q29.5 -24.5 49.5 -56q20 -31.5 20 -74.5q0 -74 -55 -114.5q-55 -40.5 -155 -40.5q-24 0 -48 4.5q-24 4.5 -45.5 11.5q-21.5 7 -39 16.5q-17.5 9.5 -28.5 18.5l0 92h72v-58q12 -11 37 -21q25 -10 49 -10q54 0 82 21q28 21 28 64q0 28 -20 50q-20 22 -49.5 42q-29.5 20 -64.5 39.5q-35 19.5 -64.5 43q-29.5 23.5 -49.5 53.5q-20 30 -20 70q0 49 41 92t139 70z" />
<glyph unicode="&#224;" horiz-adv-x="569" d="M464 139q0 -23 1 -46.5q1 -23.5 3 -42.5l66 0v-50h-157l-10 95h-5q-5 -20 -18.5 -39q-13.5 -19 -34 -34q-20.5 -15 -48.5 -24q-28 -9 -62 -9q-34 0 -62.5 10q-28.5 10 -49.5 28q-21 18 -32.5 43.5q-11.5 25.5 -11.5 57.5q0 49 20.5 81q20.5 32 60.5 50.5q40 18.5 100 26.5q60 8 140 9q2 16 2 30.5q0 14.5 0 28.5q0 62 -21 94.5q-21 32.5 -75 32.5q-20 0 -43 -2q-23 -2 -42 -12l0 -92h-90v111q36 19 85 34q49 15 115 15q57 0 91.5 -14.5q34.5 -14.5 53 -38q18.5 -23.5 24 -53q5.5 -29.5 5.5 -58.5q0 -63 -2.5 -120.5q-2.5 -57.5 -2.5 -111.5zt0 0zM245 56q24 0 43 7.5q19 7.5 33.5 19q14.5 11.5 25 25.5q10.5 14 17.5 27l0 119q-65 0 -105.5 -8.5q-40.5 -8.5 -63.5 -22.5q-23 -14 -31.5 -33.5q-8.5 -19.5 -8.5 -41.5q0 -45 24 -68.5q24 -23.5 66 -23.5zt0 0zM364 615l-28 -23l-196 117v41l126 0z" />
<glyph unicode="&#225;" horiz-adv-x="569" d="M464 139q0 -23 1 -46.5q1 -23.5 3 -42.5l66 0v-50h-157l-10 95h-5q-5 -20 -18.5 -39q-13.5 -19 -34 -34q-20.5 -15 -48.5 -24q-28 -9 -62 -9q-34 0 -62.5 10q-28.5 10 -49.5 28q-21 18 -32.5 43.5q-11.5 25.5 -11.5 57.5q0 49 20.5 81q20.5 32 60.5 50.5q40 18.5 100 26.5q60 8 140 9q2 16 2 30.5q0 14.5 0 28.5q0 62 -21 94.5q-21 32.5 -75 32.5q-20 0 -43 -2q-23 -2 -42 -12l0 -92h-90v111q36 19 85 34q49 15 115 15q57 0 91.5 -14.5q34.5 -14.5 53 -38q18.5 -23.5 24 -53q5.5 -29.5 5.5 -58.5q0 -63 -2.5 -120.5q-2.5 -57.5 -2.5 -111.5zt0 0zM245 56q24 0 43 7.5q19 7.5 33.5 19q14.5 11.5 25 25.5q10.5 14 17.5 27l0 119q-65 0 -105.5 -8.5q-40.5 -8.5 -63.5 -22.5q-23 -14 -31.5 -33.5q-8.5 -19.5 -8.5 -41.5q0 -45 24 -68.5q24 -23.5 66 -23.5zt0 0zM322 750h126v-41l-196 -117l-28 23z" />
<glyph unicode="&#226;" horiz-adv-x="569" d="M464 139q0 -23 1 -46.5q1 -23.5 3 -42.5l66 0v-50h-157l-10 95h-5q-5 -20 -18.5 -39q-13.5 -19 -34 -34q-20.5 -15 -48.5 -24q-28 -9 -62 -9q-34 0 -62.5 10q-28.5 10 -49.5 28q-21 18 -32.5 43.5q-11.5 25.5 -11.5 57.5q0 49 20.5 81q20.5 32 60.5 50.5q40 18.5 100 26.5q60 8 140 9q2 16 2 30.5q0 14.5 0 28.5q0 62 -21 94.5q-21 32.5 -75 32.5q-20 0 -43 -2q-23 -2 -42 -12l0 -92h-90v111q36 19 85 34q49 15 115 15q57 0 91.5 -14.5q34.5 -14.5 53 -38q18.5 -23.5 24 -53q5.5 -29.5 5.5 -58.5q0 -63 -2.5 -120.5q-2.5 -57.5 -2.5 -111.5zt0 0zM245 56q24 0 43 7.5q19 7.5 33.5 19q14.5 11.5 25 25.5q10.5 14 17.5 27l0 119q-65 0 -105.5 -8.5q-40.5 -8.5 -63.5 -22.5q-23 -14 -31.5 -33.5q-8.5 -19.5 -8.5 -41.5q0 -45 24 -68.5q24 -23.5 66 -23.5zt0 0zM178 619l-32 17l125 196h29l126 -195l-32 -18l-113 112z" />
<glyph unicode="&#227;" horiz-adv-x="569" d="M464 139q0 -23 1 -46.5q1 -23.5 3 -42.5l66 0v-50h-157l-10 95h-5q-5 -20 -18.5 -39q-13.5 -19 -34 -34q-20.5 -15 -48.5 -24q-28 -9 -62 -9q-34 0 -62.5 10q-28.5 10 -49.5 28q-21 18 -32.5 43.5q-11.5 25.5 -11.5 57.5q0 49 20.5 81q20.5 32 60.5 50.5q40 18.5 100 26.5q60 8 140 9q2 16 2 30.5q0 14.5 0 28.5q0 62 -21 94.5q-21 32.5 -75 32.5q-20 0 -43 -2q-23 -2 -42 -12l0 -92h-90v111q36 19 85 34q49 15 115 15q57 0 91.5 -14.5q34.5 -14.5 53 -38q18.5 -23.5 24 -53q5.5 -29.5 5.5 -58.5q0 -63 -2.5 -120.5q-2.5 -57.5 -2.5 -111.5zt0 0zM245 56q24 0 43 7.5q19 7.5 33.5 19q14.5 11.5 25 25.5q10.5 14 17.5 27l0 119q-65 0 -105.5 -8.5q-40.5 -8.5 -63.5 -22.5q-23 -14 -31.5 -33.5q-8.5 -19.5 -8.5 -41.5q0 -45 24 -68.5q24 -23.5 66 -23.5zt0 0zM446 705q-36 -34 -66.5 -46.5q-30.5 -12.5 -55.5 -12.5q-20 0 -38 5.5q-18 5.5 -35 12q-17 6.5 -33 12q-16 5.5 -33 5.5q-14 0 -29.5 -5.5q-15.5 -5.5 -33.5 -20.5l-22 32q42 36 74.5 49q32.5 13 58.5 13q20 0 37.5 -5.5q17.5 -5.5 33.5 -11.5q16 -6 32 -11.5q16 -5.5 33 -5.5q14 0 29 4.5q15 4.5 32 16.5z" />
<glyph unicode="&#228;" horiz-adv-x="569" d="M464 139q0 -23 1 -46.5q1 -23.5 3 -42.5l66 0v-50h-157l-10 95h-5q-5 -20 -18.5 -39q-13.5 -19 -34 -34q-20.5 -15 -48.5 -24q-28 -9 -62 -9q-34 0 -62.5 10q-28.5 10 -49.5 28q-21 18 -32.5 43.5q-11.5 25.5 -11.5 57.5q0 49 20.5 81q20.5 32 60.5 50.5q40 18.5 100 26.5q60 8 140 9q2 16 2 30.5q0 14.5 0 28.5q0 62 -21 94.5q-21 32.5 -75 32.5q-20 0 -43 -2q-23 -2 -42 -12l0 -92h-90v111q36 19 85 34q49 15 115 15q57 0 91.5 -14.5q34.5 -14.5 53 -38q18.5 -23.5 24 -53q5.5 -29.5 5.5 -58.5q0 -63 -2.5 -120.5q-2.5 -57.5 -2.5 -111.5zt0 0zM245 56q24 0 43 7.5q19 7.5 33.5 19q14.5 11.5 25 25.5q10.5 14 17.5 27l0 119q-65 0 -105.5 -8.5q-40.5 -8.5 -63.5 -22.5q-23 -14 -31.5 -33.5q-8.5 -19.5 -8.5 -41.5q0 -45 24 -68.5q24 -23.5 66 -23.5zt0 0zM85 688q0 29 17.5 46.5q17.5 17.5 46.5 17.5q29 0 46.5 -17.5q17.5 -17.5 17.5 -46.5q0 -27 -17.5 -44.5q-17.5 -17.5 -46.5 -17.5q-29 0 -46.5 17.5q-17.5 17.5 -17.5 44.5zt0 0zM331 688q0 29 18.5 46.5q18.5 17.5 46.5 17.5q29 0 46 -17.5q17 -17.5 17 -46.5q0 -27 -17 -44.5q-17 -17.5 -46 -17.5q-28 0 -46.5 17.5t-18.5 44.5z" />
<glyph unicode="&#229;" horiz-adv-x="569" d="M464 139q0 -23 1 -46.5q1 -23.5 3 -42.5l66 0v-50h-157l-10 95h-5q-5 -20 -18.5 -39q-13.5 -19 -34 -34q-20.5 -15 -48.5 -24q-28 -9 -62 -9q-34 0 -62.5 10q-28.5 10 -49.5 28q-21 18 -32.5 43.5q-11.5 25.5 -11.5 57.5q0 49 20.5 81q20.5 32 60.5 50.5q40 18.5 100 26.5q60 8 140 9q2 16 2 30.5q0 14.5 0 28.5q0 62 -21 94.5q-21 32.5 -75 32.5q-20 0 -43 -2q-23 -2 -42 -12l0 -92h-90v111q36 19 85 34q49 15 115 15q57 0 91.5 -14.5q34.5 -14.5 53 -38q18.5 -23.5 24 -53q5.5 -29.5 5.5 -58.5q0 -63 -2.5 -120.5q-2.5 -57.5 -2.5 -111.5zt0 0zM245 56q24 0 43 7.5q19 7.5 33.5 19q14.5 11.5 25 25.5q10.5 14 17.5 27l0 119q-65 0 -105.5 -8.5q-40.5 -8.5 -63.5 -22.5q-23 -14 -31.5 -33.5q-8.5 -19.5 -8.5 -41.5q0 -45 24 -68.5q24 -23.5 66 -23.5zt0 0zM162 717q0 43 32 72.5q32 29.5 81 29.5q45 0 75.5 -26.5q30.5 -26.5 30.5 -72.5q0 -21 -9 -39q-9 -18 -23.5 -31q-14.5 -13 -34 -20.5q-19.5 -7.5 -40.5 -7.5q-51 0 -81.5 25.5q-30.5 25.5 -30.5 69.5zt0 0zM222 719q0 -26 15 -39.5q15 -13.5 33 -13.5q22 0 36.5 12q14.5 12 14.5 38q0 29 -14 44q-14 15 -36 15q-26 0 -37.5 -15t-11.5 -41z" />
<glyph unicode="&#230;" horiz-adv-x="875" d="M245 57q24 0 43 7.5q19 7.5 33.5 18.5q14.5 11 24.5 25q10 14 17 27l0 119q-64 0 -104.5 -8.5q-40.5 -8.5 -63.5 -22.5q-23 -14 -31.5 -33.5q-8.5 -19.5 -8.5 -41.5q0 -45 24 -68q24 -23 66 -23zt0 0zM391 105q-8 -13 -21 -32.5q-13 -19.5 -34 -38q-21 -18.5 -51.5 -31.5q-30.5 -13 -72.5 -13q-78 0 -123.5 37.5q-45.5 37.5 -45.5 100.5q0 49 20 81q20 32 60.5 50.5q40.5 18.5 100 26.5q59.5 8 139.5 9q3 31 3 59q0 62 -21 94.5q-21 32.5 -75 32.5q-20 0 -43 -2q-23 -2 -42 -12l0 -92h-90v111q36 19 85 34q49 15 115 15q60 0 94.5 -15.5q34.5 -15.5 52.5 -40.5q28 30 73 43q45 13 94 13q40 0 78.5 -10q38.5 -10 68.5 -33q30 -23 48.5 -61q18.5 -38 18.5 -94q0 -17 -2 -36q-2 -19 -6 -40l-347 0q0 -44 11.5 -80q11.5 -36 34.5 -62q23 -26 58 -40.5q35 -14.5 83 -14.5q39 0 72.5 13q33.5 13 53.5 30l27 -38q-26 -37 -73.5 -58.5q-47.5 -21.5 -110.5 -21.5q-85 0 -143 30.5q-58 30.5 -90 85.5zt0 0zM605 488q-31 0 -54.5 -9q-23.5 -9 -40.5 -30q-17 -21 -27 -55.5q-10 -34.5 -13 -85.5l241 0q1 9 1.5 18.5q0.5 9.5 0.5 17.5q0 66 -26.5 105t-81.5 39z" />
<glyph unicode="&#231;" horiz-adv-x="523" d="M482 64q-21 -29 -66 -52q-45 -23 -105 -23h-4l-23 -50q63 -2 92 -17q29 -15 29 -49q0 -32 -17.5 -51q-17.5 -19 -44.5 -29.5q-27 -10.5 -60 -13.5q-33 -3 -64 -3l0 32q21 1 38.5 3q17.5 2 29.5 7q12 5 18.5 14q6.5 9 6.5 25q0 26 -23 32q-23 6 -69 10l38 93q-108 14 -160.5 86q-52.5 72 -52.5 184q0 133 70.5 203q70.5 70 191.5 70q55 0 91 -7q36 -7 66 -22l0 -130h-90v96q-15 9 -60 9q-38 0 -67 -11q-29 -11 -49 -36q-20 -25 -30 -67q-10 -42 -10 -103q0 -40 11 -76.5q11 -36.5 33 -64q22 -27.5 55.5 -43.5q33.5 -16 78.5 -16q24 0 42.5 3.5q18.5 3.5 32.5 9q14 5.5 25 12.5q11 7 21 15z" />
<glyph unicode="&#232;" horiz-adv-x="566" d="M499 69q-26 -37 -73.5 -58.5q-47.5 -21.5 -110.5 -21.5q-66 0 -116.5 19.5q-50.5 19.5 -84.5 55q-34 35.5 -51.5 86q-17.5 50.5 -17.5 112.5q0 134 67 203.5q67 69.5 188 69.5q40 0 78.5 -10q38.5 -10 68.5 -33q30 -23 48.5 -61q18.5 -38 18.5 -94q0 -17 -2 -36q-2 -19 -6 -40l-348 0q0 -44 11.5 -80q11.5 -36 35 -62q23.5 -26 58.5 -40.5q35 -14.5 83 -14.5q39 0 72.5 13q33.5 13 53.5 30zM296 488q-31 0 -54.5 -9q-23.5 -9 -40.5 -30q-17 -21 -27 -55.5q-10 -34.5 -13 -85.5l241 0q1 9 1.5 18.5q0.5 9.5 0.5 17.5q0 66 -26.5 105q-26.5 39 -81.5 39zt0 0zM373 615l-28 -23l-196 117v41l126 0z" />
<glyph unicode="&#233;" horiz-adv-x="566" d="M499 69q-26 -37 -73.5 -58.5q-47.5 -21.5 -110.5 -21.5q-66 0 -116.5 19.5q-50.5 19.5 -84.5 55q-34 35.5 -51.5 86q-17.5 50.5 -17.5 112.5q0 134 67 203.5q67 69.5 188 69.5q40 0 78.5 -10q38.5 -10 68.5 -33q30 -23 48.5 -61q18.5 -38 18.5 -94q0 -17 -2 -36q-2 -19 -6 -40l-348 0q0 -44 11.5 -80q11.5 -36 35 -62q23.5 -26 58.5 -40.5q35 -14.5 83 -14.5q39 0 72.5 13q33.5 13 53.5 30zM296 488q-31 0 -54.5 -9q-23.5 -9 -40.5 -30q-17 -21 -27 -55.5q-10 -34.5 -13 -85.5l241 0q1 9 1.5 18.5q0.5 9.5 0.5 17.5q0 66 -26.5 105q-26.5 39 -81.5 39zt0 0zM339 750h126v-41l-196 -117l-28 23z" />
<glyph unicode="&#234;" horiz-adv-x="566" d="M499 69q-26 -37 -73.5 -58.5q-47.5 -21.5 -110.5 -21.5q-66 0 -116.5 19.5q-50.5 19.5 -84.5 55q-34 35.5 -51.5 86q-17.5 50.5 -17.5 112.5q0 134 67 203.5q67 69.5 188 69.5q40 0 78.5 -10q38.5 -10 68.5 -33q30 -23 48.5 -61q18.5 -38 18.5 -94q0 -17 -2 -36q-2 -19 -6 -40l-348 0q0 -44 11.5 -80q11.5 -36 35 -62q23.5 -26 58.5 -40.5q35 -14.5 83 -14.5q39 0 72.5 13q33.5 13 53.5 30zM296 488q-31 0 -54.5 -9q-23.5 -9 -40.5 -30q-17 -21 -27 -55.5q-10 -34.5 -13 -85.5l241 0q1 9 1.5 18.5q0.5 9.5 0.5 17.5q0 66 -26.5 105q-26.5 39 -81.5 39zt0 0zM187 619l-32 17l125 196h29l126 -195l-32 -18l-113 112z" />
<glyph unicode="&#235;" horiz-adv-x="566" d="M499 69q-26 -37 -73.5 -58.5q-47.5 -21.5 -110.5 -21.5q-66 0 -116.5 19.5q-50.5 19.5 -84.5 55q-34 35.5 -51.5 86q-17.5 50.5 -17.5 112.5q0 134 67 203.5q67 69.5 188 69.5q40 0 78.5 -10q38.5 -10 68.5 -33q30 -23 48.5 -61q18.5 -38 18.5 -94q0 -17 -2 -36q-2 -19 -6 -40l-348 0q0 -44 11.5 -80q11.5 -36 35 -62q23.5 -26 58.5 -40.5q35 -14.5 83 -14.5q39 0 72.5 13q33.5 13 53.5 30zM296 488q-31 0 -54.5 -9q-23.5 -9 -40.5 -30q-17 -21 -27 -55.5q-10 -34.5 -13 -85.5l241 0q1 9 1.5 18.5q0.5 9.5 0.5 17.5q0 66 -26.5 105q-26.5 39 -81.5 39zt0 0zM103 688q0 29 17.5 46.5q17.5 17.5 46.5 17.5q29 0 46.5 -17.5q17.5 -17.5 17.5 -46.5q0 -27 -17.5 -44.5q-17.5 -17.5 -46.5 -17.5q-29 0 -46.5 17.5q-17.5 17.5 -17.5 44.5zt0 0zM349 688q0 29 18.5 46.5q18.5 17.5 46.5 17.5q29 0 46 -17.5q17 -17.5 17 -46.5q0 -27 -17 -44.5q-17 -17.5 -46 -17.5q-28 0 -46.5 17.5t-18.5 44.5z" />
<glyph unicode="&#236;" horiz-adv-x="339" d="M298 0h-253v50h74v425h-74v50h179v-475h74zM234 615l-28 -23l-196 117v41l126 0z" />
<glyph unicode="&#237;" horiz-adv-x="339" d="M298 0h-253v50h74v425h-74v50h179v-475h74zM201 750h126v-41l-196 -117l-28 23z" />
<glyph unicode="&#238;" horiz-adv-x="339" d="M298 0h-253v50h74v425h-74v50h179v-475h74zM61 619l-32 17l125 196h29l126 -195l-32 -18l-113 112z" />
<glyph unicode="&#239;" horiz-adv-x="339" d="M298 0h-253v50h74v425h-74v50h179v-475h74zM-18 688q0 29 17.5 46.5q17.5 17.5 46.5 17.5q29 0 46.5 -17.5q17.5 -17.5 17.5 -46.5q0 -27 -17.5 -44.5q-17.5 -17.5 -46.5 -17.5q-29 0 -46.5 17.5q-17.5 17.5 -17.5 44.5zt0 0zM228 688q0 29 18.5 46.5q18.5 17.5 46.5 17.5q29 0 46 -17.5q17 -17.5 17 -46.5q0 -27 -17 -44.5q-17 -17.5 -46 -17.5q-28 0 -46.5 17.5t-18.5 44.5z" />
<glyph unicode="&#240;" horiz-adv-x="603" d="M233 600l89 53q-45 39 -124 65l22 44q45 -8 87.5 -29.5q42.5 -21.5 71.5 -42.5l101 64l28 -41l-91 -58q28 -29 54 -65.5q26 -36.5 45.5 -81q19.5 -44.5 31.5 -96q12 -51.5 12 -109.5q0 -68 -16.5 -126q-16.5 -58 -49.5 -100q-33 -42 -82.5 -66q-49.5 -24 -116.5 -24q-62 0 -111 20q-49 20 -83 55q-34 35 -52.5 84q-18.5 49 -18.5 108q0 67 21.5 116q21.5 49 56 81.5q34.5 32.5 78 48q43.5 15.5 88.5 15.5q60 0 99 -11q39 -11 64 -26q-14 39 -32 73.5q-18 34.5 -50 63.5l-92 -56zM143 254q0 -43 10.5 -82q10.5 -39 30.5 -69q20 -30 50 -48q30 -18 68 -18q73 0 113 67.5q40 67.5 40 183.5q0 55 -4.5 88q-4.5 33 -8.5 47q-19 14 -56 25q-37 11 -88 11q-34 0 -62.5 -12q-28.5 -12 -49 -37q-20.5 -25 -32 -64t-11.5 -92z" />
<glyph unicode="&#241;" horiz-adv-x="670" d="M651 0h-245v50h66v251q0 79 -24 123q-24 44 -88 44q-28 0 -51.5 -9q-23.5 -9 -42 -24q-18.5 -15 -32 -35q-13.5 -20 -20.5 -42l0 -308h66v-50h-245v50h74v425h-74v50h179v-104h1q23 48 67.5 81q44.5 33 107.5 33q45 0 80 -9.5q35 -9.5 58.5 -34.5q23.5 -25 36 -67q12.5 -42 12.5 -107v-267h74zM509 705q-36 -34 -66.5 -46.5q-30.5 -12.5 -55.5 -12.5q-20 0 -38 5.5q-18 5.5 -35 12q-17 6.5 -33 12q-16 5.5 -33 5.5q-14 0 -29.5 -5.5q-15.5 -5.5 -33.5 -20.5l-22 32q42 36 74.5 49q32.5 13 58.5 13q20 0 37.5 -5.5q17.5 -5.5 33.5 -11.5q16 -6 32 -11.5q16 -5.5 33 -5.5q14 0 29 4.5q15 4.5 32 16.5z" />
<glyph unicode="&#242;" horiz-adv-x="622" d="M45 262q0 66 19 117q19 51 53.5 85.5q34.5 34.5 84 52.5q49.5 18 109.5 18q70 0 120.5 -19.5q50.5 -19.5 82.5 -55q32 -35.5 47.5 -86q15.5 -50.5 15.5 -112.5q0 -66 -18.5 -116.5q-18.5 -50.5 -53 -85q-34.5 -34.5 -84 -52.5q-49.5 -18 -110.5 -18q-68 0 -118 19.5q-50 19.5 -83 55q-33 35.5 -49 85.5q-16 50 -16 112zt0 0zM158 262q0 -48 9 -89q9 -41 29.5 -71q20.5 -30 53 -47.5q32.5 -17.5 79.5 -17.5q59 0 97 54q38 54 38 171q0 48 -9 89.5q-9 41.5 -28.5 72q-19.5 30.5 -50 47.5q-30.5 17 -74.5 17q-66 0 -105 -54q-39 -54 -39 -172zt0 0zM391 615l-28 -23l-196 117v41l126 0z" />
<glyph unicode="&#243;" horiz-adv-x="622" d="M45 262q0 66 19 117q19 51 53.5 85.5q34.5 34.5 84 52.5q49.5 18 109.5 18q70 0 120.5 -19.5q50.5 -19.5 82.5 -55q32 -35.5 47.5 -86q15.5 -50.5 15.5 -112.5q0 -66 -18.5 -116.5q-18.5 -50.5 -53 -85q-34.5 -34.5 -84 -52.5q-49.5 -18 -110.5 -18q-68 0 -118 19.5q-50 19.5 -83 55q-33 35.5 -49 85.5q-16 50 -16 112zt0 0zM158 262q0 -48 9 -89q9 -41 29.5 -71q20.5 -30 53 -47.5q32.5 -17.5 79.5 -17.5q59 0 97 54q38 54 38 171q0 48 -9 89.5q-9 41.5 -28.5 72q-19.5 30.5 -50 47.5q-30.5 17 -74.5 17q-66 0 -105 -54q-39 -54 -39 -172zt0 0zM349 750h126v-41l-196 -117l-28 23z" />
<glyph unicode="&#244;" horiz-adv-x="622" d="M45 262q0 66 19 117q19 51 53.5 85.5q34.5 34.5 84 52.5q49.5 18 109.5 18q70 0 120.5 -19.5q50.5 -19.5 82.5 -55q32 -35.5 47.5 -86q15.5 -50.5 15.5 -112.5q0 -66 -18.5 -116.5q-18.5 -50.5 -53 -85q-34.5 -34.5 -84 -52.5q-49.5 -18 -110.5 -18q-68 0 -118 19.5q-50 19.5 -83 55q-33 35.5 -49 85.5q-16 50 -16 112zt0 0zM158 262q0 -48 9 -89q9 -41 29.5 -71q20.5 -30 53 -47.5q32.5 -17.5 79.5 -17.5q59 0 97 54q38 54 38 171q0 48 -9 89.5q-9 41.5 -28.5 72q-19.5 30.5 -50 47.5q-30.5 17 -74.5 17q-66 0 -105 -54q-39 -54 -39 -172zt0 0zM203 619l-32 17l125 196h29l126 -195l-32 -18l-113 112z" />
<glyph unicode="&#245;" horiz-adv-x="622" d="M45 262q0 66 19 117q19 51 53.5 85.5q34.5 34.5 84 52.5q49.5 18 109.5 18q70 0 120.5 -19.5q50.5 -19.5 82.5 -55q32 -35.5 47.5 -86q15.5 -50.5 15.5 -112.5q0 -66 -18.5 -116.5q-18.5 -50.5 -53 -85q-34.5 -34.5 -84 -52.5q-49.5 -18 -110.5 -18q-68 0 -118 19.5q-50 19.5 -83 55q-33 35.5 -49 85.5q-16 50 -16 112zt0 0zM158 262q0 -48 9 -89q9 -41 29.5 -71q20.5 -30 53 -47.5q32.5 -17.5 79.5 -17.5q59 0 97 54q38 54 38 171q0 48 -9 89.5q-9 41.5 -28.5 72q-19.5 30.5 -50 47.5q-30.5 17 -74.5 17q-66 0 -105 -54q-39 -54 -39 -172zt0 0zM484 705q-36 -34 -66.5 -46.5q-30.5 -12.5 -55.5 -12.5q-20 0 -38 5.5q-18 5.5 -35 12q-17 6.5 -33 12q-16 5.5 -33 5.5q-14 0 -29.5 -5.5q-15.5 -5.5 -33.5 -20.5l-22 32q42 36 74.5 49q32.5 13 58.5 13q20 0 37.5 -5.5q17.5 -5.5 33.5 -11.5q16 -6 32 -11.5q16 -5.5 33 -5.5q14 0 29 4.5q15 4.5 32 16.5z" />
<glyph unicode="&#246;" horiz-adv-x="622" d="M45 262q0 66 19 117q19 51 53.5 85.5q34.5 34.5 84 52.5q49.5 18 109.5 18q70 0 120.5 -19.5q50.5 -19.5 82.5 -55q32 -35.5 47.5 -86q15.5 -50.5 15.5 -112.5q0 -66 -18.5 -116.5q-18.5 -50.5 -53 -85q-34.5 -34.5 -84 -52.5q-49.5 -18 -110.5 -18q-68 0 -118 19.5q-50 19.5 -83 55q-33 35.5 -49 85.5q-16 50 -16 112zt0 0zM158 262q0 -48 9 -89q9 -41 29.5 -71q20.5 -30 53 -47.5q32.5 -17.5 79.5 -17.5q59 0 97 54q38 54 38 171q0 48 -9 89.5q-9 41.5 -28.5 72q-19.5 30.5 -50 47.5q-30.5 17 -74.5 17q-66 0 -105 -54q-39 -54 -39 -172zt0 0zM124 688q0 29 17.5 46.5q17.5 17.5 46.5 17.5q29 0 46.5 -17.5q17.5 -17.5 17.5 -46.5q0 -27 -17.5 -44.5q-17.5 -17.5 -46.5 -17.5q-29 0 -46.5 17.5q-17.5 17.5 -17.5 44.5zt0 0zM370 688q0 29 18.5 46.5q18.5 17.5 46.5 17.5q29 0 46 -17.5q17 -17.5 17 -46.5q0 -27 -17 -44.5q-17 -17.5 -46 -17.5q-28 0 -46.5 17.5t-18.5 44.5z" />
<glyph unicode="&#247;" horiz-adv-x="600" d="M47 373h505v-54h-505zM222 536q0 31 21 49q21 18 56 18q35 0 57 -18q22 -18 22 -49q0 -30 -22 -48q-22 -18 -57 -18q-35 0 -56 18q-21 18 -21 48zt0 0zM222 155q0 31 21 49q21 18 56 18q35 0 57 -18q22 -18 22 -49q0 -30 -22 -48q-22 -18 -57 -18q-35 0 -56 18t-21 48z" />
<glyph unicode="&#248;" horiz-adv-x="622" d="M130 43q-43 37 -64 93q-21 56 -21 126q0 66 19 117q19 51 53.5 85.5q34.5 34.5 84 52.5q49.5 18 109.5 18q43 0 79 -6.5q36 -6.5 64 -21.5l51 74l45 -29l-53 -73q42 -38 61 -92.5q19 -54.5 19 -124.5q0 -66 -18.5 -116.5q-18.5 -50.5 -53 -85q-34.5 -34.5 -84 -52.5q-49.5 -18 -110.5 -18q-40 0 -74.5 6q-34.5 6 -62.5 20l-56 -80l-43 28zM158 262q0 -40 6.5 -75q6.5 -35 21.5 -64l224 322q-20 23 -46.5 33q-26.5 10 -61.5 10q-66 0 -105 -54q-39 -54 -39 -172zt0 0zM464 262q0 38 -6 72q-6 34 -19 62l-223 -320q20 -21 48 -30q28 -9 66 -9q59 0 96.5 54t37.5 171z" />
<glyph unicode="&#249;" horiz-adv-x="647" d="M87 208q0 66 3 135q3 69 3 132l-74 0v50h178q-2 -78 -3.5 -149.5q-1.5 -71.5 -1.5 -148.5q0 -41 4.5 -72.5q4.5 -31.5 17 -53.5q12.5 -22 34.5 -33q22 -11 56 -11q50 0 84 32q34 32 52 86l0 300h-73v50h178v-475h74v-50h-167l-7 114h-5q-5 -21 -19.5 -43q-14.5 -22 -36.5 -40q-22 -18 -51 -29.5q-29 -11.5 -63 -11.5q-45 0 -79 9.5q-34 9.5 -57 34.5q-23 25 -35 67q-12 42 -12 107zt0 0zM403 615l-28 -23l-196 117v41l126 0z" />
<glyph unicode="&#250;" horiz-adv-x="647" d="M87 208q0 66 3 135q3 69 3 132l-74 0v50h178q-2 -78 -3.5 -149.5q-1.5 -71.5 -1.5 -148.5q0 -41 4.5 -72.5q4.5 -31.5 17 -53.5q12.5 -22 34.5 -33q22 -11 56 -11q50 0 84 32q34 32 52 86l0 300h-73v50h178v-475h74v-50h-167l-7 114h-5q-5 -21 -19.5 -43q-14.5 -22 -36.5 -40q-22 -18 -51 -29.5q-29 -11.5 -63 -11.5q-45 0 -79 9.5q-34 9.5 -57 34.5q-23 25 -35 67q-12 42 -12 107zt0 0zM358 750h126v-41l-196 -117l-28 23z" />
<glyph unicode="&#251;" horiz-adv-x="647" d="M87 208q0 66 3 135q3 69 3 132l-74 0v50h178q-2 -78 -3.5 -149.5q-1.5 -71.5 -1.5 -148.5q0 -41 4.5 -72.5q4.5 -31.5 17 -53.5q12.5 -22 34.5 -33q22 -11 56 -11q50 0 84 32q34 32 52 86l0 300h-73v50h178v-475h74v-50h-167l-7 114h-5q-5 -21 -19.5 -43q-14.5 -22 -36.5 -40q-22 -18 -51 -29.5q-29 -11.5 -63 -11.5q-45 0 -79 9.5q-34 9.5 -57 34.5q-23 25 -35 67q-12 42 -12 107zt0 0zM215 619l-32 17l125 196h29l126 -195l-32 -18l-113 112z" />
<glyph unicode="&#252;" horiz-adv-x="647" d="M87 208q0 66 3 135q3 69 3 132l-74 0v50h178q-2 -78 -3.5 -149.5q-1.5 -71.5 -1.5 -148.5q0 -41 4.5 -72.5q4.5 -31.5 17 -53.5q12.5 -22 34.5 -33q22 -11 56 -11q50 0 84 32q34 32 52 86l0 300h-73v50h178v-475h74v-50h-167l-7 114h-5q-5 -21 -19.5 -43q-14.5 -22 -36.5 -40q-22 -18 -51 -29.5q-29 -11.5 -63 -11.5q-45 0 -79 9.5q-34 9.5 -57 34.5q-23 25 -35 67q-12 42 -12 107zt0 0zM134 688q0 29 17.5 46.5q17.5 17.5 46.5 17.5q29 0 46.5 -17.5q17.5 -17.5 17.5 -46.5q0 -27 -17.5 -44.5q-17.5 -17.5 -46.5 -17.5q-29 0 -46.5 17.5q-17.5 17.5 -17.5 44.5zt0 0zM380 688q0 29 18.5 46.5q18.5 17.5 46.5 17.5q29 0 46 -17.5q17 -17.5 17 -46.5q0 -27 -17 -44.5q-17 -17.5 -46 -17.5q-28 0 -46.5 17.5t-18.5 44.5z" />
<glyph unicode="&#253;" horiz-adv-x="568" d="M47 475h-59v50h258v-50h-84l136 -332l20 -76h5l19 77l107 331h-61v50h192v-50h-64l-164 -475q-14 -41 -30.5 -75.5q-16.5 -34.5 -32 -61q-15.5 -26.5 -30 -43q-14.5 -16.5 -24.5 -20.5l-101 0v90h102q7 8 13 16q6 8 12 20q6 12 13 29.5q7 17.5 16 44.5l-37 0zM332 750h126v-41l-196 -117l-28 23z" />
<glyph unicode="&#254;" horiz-adv-x="636" d="M287 -200h-253v50h74v850h-74v50h179v-330h1q22 53 62.5 84q40.5 31 106.5 31q99 0 153.5 -61q54.5 -61 54.5 -200q0 -66 -18.5 -119q-18.5 -53 -53 -90q-34.5 -37 -83 -56.5q-48.5 -19.5 -108.5 -19.5q-20 0 -35.5 1q-15.5 1 -28.5 3q-13 2 -25.5 6q-12.5 4 -25.5 9l0 -158h74zM344 468q-54 0 -85.5 -30.5q-31.5 -30.5 -45.5 -86.5l0 -293q20 -13 44.5 -17.5q24.5 -4.5 65.5 -4.5q37 0 66 17.5q29 17.5 49 49q20 31.5 30.5 75q10.5 43.5 10.5 96.5q0 43 -7 78.5q-7 35.5 -22.5 61q-15.5 25.5 -41.5 40t-64 14.5z" />
<glyph unicode="&#255;" horiz-adv-x="568" d="M47 475h-59v50h258v-50h-84l136 -332l20 -76h5l19 77l107 331h-61v50h192v-50h-64l-164 -475q-14 -41 -30.5 -75.5q-16.5 -34.5 -32 -61q-15.5 -26.5 -30 -43q-14.5 -16.5 -24.5 -20.5l-101 0v90h102q7 8 13 16q6 8 12 20q6 12 13 29.5q7 17.5 16 44.5l-37 0zM108 688q0 29 17.5 46.5q17.5 17.5 46.5 17.5q29 0 46.5 -17.5q17.5 -17.5 17.5 -46.5q0 -27 -17.5 -44.5q-17.5 -17.5 -46.5 -17.5q-29 0 -46.5 17.5q-17.5 17.5 -17.5 44.5zt0 0zM354 688q0 29 18.5 46.5q18.5 17.5 46.5 17.5q29 0 46 -17.5q17 -17.5 17 -46.5q0 -27 -17 -44.5q-17 -17.5 -46 -17.5q-28 0 -46.5 17.5t-18.5 44.5z" />
<glyph unicode="&#256;" horiz-adv-x="755" d="M245 0h-245v56h78l259 644h106l237 -644h75v-56h-286v56h89l-65 176h-266l-68 -176h86zM250 288h226l-82 231l-25 106h-4l-29 -108zM214 787v64h340l0 -64z" />
<glyph unicode="&#257;" horiz-adv-x="569" d="M464 139q0 -23 1 -46.5q1 -23.5 3 -42.5l66 0v-50h-157l-10 95h-5q-5 -20 -18.5 -39q-13.5 -19 -34 -34q-20.5 -15 -48.5 -24q-28 -9 -62 -9q-34 0 -62.5 10q-28.5 10 -49.5 28q-21 18 -32.5 43.5q-11.5 25.5 -11.5 57.5q0 49 20.5 81q20.5 32 60.5 50.5q40 18.5 100 26.5q60 8 140 9q2 16 2 30.5q0 14.5 0 28.5q0 62 -21 94.5q-21 32.5 -75 32.5q-20 0 -43 -2q-23 -2 -42 -12l0 -92h-90v111q36 19 85 34q49 15 115 15q57 0 91.5 -14.5q34.5 -14.5 53 -38q18.5 -23.5 24 -53q5.5 -29.5 5.5 -58.5q0 -63 -2.5 -120.5q-2.5 -57.5 -2.5 -111.5zt0 0zM245 56q24 0 43 7.5q19 7.5 33.5 19q14.5 11.5 25 25.5q10.5 14 17.5 27l0 119q-65 0 -105.5 -8.5q-40.5 -8.5 -63.5 -22.5q-23 -14 -31.5 -33.5q-8.5 -19.5 -8.5 -41.5q0 -45 24 -68.5q24 -23.5 66 -23.5zt0 0zM138 668v55h288l0 -55z" />
<glyph unicode="&#258;" horiz-adv-x="755" d="M245 0h-245v56h78l259 644h106l237 -644h75v-56h-286v56h89l-65 176h-266l-68 -176h86zM250 288h226l-82 231l-25 106h-4l-29 -108zM557 890q-9 -26 -25.5 -50q-16.5 -24 -38.5 -42q-22 -18 -48.5 -28.5q-26.5 -10.5 -54.5 -10.5q-31 0 -59.5 10q-28.5 10 -51.5 28q-23 18 -40 42.5q-17 24.5 -24 52.5l47 15q8 -12 23 -22.5q15 -10.5 33 -18q18 -7.5 37 -11.5q19 -4 36 -4q36 0 71.5 11.5q35.5 11.5 58.5 41.5z" />
<glyph unicode="&#259;" horiz-adv-x="569" d="M464 139q0 -23 1 -46.5q1 -23.5 3 -42.5l66 0v-50h-157l-10 95h-5q-5 -20 -18.5 -39q-13.5 -19 -34 -34q-20.5 -15 -48.5 -24q-28 -9 -62 -9q-34 0 -62.5 10q-28.5 10 -49.5 28q-21 18 -32.5 43.5q-11.5 25.5 -11.5 57.5q0 49 20.5 81q20.5 32 60.5 50.5q40 18.5 100 26.5q60 8 140 9q2 16 2 30.5q0 14.5 0 28.5q0 62 -21 94.5q-21 32.5 -75 32.5q-20 0 -43 -2q-23 -2 -42 -12l0 -92h-90v111q36 19 85 34q49 15 115 15q57 0 91.5 -14.5q34.5 -14.5 53 -38q18.5 -23.5 24 -53q5.5 -29.5 5.5 -58.5q0 -63 -2.5 -120.5q-2.5 -57.5 -2.5 -111.5zt0 0zM245 56q24 0 43 7.5q19 7.5 33.5 19q14.5 11.5 25 25.5q10.5 14 17.5 27l0 119q-65 0 -105.5 -8.5q-40.5 -8.5 -63.5 -22.5q-23 -14 -31.5 -33.5q-8.5 -19.5 -8.5 -41.5q0 -45 24 -68.5q24 -23.5 66 -23.5zt0 0zM438 756q-10 -24 -24.5 -47q-14.5 -23 -33 -41q-18.5 -18 -42 -29.5q-23.5 -11.5 -51.5 -11.5q-60 0 -98 37q-38 37 -58 94l32 14q9 -15 24 -27.5q15 -12.5 32.5 -21.5q17.5 -9 36 -14.5q18.5 -5.5 35.5 -5.5q36 0 67 16.5q31 16.5 53 48.5z" />
<glyph unicode="&#260;" horiz-adv-x="755" d="M245 0h-245v56h78l259 644h106l237 -644h75v-56h-56q-46 -19 -72.5 -43.5q-26.5 -24.5 -26.5 -66.5q0 -27 20 -37.5q20 -10.5 53 -10.5q34 0 63 6l0 -31q-16 -11 -41 -19.5q-25 -8.5 -62 -8.5q-26 0 -49.5 5q-23.5 5 -41 15q-17.5 10 -28 25.5q-10.5 15.5 -10.5 37.5q0 46 34.5 77.5q34.5 31.5 85.5 50.5l-155 0v56h89l-65 176h-266l-68 -176h86zM250 288h226l-82 231l-25 106h-4l-29 -108z" />
<glyph unicode="&#261;" horiz-adv-x="569" d="M464 139q0 -23 1 -46.5q1 -23.5 3 -42.5l66 0v-50h-12q-49 -9 -82 -31.5q-33 -22.5 -33 -68.5q0 -20 14.5 -36.5q14.5 -16.5 49.5 -16.5q30 0 59 10l0 -36q-16 -9 -40.5 -15q-24.5 -6 -44.5 -6q-66 0 -100 21.5q-34 21.5 -34 61.5q0 27 14.5 47q14.5 20 35.5 34q21 14 45.5 22.5q24.5 8.5 44.5 13.5l-74 0l-10 95h-5q-5 -20 -18.5 -39q-13.5 -19 -34 -34q-20.5 -15 -48.5 -24q-28 -9 -62 -9q-34 0 -62.5 10q-28.5 10 -49.5 28q-21 18 -32.5 43.5q-11.5 25.5 -11.5 57.5q0 49 20.5 81q20.5 32 60.5 50.5q40 18.5 100 26.5q60 8 140 9q3 31 3 59q0 62 -21.5 94.5q-21.5 32.5 -75.5 32.5q-20 0 -43 -2q-23 -2 -42 -12l0 -92h-90v111q36 19 85 34q49 15 115 15q57 0 91.5 -14.5q34.5 -14.5 53 -38q18.5 -23.5 24 -53q5.5 -29.5 5.5 -58.5q0 -63 -2.5 -120.5q-2.5 -57.5 -2.5 -111.5zt0 0zM245 56q24 0 43 7.5q19 7.5 33.5 19q14.5 11.5 25 25.5q10.5 14 17.5 27l0 119q-64 0 -104.5 -8.5q-40.5 -8.5 -64 -22.5q-23.5 -14 -32 -33.5q-8.5 -19.5 -8.5 -41.5q0 -45 24 -68.5t66 -23.5z" />
<glyph unicode="&#262;" horiz-adv-x="698" d="M568 184h64v-157q-31 -17 -82 -28q-51 -11 -101 -11q-92 0 -165 21q-73 21 -123.5 65.5q-50.5 44.5 -77.5 112.5q-27 68 -27 163q0 98 30 166.5q30 68.5 81 112q51 43.5 118 63.5q67 20 141 20q36 0 65 -2.5q29 -2.5 52.5 -7.5q23.5 -5 43.5 -12q20 -7 39 -15l0 -171h-64v105l-14 20q-11 5 -34.5 12q-23.5 7 -75.5 7q-54 0 -101 -17q-47 -17 -81.5 -53q-34.5 -36 -54.5 -92.5q-20 -56.5 -20 -135.5q0 -143 72.5 -220.5q72.5 -77.5 203.5 -77.5q36 0 60.5 5.5q24.5 5.5 36.5 14.5l14 19zM482 914l123 -33v-40l-256 -72l-13 24z" />
<glyph unicode="&#263;" horiz-adv-x="523" d="M482 67q-21 -29 -66.5 -53.5q-45.5 -24.5 -107.5 -24.5q-66 0 -115.5 19.5q-49.5 19.5 -82.5 55q-33 35.5 -49 86q-16 50.5 -16 112.5q0 133 70.5 203q70.5 70 191.5 70q55 0 91 -7q36 -7 66 -22l0 -130h-90v96q-15 9 -60 9q-38 0 -67 -11q-29 -11 -49 -36q-20 -25 -30 -67q-10 -42 -10 -103q0 -40 11 -76.5q11 -36.5 33 -64q22 -27.5 55.5 -43.5q33.5 -16 78.5 -16q24 0 42.5 5q18.5 5 32.5 10.5q14 5.5 25 12.5q11 7 21 15zM332 750h126v-41l-196 -117l-28 23z" />
<glyph unicode="&#264;" horiz-adv-x="698" d="M568 184h64v-157q-31 -17 -82 -28q-51 -11 -101 -11q-92 0 -165 21q-73 21 -123.5 65.5q-50.5 44.5 -77.5 112.5q-27 68 -27 163q0 98 30 166.5q30 68.5 81 112q51 43.5 118 63.5q67 20 141 20q36 0 65 -2.5q29 -2.5 52.5 -7.5q23.5 -5 43.5 -12q20 -7 39 -15l0 -171h-64v105l-14 20q-11 5 -34.5 12q-23.5 7 -75.5 7q-54 0 -101 -17q-47 -17 -81.5 -53q-34.5 -36 -54.5 -92.5q-20 -56.5 -20 -135.5q0 -143 72.5 -220.5q72.5 -77.5 203.5 -77.5q36 0 60.5 5.5q24.5 5.5 36.5 14.5l14 19zM278 761l-16 20l142 133h31l141 -130l-18 -22l-142 56z" />
<glyph unicode="&#265;" horiz-adv-x="523" d="M482 67q-21 -29 -66.5 -53.5q-45.5 -24.5 -107.5 -24.5q-66 0 -115.5 19.5q-49.5 19.5 -82.5 55q-33 35.5 -49 86q-16 50.5 -16 112.5q0 133 70.5 203q70.5 70 191.5 70q55 0 91 -7q36 -7 66 -22l0 -130h-90v96q-15 9 -60 9q-38 0 -67 -11q-29 -11 -49 -36q-20 -25 -30 -67q-10 -42 -10 -103q0 -40 11 -76.5q11 -36.5 33 -64q22 -27.5 55.5 -43.5q33.5 -16 78.5 -16q24 0 42.5 5q18.5 5 32.5 10.5q14 5.5 25 12.5q11 7 21 15zM187 619l-32 17l125 196h29l126 -195l-32 -18l-113 112z" />
<glyph unicode="&#268;" horiz-adv-x="698" d="M568 184h64v-157q-31 -17 -82 -28q-51 -11 -101 -11q-92 0 -165 21q-73 21 -123.5 65.5q-50.5 44.5 -77.5 112.5q-27 68 -27 163q0 98 30 166.5q30 68.5 81 112q51 43.5 118 63.5q67 20 141 20q36 0 65 -2.5q29 -2.5 52.5 -7.5q23.5 -5 43.5 -12q20 -7 39 -15l0 -171h-64v105l-14 20q-11 5 -34.5 12q-23.5 7 -75.5 7q-54 0 -101 -17q-47 -17 -81.5 -53q-34.5 -36 -54.5 -92.5q-20 -56.5 -20 -135.5q0 -143 72.5 -220.5q72.5 -77.5 203.5 -77.5q36 0 60.5 5.5q24.5 5.5 36.5 14.5l14 19zM562 919l28 -18l-142 -142h-31l-141 139l28 21l133 -55z" />
<glyph unicode="&#269;" horiz-adv-x="523" d="M482 67q-21 -29 -66.5 -53.5q-45.5 -24.5 -107.5 -24.5q-66 0 -115.5 19.5q-49.5 19.5 -82.5 55q-33 35.5 -49 86q-16 50.5 -16 112.5q0 133 70.5 203q70.5 70 191.5 70q55 0 91 -7q36 -7 66 -22l0 -130h-90v96q-15 9 -60 9q-38 0 -67 -11q-29 -11 -49 -36q-20 -25 -30 -67q-10 -42 -10 -103q0 -40 11 -76.5q11 -36.5 33 -64q22 -27.5 55.5 -43.5q33.5 -16 78.5 -16q24 0 42.5 5q18.5 5 32.5 10.5q14 5.5 25 12.5q11 7 21 15zM405 806l32 -17l-139 -195h-29l-137 194l40 18l119 -110z" />
<glyph unicode="&#270;" horiz-adv-x="782" d="M32 0v56h91v588h-91v56h123q19 0 44.5 1q25.5 1 52.5 2.5q27 1.5 51.5 3q24.5 1.5 41.5 1.5q93 0 164 -23.5q71 -23.5 119 -68q48 -44.5 72.5 -109.5q24.5 -65 24.5 -148q0 -80 -23 -147q-23 -67 -72 -116.5q-49 -49.5 -125.5 -77q-76.5 -27.5 -182.5 -27.5q-16 0 -37 1.5q-21 1.5 -44.5 3q-23.5 1.5 -47.5 3q-24 1.5 -45 1.5zM330 652q-28 0 -54 -1q-26 -1 -41 -4l0 -596q6 -1 20 -1.5q14 -0.5 30.5 -1q16.5 -0.5 31.5 -1q15 -0.5 21 -0.5q75 0 125 25.5q50 25.5 80.5 68q30.5 42.5 43.5 99q13 56.5 13 119.5q0 49 -12.5 101q-12.5 52 -43.5 95q-31 43 -83 70q-52 27 -131 27zt0 0zM467 919l28 -18l-142 -142h-31l-141 139l28 21l133 -55z" />
<glyph unicode="&#271;" horiz-adv-x="625" d="M418 104q-6 -23 -19.5 -44q-13.5 -21 -33 -37q-19.5 -16 -44.5 -25q-25 -9 -54 -9q-111 0 -166.5 65.5q-55.5 65.5 -55.5 204.5q0 67 18.5 118.5q18.5 51.5 52.5 86.5q34 35 82 53q48 18 107 18q21 0 36 -1q15 -1 28 -3q13 -2 25 -5.5q12 -3.5 26 -7.5l0 182h-85v50h190v-700h68v-50h-162l-9 104zM290 56q55 0 86 31q31 31 44 86l0 295q-20 10 -44.5 15q-24.5 5 -64.5 5q-37 0 -65.5 -16q-28.5 -16 -48 -46q-19.5 -30 -29.5 -72.5q-10 -42.5 -10 -94.5q0 -42 7.5 -79q7.5 -37 23.5 -64.5q16 -27.5 41 -43.5q25 -16 60 -16zt0 0zM571 569q24 48 36 103.5q12 55.5 12 98.5l15 18q8 0 21 -2q13 -2 27 -5.5q14 -3.5 26.5 -8q12.5 -4.5 19.5 -10.5q-5 -29 -19.5 -59q-14.5 -30 -33.5 -57.5q-19 -27.5 -40.5 -50.5q-21.5 -23 -39.5 -38z" />
<glyph unicode="&#272;" horiz-adv-x="782" d="M32 0v56h91v275h-100v54h100v259h-91v56h123q19 0 44.5 1q25.5 1 52.5 2.5q27 1.5 51.5 3q24.5 1.5 41.5 1.5q93 0 164 -23.5q71 -23.5 119 -68q48 -44.5 72.5 -109.5q24.5 -65 24.5 -148q0 -80 -23 -147q-23 -67 -72 -116.5q-49 -49.5 -125.5 -77q-76.5 -27.5 -182.5 -27.5q-16 0 -37 1.5q-21 1.5 -44.5 3q-23.5 1.5 -47.5 3q-24 1.5 -45 1.5zM330 652q-28 0 -54 -1q-26 -1 -41 -4l0 -262h179v-54h-179v-280q6 -1 20 -1.5q14 -0.5 30.5 -1q16.5 -0.5 31.5 -1q15 -0.5 21 -0.5q75 0 125 25.5q50 25.5 80.5 68q30.5 42.5 43.5 99q13 56.5 13 119.5q0 49 -12.5 101q-12.5 52 -43.5 95q-31 43 -83 70t-131 27z" />
<glyph unicode="&#273;" horiz-adv-x="625" d="M251 653h169v47h-84v50h189v-97h102v-55h-102v-548h68v-50h-162l-10 104h-4q-6 -23 -19.5 -44q-13.5 -21 -33 -37q-19.5 -16 -44 -25q-24.5 -9 -53.5 -9q-111 0 -166.5 65.5q-55.5 65.5 -55.5 204.5q0 67 18.5 118.5q18.5 51.5 52.5 86.5q34 35 82 53q48 18 107 18q21 0 36 -1q15 -1 28 -3q13 -2 25 -5.5q12 -3.5 26 -7.5l0 80h-169zM290 56q55 0 86 31q31 31 44 86l0 295q-20 10 -44.5 15q-24.5 5 -64.5 5q-37 0 -65.5 -16q-28.5 -16 -48 -46q-19.5 -30 -29.5 -72.5q-10 -42.5 -10 -94.5q0 -42 7.5 -79q7.5 -37 23.5 -64.5q16 -27.5 41 -43.5t60 -16z" />
<glyph unicode="&#274;" horiz-adv-x="645" d="M564 700v-164h-64v86l-20 22h-245v-259h169l15 15v42h64v-171h-64v42l-15 16h-169v-273h262l20 20v98h64v-174h-549v56h91v588h-91v56zM154 787v64h340l0 -64z" />
<glyph unicode="&#275;" horiz-adv-x="566" d="M499 69q-26 -37 -73.5 -58.5q-47.5 -21.5 -110.5 -21.5q-66 0 -116.5 19.5q-50.5 19.5 -84.5 55q-34 35.5 -51.5 86q-17.5 50.5 -17.5 112.5q0 134 67 203.5q67 69.5 188 69.5q40 0 78.5 -10q38.5 -10 68.5 -33q30 -23 48.5 -61q18.5 -38 18.5 -94q0 -17 -2 -36q-2 -19 -6 -40l-348 0q0 -44 11.5 -80q11.5 -36 35 -62q23.5 -26 58.5 -40.5q35 -14.5 83 -14.5q39 0 72.5 13q33.5 13 53.5 30zM296 488q-31 0 -54.5 -9q-23.5 -9 -40.5 -30q-17 -21 -27 -55.5q-10 -34.5 -13 -85.5l241 0q1 9 1.5 18.5q0.5 9.5 0.5 17.5q0 66 -26.5 105q-26.5 39 -81.5 39zt0 0zM150 668v55h288l0 -55z" />
<glyph unicode="&#278;" horiz-adv-x="645" d="M564 700v-164h-64v86l-20 22h-245v-259h169l15 15v42h64v-171h-64v42l-15 16h-169v-273h262l20 20v98h64v-174h-549v56h91v588h-91v56zM250 821q0 29 23 44q23 15 57 15q35 0 58 -15q23 -15 23 -44q0 -29 -23 -44q-23 -15 -58 -15q-34 0 -57 15t-23 44z" />
<glyph unicode="&#279;" horiz-adv-x="566" d="M499 69q-26 -37 -73.5 -58.5q-47.5 -21.5 -110.5 -21.5q-66 0 -116.5 19.5q-50.5 19.5 -84.5 55q-34 35.5 -51.5 86q-17.5 50.5 -17.5 112.5q0 134 67 203.5q67 69.5 188 69.5q40 0 78.5 -10q38.5 -10 68.5 -33q30 -23 48.5 -61q18.5 -38 18.5 -94q0 -17 -2 -36q-2 -19 -6 -40l-348 0q0 -44 11.5 -80q11.5 -36 35 -62q23.5 -26 58.5 -40.5q35 -14.5 83 -14.5q39 0 72.5 13q33.5 13 53.5 30zM296 488q-31 0 -54.5 -9q-23.5 -9 -40.5 -30q-17 -21 -27 -55.5q-10 -34.5 -13 -85.5l241 0q1 9 1.5 18.5q0.5 9.5 0.5 17.5q0 66 -26.5 105q-26.5 39 -81.5 39zt0 0zM218 687q0 29 20.5 46q20.5 17 52.5 17q34 0 53.5 -17q19.5 -17 19.5 -46q0 -29 -19.5 -46q-19.5 -17 -53.5 -17q-32 0 -52.5 17t-20.5 46z" />
<glyph unicode="&#280;" horiz-adv-x="645" d="M564 700v-164h-64v86l-20 22h-245v-259h169l15 15v42h64v-171h-64v42l-15 16h-169v-273h262l20 20v98h64v-174h-56q-46 -19 -72.5 -43.5q-26.5 -24.5 -26.5 -66.5q0 -27 20 -37.5q20 -10.5 53 -10.5q34 0 63 6l0 -31q-16 -11 -41 -19.5q-25 -8.5 -62 -8.5q-26 0 -49.5 5q-23.5 5 -41 15q-17.5 10 -28 25.5q-10.5 15.5 -10.5 37.5q0 46 34.5 77.5q34.5 31.5 85.5 50.5l-418 0v56h91v588h-91l0 56z" />
<glyph unicode="&#281;" horiz-adv-x="566" d="M499 69q-33 -47 -94 -66q-38 -19 -62.5 -41q-24.5 -22 -24.5 -62q0 -20 14.5 -36.5q14.5 -16.5 49.5 -16.5q30 0 59 10l0 -36q-16 -9 -40.5 -15q-24.5 -6 -44.5 -6q-66 0 -100 21.5q-34 21.5 -34 61.5q0 39 25 63.5q25 24.5 67 42.5q-66 0 -116.5 19.5q-50.5 19.5 -84 55q-33.5 35.5 -51 86q-17.5 50.5 -17.5 112.5q0 134 67 203.5q67 69.5 188 69.5q40 0 78.5 -10q38.5 -10 68.5 -33q30 -23 48.5 -61q18.5 -38 18.5 -94q0 -17 -2 -36q-2 -19 -6 -40l-348 0q0 -44 11.5 -80q11.5 -36 35 -62q23.5 -26 58.5 -40.5q35 -14.5 83 -14.5q39 0 72.5 13q33.5 13 53.5 30zM296 488q-31 0 -54.5 -9q-23.5 -9 -40.5 -30q-17 -21 -27 -55.5q-10 -34.5 -13 -85.5l241 0q1 9 1.5 18.5q0.5 9.5 0.5 17.5q0 66 -26.5 105t-81.5 39z" />
<glyph unicode="&#282;" horiz-adv-x="645" d="M564 700v-164h-64v86l-20 22h-245v-259h169l15 15v42h64v-171h-64v42l-15 16h-169v-273h262l20 20v98h64v-174h-549v56h91v588h-91v56zM465 919l28 -18l-142 -142h-31l-141 139l28 21l133 -55z" />
<glyph unicode="&#283;" horiz-adv-x="566" d="M499 69q-26 -37 -73.5 -58.5q-47.5 -21.5 -110.5 -21.5q-66 0 -116.5 19.5q-50.5 19.5 -84.5 55q-34 35.5 -51.5 86q-17.5 50.5 -17.5 112.5q0 134 67 203.5q67 69.5 188 69.5q40 0 78.5 -10q38.5 -10 68.5 -33q30 -23 48.5 -61q18.5 -38 18.5 -94q0 -17 -2 -36q-2 -19 -6 -40l-348 0q0 -44 11.5 -80q11.5 -36 35 -62q23.5 -26 58.5 -40.5q35 -14.5 83 -14.5q39 0 72.5 13q33.5 13 53.5 30zM296 488q-31 0 -54.5 -9q-23.5 -9 -40.5 -30q-17 -21 -27 -55.5q-10 -34.5 -13 -85.5l241 0q1 9 1.5 18.5q0.5 9.5 0.5 17.5q0 66 -26.5 105q-26.5 39 -81.5 39zt0 0zM425 806l32 -17l-139 -195h-29l-137 194l40 18l119 -110z" />
<glyph unicode="&#284;" horiz-adv-x="774" d="M669 48q-21 -12 -48 -23q-27 -11 -56.5 -19q-29.5 -8 -59.5 -13q-30 -5 -58 -5q-93 0 -165.5 21.5q-72.5 21.5 -122.5 66q-50 44.5 -76 113q-26 68.5 -26 161.5q0 98 31.5 167q31.5 69 83.5 112.5q52 43.5 119.5 63q67.5 19.5 138.5 19.5q74 0 122 -10q48 -10 86 -27l0 -171h-64v105l-14 20q-9 5 -23 8.5q-14 3.5 -29.5 6q-15.5 2.5 -32 3.5q-16.5 1 -30.5 1q-55 0 -103 -17q-48 -17 -83.5 -53q-35.5 -36 -56 -92.5q-20.5 -56.5 -20.5 -135.5q0 -142 70.5 -220q70.5 -78 202.5 -78q33 0 56.5 4.5q23.5 4.5 41.5 11.5l15 18v189h-106v56h277v-56h-70zM281 761l-16 20l142 133h31l141 -130l-18 -22l-142 56z" />
<glyph unicode="&#285;" horiz-adv-x="592" d="M582 525v-64h-117q14 -14 26 -39q12 -25 12 -60q0 -74 -58 -119q-58 -45 -167 -45q-20 0 -34 0.5q-14 0.5 -30 4.5q-5 -10 -12.5 -21.5q-7.5 -11.5 -7.5 -24.5q0 -21 26 -31.5q26 -10.5 65 -19q39 -8.5 85 -17q46 -8.5 85.5 -25q39.5 -16.5 65.5 -43.5q26 -27 26 -71q0 -38 -19.5 -66.5q-19.5 -28.5 -55 -47q-35.5 -18.5 -84.5 -27.5q-49 -9 -107 -9q-125 0 -187 33q-62 33 -62 91q0 56 38 86q38 30 107 50q-26 11 -42 24q-16 13 -16 39q0 12 6 24.5q6 12.5 16 24q10 11.5 22 21q12 9.5 23 15.5q-64 17 -98.5 58q-34.5 41 -34.5 98q0 73 57 117q57 44 168 44zM442 -74q0 33 -23.5 52.5q-23.5 19.5 -59 32q-35.5 12.5 -76.5 20.5q-41 8 -77 19q-42 -25 -55.5 -50.5q-13.5 -25.5 -13.5 -54.5q0 -42 42 -70q42 -28 122 -28q41 0 68 6.5q27 6.5 43.5 17.5q16.5 11 23 25q6.5 14 6.5 30zt0 0zM158 364q0 -26 6 -48q6 -22 19.5 -37.5q13.5 -15.5 36.5 -24.5q23 -9 58 -9q64 0 92 32.5q28 32.5 28 86.5q0 21 -1.5 35q-1.5 14 -4 25q-2.5 11 -5.5 19.5q-3 8.5 -6 17.5q-23 10 -49 13.5q-26 3.5 -54 3.5q-68 0 -94 -28q-26 -28 -26 -86zt0 0zM168 619l-32 17l125 196h29l126 -195l-32 -18l-113 112z" />
<glyph unicode="&#286;" horiz-adv-x="774" d="M669 48q-21 -12 -48 -23q-27 -11 -56.5 -19q-29.5 -8 -59.5 -13q-30 -5 -58 -5q-93 0 -165.5 21.5q-72.5 21.5 -122.5 66q-50 44.5 -76 113q-26 68.5 -26 161.5q0 98 31.5 167q31.5 69 83.5 112.5q52 43.5 119.5 63q67.5 19.5 138.5 19.5q74 0 122 -10q48 -10 86 -27l0 -171h-64v105l-14 20q-9 5 -23 8.5q-14 3.5 -29.5 6q-15.5 2.5 -32 3.5q-16.5 1 -30.5 1q-55 0 -103 -17q-48 -17 -83.5 -53q-35.5 -36 -56 -92.5q-20.5 -56.5 -20.5 -135.5q0 -142 70.5 -220q70.5 -78 202.5 -78q33 0 56.5 4.5q23.5 4.5 41.5 11.5l15 18v189h-106v56h277v-56h-70zM616 890q-9 -26 -25.5 -50q-16.5 -24 -38.5 -42q-22 -18 -48.5 -28.5q-26.5 -10.5 -54.5 -10.5q-31 0 -59.5 10q-28.5 10 -51.5 28q-23 18 -40 42.5q-17 24.5 -24 52.5l47 15q8 -12 23 -22.5q15 -10.5 33 -18q18 -7.5 37 -11.5q19 -4 36 -4q36 0 71.5 11.5q35.5 11.5 58.5 41.5z" />
<glyph unicode="&#287;" horiz-adv-x="592" d="M582 525v-64h-117q14 -14 26 -39q12 -25 12 -60q0 -74 -58 -119q-58 -45 -167 -45q-20 0 -34 0.5q-14 0.5 -30 4.5q-5 -10 -12.5 -21.5q-7.5 -11.5 -7.5 -24.5q0 -21 26 -31.5q26 -10.5 65 -19q39 -8.5 85 -17q46 -8.5 85.5 -25q39.5 -16.5 65.5 -43.5q26 -27 26 -71q0 -38 -19.5 -66.5q-19.5 -28.5 -55 -47q-35.5 -18.5 -84.5 -27.5q-49 -9 -107 -9q-125 0 -187 33q-62 33 -62 91q0 56 38 86q38 30 107 50q-26 11 -42 24q-16 13 -16 39q0 12 6 24.5q6 12.5 16 24q10 11.5 22 21q12 9.5 23 15.5q-64 17 -98.5 58q-34.5 41 -34.5 98q0 73 57 117q57 44 168 44zM442 -74q0 33 -23.5 52.5q-23.5 19.5 -59 32q-35.5 12.5 -76.5 20.5q-41 8 -77 19q-42 -25 -55.5 -50.5q-13.5 -25.5 -13.5 -54.5q0 -42 42 -70q42 -28 122 -28q41 0 68 6.5q27 6.5 43.5 17.5q16.5 11 23 25q6.5 14 6.5 30zt0 0zM158 364q0 -26 6 -48q6 -22 19.5 -37.5q13.5 -15.5 36.5 -24.5q23 -9 58 -9q64 0 92 32.5q28 32.5 28 86.5q0 21 -1.5 35q-1.5 14 -4 25q-2.5 11 -5.5 19.5q-3 8.5 -6 17.5q-23 10 -49 13.5q-26 3.5 -54 3.5q-68 0 -94 -28q-26 -28 -26 -86zt0 0zM438 756q-10 -24 -24.5 -47q-14.5 -23 -33 -41q-18.5 -18 -42 -29.5q-23.5 -11.5 -51.5 -11.5q-60 0 -98 37q-38 37 -58 94l32 14q9 -15 24 -27.5q15 -12.5 32.5 -21.5q17.5 -9 36 -14.5q18.5 -5.5 35.5 -5.5q36 0 67 16.5q31 16.5 53 48.5z" />
<glyph unicode="&#290;" horiz-adv-x="774" d="M669 48q-21 -12 -48 -23q-27 -11 -56.5 -19q-29.5 -8 -59.5 -13q-30 -5 -58 -5q-93 0 -165.5 21.5q-72.5 21.5 -122.5 66q-50 44.5 -76 113q-26 68.5 -26 161.5q0 98 31.5 167q31.5 69 83.5 112.5q52 43.5 119.5 63q67.5 19.5 138.5 19.5q74 0 122 -10q48 -10 86 -27l0 -171h-64v105l-14 20q-9 5 -23 8.5q-14 3.5 -29.5 6q-15.5 2.5 -32 3.5q-16.5 1 -30.5 1q-55 0 -103 -17q-48 -17 -83.5 -53q-35.5 -36 -56 -92.5q-20.5 -56.5 -20.5 -135.5q0 -142 70.5 -220q70.5 -78 202.5 -78q33 0 56.5 4.5q23.5 4.5 41.5 11.5l15 18v189h-106v56h277v-56h-70zM330 -243q42 11 67.5 30.5q25.5 19.5 25.5 49.5v7h-60q-10 12 -14 25q-4 13 -4 27q0 30 18 56l126 0q17 -34 17 -69q0 -32 -14 -59q-14 -27 -36.5 -48q-22.5 -21 -52 -35.5q-29.5 -14.5 -59.5 -20.5z" />
<glyph unicode="&#291;" horiz-adv-x="592" d="M582 525v-64h-117q14 -14 26 -39q12 -25 12 -60q0 -74 -58 -119q-58 -45 -167 -45q-20 0 -34 0.5q-14 0.5 -30 4.5q-5 -10 -12.5 -21.5q-7.5 -11.5 -7.5 -24.5q0 -21 26 -31.5q26 -10.5 65 -19q39 -8.5 85 -17q46 -8.5 85.5 -25q39.5 -16.5 65.5 -43.5q26 -27 26 -71q0 -38 -19.5 -66.5q-19.5 -28.5 -55 -47q-35.5 -18.5 -84.5 -27.5q-49 -9 -107 -9q-125 0 -187 33q-62 33 -62 91q0 56 38 86q38 30 107 50q-26 11 -42 24q-16 13 -16 39q0 12 6 24.5q6 12.5 16 24q10 11.5 22 21q12 9.5 23 15.5q-64 17 -98.5 58q-34.5 41 -34.5 98q0 73 57 117q57 44 168 44zM442 -74q0 33 -23.5 52.5q-23.5 19.5 -59 32q-35.5 12.5 -76.5 20.5q-41 8 -77 19q-42 -25 -55.5 -50.5q-13.5 -25.5 -13.5 -54.5q0 -42 42 -70q42 -28 122 -28q41 0 68 6.5q27 6.5 43.5 17.5q16.5 11 23 25q6.5 14 6.5 30zt0 0zM158 364q0 -26 6 -48q6 -22 19.5 -37.5q13.5 -15.5 36.5 -24.5q23 -9 58 -9q64 0 92 32.5q28 32.5 28 86.5q0 21 -1.5 35q-1.5 14 -4 25q-2.5 11 -5.5 19.5q-3 8.5 -6 17.5q-23 10 -49 13.5q-26 3.5 -54 3.5q-68 0 -94 -28q-26 -28 -26 -86zt0 0zM352 811q-42 -11 -67.5 -33q-25.5 -22 -25.5 -52v-7h60q10 -12 14 -24.5q4 -12.5 4 -24.5q0 -28 -18 -54l-116 0q-10 20 -14 38q-4 18 -4 35q0 31 12.5 57.5q12.5 26.5 34 47q21.5 20.5 49 34.5q27.5 14 57.5 20z" />
<glyph unicode="&#292;" horiz-adv-x="820" d="M318 56v-56h-286v56h91v588h-91v56h286v-56h-83v-257h350v257h-83v56h286v-56h-91v-588h91v-56h-286v56h83v275h-350v-275zM270 761l-16 20l142 133h31l141 -130l-18 -22l-142 56z" />
<glyph unicode="&#293;" horiz-adv-x="661" d="M642 0h-245v50h66v246q0 83 -22 127.5q-22 44.5 -78 44.5q-30 0 -56 -10q-26 -10 -46 -26q-20 -16 -34.5 -35.5q-14.5 -19.5 -21.5 -38.5l0 -308h66v-50h-245v50h74v650h-85v50h190v-331h1q23 49 72.5 82.5q49.5 33.5 118.5 33.5q39 0 71 -9.5q32 -9.5 54 -34.5q22 -25 34 -67q12 -42 12 -107v-267h74zM1 761l-16 20l142 133h31l141 -130l-18 -22l-142 56z" />
<glyph unicode="&#294;" horiz-adv-x="820" d="M34 560h89v84h-91v56h286v-56h-83v-84h350v84h-83v56h286v-56h-91v-84h89v-54h-89v-450h91v-56h-286v56h83v275h-350v-275h83v-56h-286v56h91v450h-89zM585 387v119h-350l0 -119z" />
<glyph unicode="&#295;" horiz-adv-x="661" d="M5 653h95v47h-85v50h190v-97h176v-55h-176v-179h1q23 49 72.5 82.5q49.5 33.5 118.5 33.5q39 0 71 -9.5q32 -9.5 54 -34.5q22 -25 34 -67q12 -42 12 -107v-267h74v-50h-245v50h66v246q0 83 -22 127.5q-22 44.5 -78 44.5q-30 0 -56 -10q-26 -10 -46 -26q-20 -16 -34.5 -35.5q-14.5 -19.5 -21.5 -38.5l0 -308h66v-50h-245v50h74v548l-95 0z" />
<glyph unicode="&#298;" horiz-adv-x="398" d="M346 0h-294v56h91v588h-91v56h294v-56h-91v-588h91zM28 787v64h340l0 -64z" />
<glyph unicode="&#299;" horiz-adv-x="339" d="M298 0h-253v50h74v425h-74v50h179v-475h74zM25 668v55h288l0 -55z" />
<glyph unicode="&#302;" horiz-adv-x="398" d="M346 0h-56q-46 -19 -72.5 -43.5q-26.5 -24.5 -26.5 -66.5q0 -27 20 -37.5q20 -10.5 53 -10.5q34 0 63 6l0 -31q-16 -11 -41 -19.5q-25 -8.5 -62 -8.5q-26 0 -49.5 5q-23.5 5 -41 15q-17.5 10 -28 25.5q-10.5 15.5 -10.5 37.5q0 46 34.5 77.5q34.5 31.5 85.5 50.5l-163 0v56h91v588h-91v56h294v-56h-91v-588l91 0z" />
</font>
</defs>
</svg>
