<?xml version="1.0" standalone="no"?>
<!DOCTYPE svg PUBLIC "-//W3C//DTD SVG 1.1//EN" "http://www.w3.org/Graphics/SVG/1.1/DTD/svg11.dtd" >
<svg xmlns="http://www.w3.org/2000/svg">
<metadata>
Generated by SVGconv.
Copyright   : Copyright  2009 ParaType Ltd. All rights reserved.
Designer    : A.Korolkova, O.Umpeleva, V.Yefimov
Foundry     : ParaType Ltd
Foundry URL : http://www.paratype.com
</metadata>
<defs>
<font id="PTSans-CaptionBold" horiz-adv-x="593" >
<font-face units-per-em="1000" ascent="1018" descent="276" />
<missing-glyph horiz-adv-x="750" />
<glyph unicode="&#32;" horiz-adv-x="276" />
<glyph unicode="&#33;" horiz-adv-x="314" d="M105 700h146v-327l-28 -161h-90l-28 161zM90 68q0 37 24 58q24 21 63 21q40 0 64 -21q24 -21 24 -58q0 -35 -24 -57q-24 -22 -64 -22q-39 0 -63 22t-24 57z" />
<glyph unicode="&#34;" horiz-adv-x="436" d="M99 700h124l-38 -218h-86zM258 700h124l-38 -218l-86 0z" />
<glyph unicode="&#35;" horiz-adv-x="591" d="M302 203h-97l-39 -153h-116l39 153h-80l24 101h82l26 102h-78l24 101h80l37 143h116l-37 -143h97l37 143h116l-37 -143h77l-26 -101h-77l-27 -102h75l-26 -101h-75l-38 -153h-116zM231 304h97l26 102l-97 0z" />
<glyph unicode="&#36;" horiz-adv-x="591" d="M247 -13q-62 2 -108.5 12.5q-46.5 10.5 -72.5 23.5l42 121q20 -11 55 -21q35 -10 84 -14l0 188q-34 13 -67 29.5q-33 16.5 -59 41q-26 24.5 -42 58q-16 33.5 -16 81.5q0 91 49.5 140q49.5 49 134.5 62l0 91h113v-88q48 -3 84 -12q36 -9 66 -23l-38 -118q-17 8 -46.5 16.5q-29.5 8.5 -65.5 13.5l0 -174q34 -13 68 -29.5q34 -16.5 61 -40.5q27 -24 43.5 -57q16.5 -33 16.5 -79q0 -96 -50.5 -148.5q-50.5 -52.5 -138.5 -67.5l0 -93h-113zM313 108q49 5 70.5 26.5q21.5 21.5 21.5 56.5q0 30 -26 48q-26 18 -66 34zM294 593q-26 -1 -43 -6.5q-17 -5.5 -27 -15q-10 -9.5 -13.5 -22.5q-3.5 -13 -3.5 -29q0 -29 24.5 -46.5q24.5 -17.5 62.5 -33.5z" />
<glyph unicode="&#37;" horiz-adv-x="907" d="M53 542q0 45 14 77q14 32 39.5 52.5q25.5 20.5 60 30.5q34.5 10 76.5 10q41 0 76 -9q35 -9 60.5 -29.5q25.5 -20.5 39.5 -53q14 -32.5 14 -78.5q0 -47 -14 -79q-14 -32 -39.5 -52.5q-25.5 -20.5 -60.5 -29.5q-35 -9 -76 -9q-42 0 -76.5 9q-34.5 9 -60 29.5q-25.5 20.5 -39.5 52.5q-14 32 -14 79zt0 0zM180 542q0 -39 14 -61q14 -22 49 -22q34 0 48 19q14 19 14 64q0 45 -14 64q-14 19 -48 19q-34 0 -48.5 -19q-14.5 -19 -14.5 -64zt0 0zM494 170q0 45 14 77q14 32 39.5 52.5q25.5 20.5 60 30.5q34.5 10 76.5 10q41 0 76 -9q35 -9 60.5 -29.5q25.5 -20.5 39.5 -53q14 -32.5 14 -78.5q0 -47 -14 -79q-14 -32 -39.5 -52.5q-25.5 -20.5 -60.5 -29.5q-35 -9 -76 -9q-42 0 -76.5 9q-34.5 9 -60 29.5q-25.5 20.5 -39.5 52.5q-14 32 -14 79zt0 0zM621 170q0 -39 14 -61q14 -22 49 -22q34 0 48 19q14 19 14 64q0 45 -14 64q-14 19 -48 19q-34 0 -48.5 -19q-14.5 -19 -14.5 -64zt0 0zM732 718l79 -77l-625 -655l-76 77z" />
<glyph unicode="&#38;" horiz-adv-x="885" d="M100 195q0 37 13.5 71.5q13.5 34.5 37.5 65q24 30.5 57.5 56q33.5 25.5 74.5 46.5q-27 32 -44.5 65.5q-17.5 33.5 -17.5 71.5q0 25 10 51q10 26 32.5 46q22.5 20 58 33q35.5 13 87.5 13q50 0 85 -11q35 -11 56.5 -29q21.5 -18 31 -41.5q9.5 -23.5 9.5 -48.5q0 -40 -30.5 -84.5q-30.5 -44.5 -106.5 -84.5q20 -28 38.5 -52q18.5 -24 38 -46q19.5 -22 40 -43q20.5 -21 43.5 -42q24 25 45 63q21 38 36 78l102 -58q-8 -17 -19 -38q-11 -21 -24 -42q-13 -21 -26.5 -40q-13.5 -19 -25.5 -33q33 -28 58.5 -44q25.5 -16 52.5 -30l-76 -102q-28 12 -60 34q-32 22 -62 49q-40 -33 -99.5 -58q-59.5 -25 -145.5 -25q-55 0 -104 14.5q-49 14.5 -86 41.5q-37 27 -58.5 65.5q-21.5 38.5 -21.5 87.5zt0 0zM528 151q-55 53 -100.5 104.5q-45.5 51.5 -80.5 97.5q-53 -37 -80 -71.5q-27 -34.5 -27 -74.5q0 -49 41 -76.5q41 -27.5 109 -27.5q43 0 80.5 14.5q37.5 14.5 57.5 33.5zt0 0zM361 564q0 -41 40 -87q42 24 61 45q19 21 19 40q0 25 -14.5 38q-14.5 13 -47.5 13q-29 0 -43.5 -13.5t-14.5 -35.5z" />
<glyph unicode="&#39;" horiz-adv-x="277" d="M99 700h124l-38 -218l-86 0z" />
<glyph unicode="&#40;" horiz-adv-x="356" d="M247 -220q-50 48 -84.5 105.5q-34.5 57.5 -56 118q-21.5 60.5 -31 122q-9.5 61.5 -9.5 117.5q0 55 9.5 116q9.5 61 31.5 122.5q22 61.5 57.5 120.5q35.5 59 86.5 110l90 -61q-38 -46 -64 -96.5q-26 -50.5 -41.5 -102.5q-15.5 -52 -22.5 -105q-7 -53 -7 -104q0 -48 8 -101q8 -53 24.5 -105.5q16.5 -52.5 42.5 -102.5q26 -50 62 -92z" />
<glyph unicode="&#41;" horiz-adv-x="356" d="M13 -158q36 42 62 92q26 50 42.5 102.5q16.5 52.5 24.5 105.5q8 53 8 101q0 51 -7 104q-7 53 -22.5 105q-15.5 52 -41.5 102.5q-26 50.5 -64 96.5l90 61q51 -51 86.5 -110q35.5 -59 57.5 -120.5q22 -61.5 31.5 -122.5q9.5 -61 9.5 -116q0 -56 -9.5 -117.5q-9.5 -61.5 -31 -122q-21.5 -60.5 -56 -118q-34.5 -57.5 -84.5 -105.5z" />
<glyph unicode="&#42;" horiz-adv-x="408" d="M156 735l30 -47l16 -61l16 57l30 51l67 -37l-32 -54l-51 -44l70 17h60v-77h-58l-65 18l53 -48l27 -45l-68 -38l-29 48l-21 65l-14 -59l-31 -52l-68 39l32 52l48 37l-60 -17h-62v78h63l63 -18l-54 45l-30 51z" />
<glyph unicode="&#43;" horiz-adv-x="571" d="M47 397h176v180h124v-180h176v-120h-176v-181h-124v181l-176 0z" />
<glyph unicode="&#44;" horiz-adv-x="252" d="M51 67q0 34 24 54.5q24 20.5 60 20.5q45 0 71 -29q26 -29 26 -74q0 -47 -15 -80q-15 -33 -37.5 -54.5q-22.5 -21.5 -47.5 -34q-25 -12.5 -46 -18.5l-40 58q28 9 48.5 33.5q20.5 24.5 24.5 52.5q-24 -3 -46 14.5t-22 56.5z" />
<glyph unicode="&#45;" horiz-adv-x="391" d="M59 350h273v-124l-273 0z" />
<glyph unicode="&#46;" horiz-adv-x="267" d="M46 68q0 37 24 58q24 21 63 21q40 0 64 -21q24 -21 24 -58q0 -35 -24 -57q-24 -22 -64 -22q-39 0 -63 22t-24 57z" />
<glyph unicode="&#47;" horiz-adv-x="443" d="M362 712l106 -50l-388 -802l-104 54z" />
<glyph unicode="&#48;" horiz-adv-x="591" d="M30 351q0 179 68.5 271q68.5 92 196.5 92q137 0 201.5 -90.5q64.5 -90.5 64.5 -272.5q0 -178 -69 -271.5q-69 -93.5 -197 -93.5q-68 0 -118 25.5q-50 25.5 -82.5 73q-32.5 47.5 -48.5 115q-16 67.5 -16 151.5zt0 0zM174 351q0 -115 28 -181.5q28 -66.5 93 -66.5q66 0 94 60q28 60 28 188q0 57 -6.5 102.5q-6.5 45.5 -20.5 77.5q-14 32 -37.5 49q-23.5 17 -57.5 17q-65 0 -93 -62.5t-28 -183.5z" />
<glyph unicode="&#49;" horiz-adv-x="591" d="M96 117h150v385l17 69l-52 -60l-98 -64l-56 82l245 183h79v-595h147v-117l-432 0z" />
<glyph unicode="&#50;" horiz-adv-x="591" d="M504 527q0 -50 -20 -101q-20 -51 -50.5 -99.5q-30.5 -48.5 -68 -94.5q-37.5 -46 -73.5 -85l-57 -41v-5l77 16h207v-117h-457v70q26 26 58.5 58.5q32.5 32.5 65.5 69.5q33 37 64.5 76.5q31.5 39.5 55.5 78.5q24 39 39 76.5q15 37.5 15 69.5q0 38 -23 64.5q-23 26.5 -79 26.5q-35 0 -71 -14.5q-36 -14.5 -62 -37.5l-58 100q43 32 96 54q53 22 127 22q46 0 85.5 -12q39.5 -12 68 -35q28.5 -23 44.5 -58.5t16 -81.5z" />
<glyph unicode="&#51;" horiz-adv-x="591" d="M251 103q34 0 59.5 8.5q25.5 8.5 42.5 23.5q17 15 26 34.5q9 19.5 9 40.5q0 54 -36.5 80q-36.5 26 -117.5 26h-79v74l129 158l63 46l-86 -11h-181v117h416v-75l-150 -184l-49 -27v-5l46 6q37 -3 70.5 -17q33.5 -14 59 -38q25.5 -24 40.5 -59.5q15 -35.5 15 -82.5q0 -59 -21.5 -102.5q-21.5 -43.5 -58.5 -72.5q-37 -29 -87 -43q-50 -14 -108 -14q-24 0 -49 2q-25 2 -49 6.5q-24 4.5 -45.5 10q-21.5 5.5 -37.5 13.5l38 116q28 -13 63 -22t78 -9z" />
<glyph unicode="&#52;" horiz-adv-x="591" d="M588 193h-119v-193h-131v193h-329v78l344 434h116v-403h119zM338 446l8 81h-4l-36 -68l-111 -129l-56 -37l70 9l129 0z" />
<glyph unicode="&#53;" horiz-adv-x="591" d="M227 110q72 0 110.5 28.5q38.5 28.5 38.5 82.5q0 58 -45 85q-45 27 -128 27l-87 -4v371h374v-130h-252v-124l45 4q53 -2 96 -18.5q43 -16.5 73.5 -45.5q30.5 -29 47 -70q16.5 -41 16.5 -91q0 -59 -22 -104q-22 -45 -60.5 -75q-38.5 -30 -91 -45q-52.5 -15 -113.5 -15q-49 0 -93.5 8q-44.5 8 -74.5 21l38 116q25 -9 54.5 -15t73.5 -6z" />
<glyph unicode="&#54;" horiz-adv-x="591" d="M551 217q0 -47 -18 -88.5q-18 -41.5 -50.5 -73.5q-32.5 -32 -78 -50.5q-45.5 -18.5 -101.5 -18.5q-56 0 -103 17q-47 17 -82 50.5q-35 33.5 -54.5 83q-19.5 49.5 -19.5 115.5q0 97 31 177.5q31 80.5 83.5 140q52.5 59.5 122.5 96.5q70 37 149 48l29 -109q-54 -8 -99.5 -30.5q-45.5 -22.5 -81 -54q-35.5 -31.5 -59.5 -70q-24 -38.5 -34 -78.5q23 25 56 43.5q33 18.5 86 18.5q50 0 91.5 -15q41.5 -15 71 -43q29.5 -28 45.5 -68q16 -40 16 -91zt0 0zM415 211q0 106 -119 106q-44 0 -74 -17.5q-30 -17.5 -42 -41.5q-2 -11 -2 -16.5q0 -5.5 0 -12.5q0 -23 7.5 -45.5q7.5 -22.5 22.5 -40.5q15 -18 38 -29q23 -11 54 -11q25 0 46 8.5q21 8.5 36.5 23.5q15.5 15 24 34.5t8.5 41.5z" />
<glyph unicode="&#55;" horiz-adv-x="591" d="M101 0l246 529l48 49l-66 -10h-277v132h491v-39l-304 -661z" />
<glyph unicode="&#56;" horiz-adv-x="591" d="M53 173q0 35 10 62.5q10 27.5 28 49.5q18 22 42 39.5q24 17.5 53 32.5q-54 31 -83.5 71q-29.5 40 -29.5 100q0 38 15.5 72q15.5 34 45 59.5q29.5 25.5 72 40q42.5 14.5 96.5 14.5q49 0 89 -12.5q40 -12.5 68.5 -35q28.5 -22.5 44 -54q15.5 -31.5 15.5 -68.5q0 -59 -27.5 -99.5q-27.5 -40.5 -84.5 -74.5q64 -35 98 -76q34 -41 34 -106q0 -45 -18 -82q-18 -37 -50.5 -63.5q-32.5 -26.5 -78 -41.5q-45.5 -15 -100.5 -15q-54 0 -98.5 13.5q-44.5 13.5 -75.5 38.5q-31 25 -48 59.5q-17 34.5 -17 75.5zt0 0zM405 187q0 22 -12.5 40q-12.5 18 -32 33q-19.5 15 -43.5 28q-24 13 -48 24q-50 -26 -68.5 -57q-18.5 -31 -18.5 -59q0 -39 29.5 -66q29.5 -27 83.5 -27q50 0 80 21.5q30 21.5 30 62.5zt0 0zM207 526q0 -24 10.5 -42q10.5 -18 27.5 -31.5q17 -13.5 38.5 -24.5q21.5 -11 44.5 -21q63 50 63 109q0 40 -27 60.5q-27 20.5 -65 20.5q-48 0 -70 -21t-22 -50z" />
<glyph unicode="&#57;" horiz-adv-x="591" d="M34 480q0 51 17 93.5q17 42.5 49 74q32 31.5 78 49q46 17.5 105 17.5q124 0 194 -68.5q70 -68.5 70 -196.5q0 -116 -32 -201q-32 -85 -86 -141.5q-54 -56.5 -124.5 -86q-70.5 -29.5 -148.5 -34.5l-30 107q60 7 106.5 26q46.5 19 80 48q33.5 29 55 65.5q21.5 36.5 30.5 77.5q-26 -26 -56.5 -36q-30.5 -10 -80.5 -10q-42 0 -82.5 13q-40.5 13 -72.5 40q-32 27 -52 67.5q-20 40.5 -20 95.5zt0 0zM170 487q0 -55 35.5 -83q35.5 -28 87.5 -28q45 0 73 13.5q28 13.5 44 31.5q1 11 2 20q1 9 1 17q0 26 -7.5 52q-7.5 26 -23.5 46.5q-16 20.5 -41 33q-25 12.5 -59 12.5q-53 0 -82.5 -30.5t-29.5 -84.5z" />
<glyph unicode="&#58;" horiz-adv-x="317" d="M102 426q0 37 24 58q24 21 63 21q40 0 64 -21q24 -21 24 -58q0 -35 -24 -57q-24 -22 -64 -22q-39 0 -63 22q-24 22 -24 57zt0 0zM102 68q0 37 24 58q24 21 63 21q40 0 64 -21q24 -21 24 -58q0 -35 -24 -57q-24 -22 -64 -22q-39 0 -63 22t-24 57z" />
<glyph unicode="&#59;" horiz-adv-x="308" d="M87 67q0 34 24 54.5q24 20.5 60 20.5q45 0 71 -29q26 -29 26 -74q0 -47 -15 -80q-15 -33 -37.5 -54.5q-22.5 -21.5 -47.5 -34q-25 -12.5 -46 -18.5l-40 58q28 9 48.5 33.5q20.5 24.5 24.5 52.5q-24 -3 -46 14.5q-22 17.5 -22 56.5zt0 0zM86 426q0 37 24 58q24 21 63 21q40 0 64 -21q24 -21 24 -58q0 -35 -24 -57q-24 -22 -64 -22q-39 0 -63 22t-24 57z" />
<glyph unicode="&#60;" horiz-adv-x="571" d="M42 283v74l424 236l58 -98l-241 -138l-99 -35l98 -31l247 -136l-57 -98z" />
<glyph unicode="&#61;" horiz-adv-x="571" d="M47 494h477v-120h-477zM47 300h477v-120l-477 0z" />
<glyph unicode="&#62;" horiz-adv-x="571" d="M529 367v-74l-426 -237l-56 100l241 137l99 36l-98 30l-247 137l56 98z" />
<glyph unicode="&#63;" horiz-adv-x="491" d="M146 212q-6 56 5 94q11 38 30.5 64q19.5 26 43.5 43.5q24 17.5 45.5 33.5q21.5 16 36 33.5q14.5 17.5 14.5 42.5q0 35 -20.5 54.5q-20.5 19.5 -74.5 19.5q-17 0 -37.5 -4q-20.5 -4 -40.5 -11q-20 -7 -38.5 -16q-18.5 -9 -31.5 -19l-54 104q41 27 94.5 45q53.5 18 130.5 18q101 0 159.5 -46q58.5 -46 58.5 -124q0 -54 -14.5 -87.5q-14.5 -33.5 -37 -56q-22.5 -22.5 -48 -39q-25.5 -16.5 -48 -35q-22.5 -18.5 -37 -45q-14.5 -26.5 -14.5 -69.5zM125 68q0 37 24 58q24 21 63 21q40 0 64 -21q24 -21 24 -58q0 -35 -24 -57q-24 -22 -64 -22q-39 0 -63 22t-24 57z" />
<glyph unicode="&#64;" horiz-adv-x="1147" d="M736 483h76l-53 -268q-2 -11 -3.5 -20.5q-1.5 -9.5 -1.5 -17.5q0 -24 10.5 -34.5q10.5 -10.5 30.5 -10.5q28 0 55 11.5q27 11.5 48.5 35q21.5 23.5 34.5 60q13 36.5 13 87.5q0 77 -27.5 131.5q-27.5 54.5 -75 89.5q-47.5 35 -111 51q-63.5 16 -135.5 16q-84 0 -156.5 -29q-72.5 -29 -126 -79q-53.5 -50 -83.5 -118q-30 -68 -30 -147q0 -78 25 -141q25 -63 73.5 -108q48.5 -45 121 -69.5q72.5 -24.5 167.5 -24.5q30 0 69.5 7.5q39.5 7.5 72.5 21.5l33 -105q-45 -20 -90.5 -28.5q-45.5 -8.5 -105.5 -8.5q-107 0 -196.5 30q-89.5 30 -154 88q-64.5 58 -100.5 141.5q-36 83.5 -36 191.5q0 111 41.5 201.5q41.5 90.5 113 155q71.5 64.5 166 99.5q94.5 35 199.5 35q100 0 185 -28q85 -28 147.5 -80.5q62.5 -52.5 98 -126.5q35.5 -74 35.5 -166q0 -63 -24.5 -118.5q-24.5 -55.5 -66.5 -96.5q-42 -41 -99 -65q-57 -24 -122 -24q-28 0 -51 5.5q-23 5.5 -39 19q-16 13.5 -23.5 36q-7.5 22.5 -3.5 55.5v0q-21 -23 -40 -44q-19 -21 -41.5 -37q-22.5 -16 -50 -25.5q-27.5 -9.5 -60.5 -9.5q-26 0 -49.5 10.5q-23.5 10.5 -40.5 30q-17 19.5 -27 46.5q-10 27 -10 60q0 59 21.5 116.5q21.5 57.5 58.5 102.5q37 45 86 73q49 28 105 28q38 0 64 -10.5q26 -10.5 49 -28.5zM667 356q-14 12 -29.5 17.5q-15.5 5.5 -38.5 5.5q-33 0 -60.5 -16.5q-27.5 -16.5 -47.5 -42q-20 -25.5 -31 -56q-11 -30.5 -11 -58.5q0 -32 14.5 -53q14.5 -21 51.5 -21q16 0 33 8.5q17 8.5 33.5 23q16.5 14.5 31.5 34q15 19.5 27 40.5z" />
<glyph unicode="&#65;" horiz-adv-x="658" d="M441 149h-236l-57 -149h-148l274 705h109l275 -705h-157zM246 266h160l-54 146l-24 111h-5l-24 -112z" />
<glyph unicode="&#66;" horiz-adv-x="641" d="M577 535q0 -26 -7.5 -51.5q-7.5 -25.5 -23.5 -47.5q-16 -22 -42 -38q-26 -16 -63 -23l0 -6q33 -3 62 -15q29 -12 50.5 -33.5q21.5 -21.5 34 -52q12.5 -30.5 12.5 -71.5q0 -55 -25.5 -94q-25.5 -39 -66.5 -64q-41 -25 -94 -37q-53 -12 -108 -12q-18 0 -47.5 0q-29.5 0 -63 1.5q-33.5 1.5 -68 4.5q-34.5 3 -62.5 9l0 690q21 3 47.5 6q26.5 3 57 5q30.5 2 62.5 3q32 1 64 1q52 0 102 -7.5q50 -7.5 90 -27q40 -19.5 64.5 -53.5q24.5 -34 24.5 -87zt0 0zM304 110q28 0 53.5 5q25.5 5 45 16.5q19.5 11.5 31 29q11.5 17.5 11.5 43.5q0 32 -14 51q-14 19 -36.5 28.5q-22.5 9.5 -50 12q-27.5 2.5 -55.5 2.5h-82v-182q6 -2 17.5 -3q11.5 -1 25.5 -1.5q14 -0.5 28.5 -1q14.5 -0.5 25.5 -0.5zt0 0zM257 408q15 0 35.5 0.5q20.5 0.5 34.5 2.5q42 13 71 35.5q29 22.5 29 61.5q0 26 -11 42q-11 16 -29.5 25q-18.5 9 -41.5 12q-23 3 -47 3q-29 0 -53 -1q-24 -1 -38 -3l0 -178z" />
<glyph unicode="&#67;" horiz-adv-x="607" d="M579 30q-33 -23 -87 -33.5q-54 -10.5 -111 -10.5q-67 0 -128.5 20q-61.5 20 -109 64q-47.5 44 -75.5 113q-28 69 -28 167q0 102 32 171.5q32 69.5 82 112q50 42.5 111 61.5q61 19 120 19q65 0 109.5 -8q44.5 -8 73.5 -19v-124q-54 11 -87.5 16q-33.5 5 -84.5 5q-45 0 -81.5 -14.5q-36.5 -14.5 -62.5 -43.5q-26 -29 -40.5 -73q-14.5 -44 -14.5 -103q0 -52 13 -95q13 -43 39 -74q26 -31 66 -48q40 -17 93 -17q49 0 82.5 9q33.5 9 59.5 23z" />
<glyph unicode="&#68;" horiz-adv-x="702" d="M65 700q22 3 50.5 5q28.5 2 59 3q30.5 1 59.5 1.5q29 0.5 52 0.5q100 0 171.5 -26.5q71.5 -26.5 117 -73.5q45.5 -47 66.5 -112q21 -65 21 -142q0 -70 -20.5 -136q-20.5 -66 -66.5 -117.5q-46 -51.5 -120 -82.5q-74 -31 -182 -31q-17 0 -46.5 1q-29.5 1 -61 2.5q-31.5 1.5 -59 3q-27.5 1.5 -41.5 3.5zM297 580q-23 0 -47 -0.5q-24 -0.5 -37 -2.5l0 -454q5 -1 15.5 -1.5q10.5 -0.5 22 -1q11.5 -0.5 22 -1q10.5 -0.5 15.5 -0.5q64 0 106 20q42 20 66.5 53q24.5 33 34.5 75q10 42 10 87q0 37 -9 77q-9 40 -32.5 73q-23.5 33 -63.5 54.5t-103 21.5z" />
<glyph unicode="&#69;" horiz-adv-x="566" d="M65 700h451v-130h-303v-152h275v-130h-275v-158h308v-130l-456 0z" />
<glyph unicode="&#70;" horiz-adv-x="551" d="M65 700h451v-130h-303v-163h279v-130h-279v-277l-148 0z" />
<glyph unicode="&#71;" horiz-adv-x="661" d="M331 368h286v-314q-23 -18 -50.5 -30.5q-27.5 -12.5 -58 -21q-30.5 -8.5 -62.5 -12.5q-32 -4 -63 -4q-72 0 -134.5 21q-62.5 21 -109 65.5q-46.5 44.5 -73 113.5q-26.5 69 -26.5 164q0 99 32 168.5q32 69.5 83.5 113q51.5 43.5 115 63q63.5 19.5 126.5 19.5q65 0 114.5 -9.5q49.5 -9.5 77.5 -18.5l-31 -123q-27 9 -61 15q-34 6 -85 6q-47 0 -86 -12.5q-39 -12.5 -68 -40.5q-29 -28 -45 -73q-16 -45 -16 -109q0 -62 16 -106q16 -44 43.5 -72.5q27.5 -28.5 63.5 -41.5q36 -13 76 -13q27 0 54.5 6q27.5 6 46.5 19l0 121l-166 16z" />
<glyph unicode="&#72;" horiz-adv-x="706" d="M493 289h-280v-289h-148v700h148v-281h280v281h148v-700l-148 0z" />
<glyph unicode="&#73;" horiz-adv-x="388" d="M120 620h-80v80h308v-80h-80v-540h80v-80h-308v80l80 0z" />
<glyph unicode="&#74;" horiz-adv-x="362" d="M143 700h148v-510q0 -37 -10 -73q-10 -36 -31.5 -65q-21.5 -29 -56.5 -47q-35 -18 -85 -18q-32 0 -68.5 6.5q-36.5 6.5 -64.5 18.5l32 118q29 -13 64 -13q23 0 37 8.5q14 8.5 22 24q8 15.5 10.5 36.5q2.5 21 2.5 45z" />
<glyph unicode="&#75;" horiz-adv-x="671" d="M252 296h-39v-296h-148v700h148v-308l35 15l210 293h169l-222 -293l-58 -38l60 -40l254 -329l-183 0z" />
<glyph unicode="&#76;" horiz-adv-x="557" d="M547 0h-482v700h148v-570l334 0z" />
<glyph unicode="&#77;" horiz-adv-x="868" d="M655 351l16 145h-6l-48 -110l-162 -261h-46l-172 262l-47 108h-6l21 -143v-352h-140v700h134l202 -323l38 -77h5l33 79l193 321h133v-700l-148 0z" />
<glyph unicode="&#78;" horiz-adv-x="713" d="M254 365l-60 105h-5l16 -106v-364h-140v705h107l289 -373l57 -102h6l-16 103v367h140v-705l-107 0z" />
<glyph unicode="&#79;" horiz-adv-x="727" d="M40 350q0 86 22 154q22 68 63.5 114.5q41.5 46.5 101.5 71q60 24.5 136 24.5q81 0 141.5 -26.5q60.5 -26.5 101 -74.5q40.5 -48 61 -115q20.5 -67 20.5 -148q0 -86 -22.5 -154q-22.5 -68 -64.5 -114.5q-42 -46.5 -102 -71q-60 -24.5 -135 -24.5q-81 0 -141.5 26.5q-60.5 26.5 -101 74.5q-40.5 48 -60.5 115q-20 67 -20 148zt0 0zM197 350q0 -52 10 -95q10 -43 30 -74q20 -31 51.5 -48q31.5 -17 74.5 -17q79 0 123 54q44 54 44 180q0 50 -9 93q-9 43 -29.5 74.5q-20.5 31.5 -52 49q-31.5 17.5 -76.5 17.5q-78 0 -122 -56t-44 -178z" />
<glyph unicode="&#80;" horiz-adv-x="620" d="M65 693q45 8 100 12.5q55 4.5 110 4.5q56 0 113 -8.5q57 -8.5 102.5 -34q45.5 -25.5 74.5 -71q29 -45.5 29 -120.5q0 -66 -25 -112.5q-25 -46.5 -66.5 -75.5q-41.5 -29 -94.5 -42.5q-53 -13.5 -109 -13.5q-5 0 -17 0q-12 0 -25.5 0.5q-13.5 0.5 -25.5 1.5q-12 1 -18 2l0 -236h-148zM285 580q-21 0 -40.5 -1q-19.5 -1 -31.5 -4l0 -208q4 -1 13 -2q9 -1 19 -1.5q10 -0.5 18.5 -1q8.5 -0.5 13.5 -0.5q29 0 58 4q29 4 51.5 17q22.5 13 36.5 35.5q14 22.5 14 60.5q0 32 -13 51.5q-13 19.5 -34.5 30.5q-21.5 11 -49 15t-55.5 4z" />
<glyph unicode="&#81;" horiz-adv-x="727" d="M762 -212q-27 -7 -53 -9.5q-26 -2.5 -52 -2.5q-55 0 -107.5 10q-52.5 10 -101 22.5q-48.5 12.5 -94 22.5q-45.5 10 -85.5 10q-27 0 -51 -6l0 130q31 6 62 6q45 0 90.5 -10q45.5 -10 92.5 -21.5q47 -11.5 96.5 -21.5q49.5 -10 103.5 -10q50 0 99 10zM40 350q0 86 22 154q22 68 63.5 114.5q41.5 46.5 101.5 71q60 24.5 136 24.5q81 0 141.5 -26.5q60.5 -26.5 101 -74.5q40.5 -48 61 -115q20.5 -67 20.5 -148q0 -86 -22.5 -154q-22.5 -68 -64.5 -114.5q-42 -46.5 -102 -71q-60 -24.5 -135 -24.5q-81 0 -141.5 26.5q-60.5 26.5 -101 74.5q-40.5 48 -60.5 115q-20 67 -20 148zt0 0zM197 350q0 -52 10 -95q10 -43 30 -74q20 -31 51.5 -48q31.5 -17 74.5 -17q79 0 123 54q44 54 44 180q0 50 -9 93q-9 43 -29.5 74.5q-20.5 31.5 -52 49q-31.5 17.5 -76.5 17.5q-78 0 -122 -56t-44 -178z" />
<glyph unicode="&#82;" horiz-adv-x="652" d="M65 693q24 4 52.5 7.5q28.5 3.5 57.5 5.5q29 2 56.5 3q27.5 1 50.5 1q53 0 104.5 -9q51.5 -9 92 -31q40.5 -22 65.5 -60.5q25 -38.5 25 -96.5q0 -86 -42.5 -141.5q-42.5 -55.5 -117.5 -75.5l53 -31l175 -265h-172l-174 271l-78 12v-283h-148zM292 580q-23 0 -44.5 -0.5q-21.5 -0.5 -34.5 -3.5l0 -193h63q63 0 99.5 24q36.5 24 36.5 83q0 44 -31 67t-89 23z" />
<glyph unicode="&#83;" horiz-adv-x="575" d="M393 192q0 31 -26 49q-26 18 -64.5 33q-38.5 15 -83.5 30q-45 15 -83.5 40q-38.5 25 -64.5 63q-26 38 -26 99q0 52 18.5 91.5q18.5 39.5 52 65q33.5 25.5 81 38.5q47.5 13 104.5 13q66 0 125.5 -11.5q59.5 -11.5 97.5 -32.5l-47 -124q-12 7 -30.5 14.5q-18.5 7.5 -42.5 13q-24 5.5 -51 9q-27 3.5 -55 3.5q-50 0 -77.5 -17.5q-27.5 -17.5 -27.5 -48.5q0 -31 26 -49.5q26 -18.5 64.5 -34q38.5 -15.5 83.5 -31q45 -15.5 83.5 -40q38.5 -24.5 64.5 -61.5q26 -37 26 -95q0 -58 -20 -100q-20 -42 -56.5 -69.5q-36.5 -27.5 -87.5 -40.5q-51 -13 -112 -13q-41 0 -77.5 4.5q-36.5 4.5 -67.5 11q-31 6.5 -54.5 14q-23.5 7.5 -37.5 14.5l49 125q11 -6 30.5 -13q19.5 -7 43.5 -13.5q24 -6.5 51.5 -10.5q27.5 -4 55.5 -4q66 0 100.5 19t34.5 59z" />
<glyph unicode="&#84;" horiz-adv-x="616" d="M604 570h-222v-570h-148v570h-222v130l592 0z" />
<glyph unicode="&#85;" horiz-adv-x="679" d="M478 700h140v-449q0 -68 -19.5 -118q-19.5 -50 -55 -82q-35.5 -32 -85 -47.5q-49.5 -15.5 -108.5 -15.5q-141 0 -215 61.5q-74 61.5 -74 184.5v466h148v-439q0 -80 35 -111.5q35 -31.5 104 -31.5q66 0 98 33.5q32 33.5 32 109.5z" />
<glyph unicode="&#86;" horiz-adv-x="654" d="M315 296l20 -119h5l22 120l146 403h156l-283 -705h-106l-285 705l172 0z" />
<glyph unicode="&#87;" horiz-adv-x="938" d="M263 315l14 -124h4l16 126l133 383h96l131 -385l16 -124h5l15 126l93 383h152l-210 -705h-100l-136 381l-18 108h-7l-18 -109l-135 -380h-105l-209 705l162 0z" />
<glyph unicode="&#88;" horiz-adv-x="685" d="M244 356l-212 344h179l117 -199l27 -69l26 69l122 199h161l-220 -337l231 -363h-177l-134 213l-30 72l-29 -72l-134 -213l-161 0z" />
<glyph unicode="&#89;" horiz-adv-x="644" d="M248 258l-250 442h176l140 -257l16 -75h5l17 77l135 255h159l-250 -441v-259l-148 0z" />
<glyph unicode="&#90;" horiz-adv-x="584" d="M28 130l321 399l58 41h-379v130h528v-130l-323 -402l-56 -38h379v-130l-528 0z" />
<glyph unicode="&#91;" horiz-adv-x="350" d="M65 700h254v-117h-120v-696h120v-117l-254 0z" />
<glyph unicode="&#92;" horiz-adv-x="460" d="M478 -88l-110 -52l-392 800l108 51z" />
<glyph unicode="&#93;" horiz-adv-x="350" d="M285 -230h-254v117h120v696h-120v117l254 0z" />
<glyph unicode="&#94;" horiz-adv-x="535" d="M236 705h75l201 -294h-142l-78 119l-23 70l-27 -71l-84 -118l-135 0z" />
<glyph unicode="&#95;" horiz-adv-x="483" d="M0 -113h483v-113l-483 0z" />
<glyph unicode="&#96;" horiz-adv-x="350" d="M282 571h-74l-140 128v30l147 0z" />
<glyph unicode="&#97;" horiz-adv-x="579" d="M67 489q45 20 110.5 33q65.5 13 135.5 13q55 0 92.5 -13q37.5 -13 59.5 -37.5q22 -24.5 31.5 -59q9.5 -34.5 9.5 -76.5q0 -51 -4 -101q-4 -50 -4 -106q0 -38 5 -74q5 -36 16 -69l-114 0l-23 78h-12q-26 -35 -66 -60q-40 -25 -103 -25q-38 0 -69.5 11q-31.5 11 -54 31.5q-22.5 20.5 -35 48.5q-12.5 28 -12.5 61q0 89 59.5 134.5q59.5 45.5 180.5 45.5q28 0 56 -4.5q28 -4.5 39 -6.5q3 21 3 36q0 38 -19 56q-19 18 -71 18q-48 0 -93.5 -11.5q-45.5 -11.5 -80.5 -28.5zM250 104q47 0 75 22q28 22 41 46l0 60q-5 2 -15.5 4q-10.5 2 -23 4q-12.5 2 -25 3q-12.5 1 -22.5 1q-54 0 -80 -19.5q-26 -19.5 -26 -48.5q0 -36 20.5 -54t55.5 -18z" />
<glyph unicode="&#98;" horiz-adv-x="619" d="M72 700h140v-220h12q24 27 61.5 42.5q37.5 15.5 82.5 15.5q102 0 155.5 -66.5q53.5 -66.5 53.5 -194.5q0 -69 -19.5 -123q-19.5 -54 -55.5 -91q-36 -37 -88 -56.5q-52 -19.5 -117 -19.5q-75 0 -134 10.5q-59 10.5 -91 23.5zM212 119q20 -10 42.5 -12.5q22.5 -2.5 48.5 -2.5q130 0 130 170q0 72 -27 109.5q-27 37.5 -80 37.5q-45 0 -72.5 -21q-27.5 -21 -41.5 -62z" />
<glyph unicode="&#99;" horiz-adv-x="500" d="M468 32q-34 -23 -81.5 -35q-47.5 -12 -98.5 -12q-68 0 -114.5 20q-46.5 20 -76 57q-29.5 37 -42.5 87.5q-13 50.5 -13 112.5q0 131 64.5 204.5q64.5 73.5 187.5 73.5q60 0 98.5 -9.5q38.5 -9.5 68.5 -24.5l-34 -112q-26 11 -51.5 16.5q-25.5 5.5 -59.5 5.5q-63 0 -96.5 -36.5q-33.5 -36.5 -33.5 -117.5q0 -32 8 -59.5q8 -27.5 25 -48.5q17 -21 43 -33q26 -12 61 -12q42 0 66.5 7.5q24.5 7.5 46.5 20.5z" />
<glyph unicode="&#100;" horiz-adv-x="628" d="M550 184q0 -42 1 -87q1 -45 9 -98l-97 0l-20 73h-13q-23 -40 -65.5 -63.5q-42.5 -23.5 -101.5 -23.5q-105 0 -163 65.5q-58 65.5 -58 202.5q0 66 16.5 119q16.5 53 49 90q32.5 37 80.5 57q48 20 111 20q35 0 60.5 -5.5q25.5 -5.5 50.5 -13.5l0 180h140zM299 102q47 0 73 21.5q26 21.5 38 61.5l0 210q-18 14 -38.5 20.5q-20.5 6.5 -53.5 6.5q-67 0 -99.5 -39q-32.5 -39 -32.5 -134q0 -66 27.5 -106.5t85.5 -40.5z" />
<glyph unicode="&#101;" horiz-adv-x="594" d="M521 48q-34 -26 -92.5 -44.5q-58.5 -18.5 -125.5 -18.5q-135 0 -198 74q-63 74 -63 203q0 137 71 207.5q71 70.5 200 70.5q42 0 83 -10.5q41 -10.5 73 -35q32 -24.5 51.5 -66q19.5 -41.5 19.5 -102.5q0 -21 -2.5 -46q-2.5 -25 -8.5 -52l-350 0q5 -68 39.5 -100.5q34.5 -32.5 112.5 -32.5q47 0 84.5 13.5q37.5 13.5 57.5 27.5zM311 430q-62 0 -92 -33.5q-30 -33.5 -35 -85.5l226 0q4 55 -20 87t-79 32z" />
<glyph unicode="&#102;" horiz-adv-x="370" d="M16 525h79v33q0 46 14 75.5q14 29.5 38 47q24 17.5 55.5 24.5q31.5 7 65.5 7q48 0 83.5 -4.5q35.5 -4.5 66.5 -14.5l-26 -109q-25 8 -45 11q-20 3 -43 3q-43 0 -56 -16q-13 -16 -13 -57l128 0v-117h-128v-408h-140v408l-79 0z" />
<glyph unicode="&#103;" horiz-adv-x="619" d="M547 20q0 -116 -66 -171q-66 -55 -187 -55q-78 0 -125.5 10.5q-47.5 10.5 -73.5 23.5q13 40 19.5 63.5q6.5 23.5 9.5 35.5q3 12 4 15q1 3 1 3q24 -12 58 -24.5q34 -12.5 83 -12.5q41 0 68 8q27 8 43 23.5q16 15.5 22.5 37.5q6.5 22 6.5 49v39h-12q-20 -29 -55 -41q-35 -12 -87 -12q-107 0 -160.5 59q-53.5 59 -53.5 190q0 138 70.5 208q70.5 70 209.5 70q73 0 130.5 -9.5q57.5 -9.5 94.5 -21.5zM289 121q46 0 75.5 17q29.5 17 42.5 42l0 226q-37 16 -94 16q-61 0 -94 -36q-33 -36 -33 -119q0 -76 28 -111t75 -35z" />
<glyph unicode="&#104;" horiz-adv-x="638" d="M426 0v289q0 68 -20.5 97.5q-20.5 29.5 -75.5 29.5q-40 0 -73.5 -25.5q-33.5 -25.5 -44.5 -67.5l0 -323h-140v700h140v-239h12q27 35 67.5 57q40.5 22 102.5 22q43 0 75 -10.5q32 -10.5 53.5 -36q21.5 -25.5 32.5 -68q11 -42.5 11 -105.5l0 -320z" />
<glyph unicode="&#105;" horiz-adv-x="317" d="M89 525h140v-525h-140zM68 656q0 32 23 53.5q23 21.5 65 21.5q43 0 68 -22q25 -22 25 -53q0 -29 -25 -50q-25 -21 -68 -21q-42 0 -65 21t-23 50z" />
<glyph unicode="&#106;" horiz-adv-x="317" d="M91 525h140v-549q0 -95 -39 -146q-39 -51 -126 -51q-34 0 -72 7l0 117q31 -3 50 4q19 7 29.5 22q10.5 15 14 37q3.5 22 3.5 51zM69 656q0 32 23 53.5q23 21.5 65 21.5q43 0 68 -22q25 -22 25 -53q0 -29 -25 -50q-25 -21 -68 -21q-42 0 -65 21t-23 50z" />
<glyph unicode="&#107;" horiz-adv-x="564" d="M260 218h-48v-218h-140v700h140v-402l44 19l131 208h154l-134 -191h1l-64 -46l67 -44h-1l154 -244l-162 0z" />
<glyph unicode="&#108;" horiz-adv-x="337" d="M215 184q0 -76 49 -76q14 0 26.5 2.5q12.5 2.5 29.5 8.5l17 -109q-20 -9 -56.5 -17.5q-36.5 -8.5 -75.5 -8.5q-63 0 -96.5 28q-33.5 28 -33.5 92v596l140 0z" />
<glyph unicode="&#109;" horiz-adv-x="940" d="M400 0v274q0 76 -16 109q-16 33 -66 33q-42 0 -67 -20.5q-25 -20.5 -39 -53.5l0 -342h-140v525h108l16 -73h13q13 17 30 33q17 16 37.5 28q20.5 12 46 19.5q25.5 7.5 57.5 7.5q53 0 88.5 -23.5q35.5 -23.5 56.5 -78.5q29 48 70.5 75q41.5 27 96.5 27q48 0 81.5 -11q33.5 -11 54.5 -38q21 -27 30.5 -73q9.5 -46 9.5 -115v-303h-140v281q0 33 -3 58q-3 25 -12 42.5q-9 17.5 -25.5 26q-16.5 8.5 -43.5 8.5q-42 0 -67.5 -21.5q-25.5 -21.5 -36.5 -59.5l0 -335z" />
<glyph unicode="&#110;" horiz-adv-x="638" d="M426 0v288q0 68 -21 98q-21 30 -74 30q-45 0 -76.5 -24.5q-31.5 -24.5 -43.5 -62.5q0 -82 0.5 -164.5q0.5 -82.5 0.5 -164.5l-140 0v525h110l15 -75h15q26 37 69 63.5q43 26.5 112 26.5q42 0 74.5 -10.5q32.5 -10.5 54 -36q21.5 -25.5 33 -68.5q11.5 -43 11.5 -108l0 -317z" />
<glyph unicode="&#111;" horiz-adv-x="616" d="M42 262q0 130 69 204q69 74 197 74q67 0 117 -21q50 -21 83 -58.5q33 -37.5 49.5 -88q16.5 -50.5 16.5 -110.5q0 -64 -18 -115.5q-18 -51.5 -52 -87.5q-34 -36 -83.5 -55q-49.5 -19 -112.5 -19q-68 0 -118 21q-50 21 -83 58.5q-33 37.5 -49 88q-16 50.5 -16 109.5zt0 0zM186 262q0 -33 7 -62q7 -29 21.5 -50.5q14.5 -21.5 37.5 -34.5q23 -13 56 -13q122 0 122 160q0 35 -6.5 64.5q-6.5 29.5 -21 51q-14.5 21.5 -38 33.5q-23.5 12 -56.5 12q-57 0 -89.5 -38t-32.5 -123z" />
<glyph unicode="&#112;" horiz-adv-x="623" d="M72 525h100l17 -65h12q31 40 72 60q41 20 96 20q106 0 159 -63.5q53 -63.5 53 -201.5q0 -66 -17 -119.5q-17 -53.5 -50 -92q-33 -38.5 -81.5 -59q-48.5 -20.5 -111.5 -20.5q-34 0 -59 6.5q-25 6.5 -50 17.5l0 -207h-140zM326 423q-48 0 -74 -21.5q-26 -21.5 -40 -66.5l0 -204q17 -14 38 -22q21 -8 53 -8q68 0 101 42.5q33 42.5 33 135.5q0 67 -25.5 105.5t-85.5 38.5z" />
<glyph unicode="&#113;" horiz-adv-x="619" d="M547 -199h-140v249h-12q-20 -31 -52.5 -48q-32.5 -17 -85.5 -17q-105 0 -160 66.5q-55 66.5 -55 199.5q0 141 76 214.5q76 73.5 219 73.5q30 0 60.5 -3q30.5 -3 58 -7.5q27.5 -4.5 51 -10q23.5 -5.5 40.5 -11.5zM298 102q47 0 72 20q25 20 37 59l0 226q-18 8 -41 11.5q-23 3.5 -52 3.5q-66 0 -97 -45q-31 -45 -31 -120q0 -75 29 -115t83 -40z" />
<glyph unicode="&#114;" horiz-adv-x="406" d="M382 397q-30 10 -60 10q-44 0 -72.5 -21q-28.5 -21 -37.5 -53l0 -333h-140v525h110l15 -73h13q20 41 53.5 63q33.5 22 76.5 22q27 0 62 -11z" />
<glyph unicode="&#115;" horiz-adv-x="483" d="M71 136q14 -7 32.5 -14q18.5 -7 40 -13q21.5 -6 44 -10q22.5 -4 45.5 -4q35 0 54.5 11q19.5 11 19.5 41q0 24 -26 35.5q-26 11.5 -64 22.5q-28 8 -58.5 19q-30.5 11 -56 29.5q-25.5 18.5 -42 48.5q-16.5 30 -16.5 76q0 79 49 120.5q49 41.5 141 41.5q60 0 112.5 -10.5q52.5 -10.5 84.5 -24.5l-29 -106q-26 10 -66.5 20.5q-40.5 10.5 -82.5 10.5q-35 0 -52 -10.5q-17 -10.5 -17 -36.5q0 -23 26.5 -34.5q26.5 -11.5 64.5 -22.5q28 -8 58.5 -18.5q30.5 -10.5 55.5 -28.5q25 -18 41.5 -46.5q16.5 -28.5 16.5 -71.5q0 -84 -54.5 -130q-54.5 -46 -163.5 -46q-59 0 -110 10.5q-51 10.5 -83 30.5z" />
<glyph unicode="&#116;" horiz-adv-x="404" d="M8 525h80v72l140 37v-109h141v-117h-141v-182q0 -63 12.5 -90.5q12.5 -27.5 49.5 -27.5q23 0 39 3.5q16 3.5 34 11.5l29 -105q-32 -14 -73.5 -24q-41.5 -10 -80.5 -10q-78 0 -114 38.5q-36 38.5 -36 123.5v262l-80 0z" />
<glyph unicode="&#117;" horiz-adv-x="642" d="M212 525v-291q0 -65 18 -95q18 -30 69 -30q44 0 74 23q30 23 44 58l0 335h140v-365q0 -42 4.5 -84q4.5 -42 12.5 -76l-103 0l-27 82h-11q-26 -42 -74 -69.5q-48 -27.5 -110 -27.5q-43 0 -76 11q-33 11 -55.5 36.5q-22.5 25.5 -34 67.5q-11.5 42 -11.5 104l0 321z" />
<glyph unicode="&#118;" horiz-adv-x="546" d="M257 253l21 -81h16l15 83l98 270h151l-240 -530h-80l-250 530l163 0z" />
<glyph unicode="&#119;" horiz-adv-x="825" d="M477 525q27 -66 53 -133q26 -67 53 -133l20 -88h15l15 89q18 67 37 132.5q19 65.5 37 132.5l128 0l-179 -530h-101q-27 69 -58 144.5q-31 75.5 -58 144.5l-14 68h-18q-3 -17 -7 -34.5q-4 -17.5 -7 -34.5l-109 -288h-106l-184 530h152l84 -259l14 -97h15l20 98l95 258z" />
<glyph unicode="&#120;" horiz-adv-x="587" d="M192 269l-172 256h170l71 -102l-1 1l41 -93l40 93l-1 -1l76 102h154l-173 -252l184 -273h-166l-85 118l1 -1l-42 92l-44 -92l1 1l-86 -118l-154 0z" />
<glyph unicode="&#121;" horiz-adv-x="541" d="M264 234l22 -84h10l19 84l89 291h143l-174 -475q-22 -59 -41.5 -106q-19.5 -47 -42.5 -80q-23 -33 -51.5 -50.5q-28.5 -17.5 -67.5 -17.5q-26 0 -49.5 4.5q-23.5 4.5 -40.5 13.5l29 108q15 -5 31 -5q14 0 27 3q13 3 24 11.5q11 8.5 20.5 24q9.5 15.5 16.5 41.5l-240 528l169 0z" />
<glyph unicode="&#122;" horiz-adv-x="526" d="M42 119l221 238h-1l65 51h-285v117h442v-119l-219 -241h1l-66 -48h284v-117l-442 0z" />
<glyph unicode="&#123;" horiz-adv-x="403" d="M135 93q0 51 -22.5 70q-22.5 19 -64.5 19l0 106q42 0 64.5 20.5q22.5 20.5 22.5 64.5v203q0 54 27.5 89.5q27.5 35.5 87.5 35.5h130v-117h-55q-29 0 -42.5 -14.5q-13.5 -14.5 -13.5 -46.5v-187q0 -44 -23.5 -66.5q-23.5 -22.5 -52.5 -27.5l0 -10q29 -4 52.5 -30q23.5 -26 23.5 -68v-186q0 -31 13.5 -46q13.5 -15 43.5 -15h54v-117h-130q-56 0 -85.5 32.5q-29.5 32.5 -29.5 91.5z" />
<glyph unicode="&#124;" horiz-adv-x="246" d="M65 700h116v-830l-116 0z" />
<glyph unicode="&#125;" horiz-adv-x="403" d="M268 378q0 -51 22.5 -70q22.5 -19 64.5 -19l0 -106q-42 0 -64.5 -20.5q-22.5 -20.5 -22.5 -64.5v-202q0 -54 -29.5 -90q-29.5 -36 -89.5 -36h-126v117h54q29 0 43 14.5q14 14.5 14 46.5v187q0 44 23 66.5q23 22.5 53 27.5l0 10q-29 4 -52.5 30q-23.5 26 -23.5 68v186q0 31 -13.5 46q-13.5 15 -44.5 15h-53v117h129q57 0 86.5 -33q29.5 -33 29.5 -92z" />
<glyph unicode="&#126;" horiz-adv-x="571" d="M30 380q51 38 91.5 53q40.5 15 75.5 15q31 0 58 -8.5q27 -8.5 52 -18.5q25 -10 49 -18.5q24 -8.5 50 -8.5q20 0 40.5 6.5q20.5 6.5 43.5 23.5l51 -108q-39 -28 -71 -38.5q-32 -10.5 -60 -10.5q-30 0 -56 9q-26 9 -51 20.5q-25 11.5 -50 20.5q-25 9 -53 9q-26 0 -56.5 -11q-30.5 -11 -66.5 -40z" />
<glyph unicode="&#160;" horiz-adv-x="276" />
<glyph unicode="&#161;" horiz-adv-x="313" d="M205 -200h-146v327l28 161h89l29 -161zM47 432q0 37 24 58q24 21 63 21q40 0 64 -21q24 -21 24 -58q0 -35 -24 -57q-24 -22 -64 -22q-39 0 -63 22t-24 57z" />
<glyph unicode="&#162;" horiz-adv-x="591" d="M406 113q25 4 44 11q19 7 34 15l34 -107q-20 -13 -47.5 -22.5q-27.5 -9.5 -59.5 -15.5l0 -94h-130v89q-56 7 -94.5 28.5q-38.5 21.5 -62.5 55q-24 33.5 -35 78.5q-11 45 -11 99q0 112 51.5 178.5q51.5 66.5 151.5 81.5l0 90h130v-90q31 -4 55 -11q24 -7 44 -16l-34 -115q-16 6 -33.5 11q-17.5 5 -36.5 7zM305 384q-44 -10 -65.5 -42q-21.5 -32 -21.5 -92q0 -45 20 -81.5q20 -36.5 67 -50.5z" />
<glyph unicode="&#163;" horiz-adv-x="591" d="M44 396h74q-14 23 -24 51q-10 28 -10 70q0 49 18 86q18 37 50 62q32 25 76.5 37q44.5 12 97.5 12q66 0 120.5 -12.5q54.5 -12.5 94.5 -29.5l-46 -127q-20 11 -59 24q-39 13 -93 13q-52 0 -81.5 -21q-29.5 -21 -29.5 -64q0 -32 14 -55q14 -23 31 -46l150 0v-114h-101q0 -5 0.5 -11q0.5 -6 0.5 -12q0 -31 -11 -63.5q-11 -32.5 -35 -54.5l-41 -28v-5l67 16h250v-124h-513v124h2q69 2 103 35q34 33 34 81q0 20 -5 42l-134 0z" />
<glyph unicode="&#164;" horiz-adv-x="591" d="M94 625l78 -77l18 -37q20 15 47.5 22q27.5 7 57.5 7q29 0 57.5 -7.5q28.5 -7.5 48.5 -21.5l19 37l78 77l80 -84l-77 -78l-37 -15q14 -21 20 -47.5q6 -26.5 6 -55.5q0 -30 -6.5 -56.5q-6.5 -26.5 -19.5 -44.5l37 -16l77 -78l-80 -82l-78 77l-17 36q-19 -14 -49 -21.5q-30 -7.5 -59 -7.5q-30 0 -57.5 7.5q-27.5 7.5 -47.5 21.5l-18 -36l-78 -77l-80 82l77 78l36 18q-11 20 -18 44.5q-7 24.5 -7 54.5q0 29 7.5 54q7.5 25 19.5 48l-38 17l-77 78zM216 346q0 -36 22.5 -60q22.5 -24 57.5 -24q36 0 58 24q22 24 22 60q0 35 -22 59.5q-22 24.5 -58 24.5q-35 0 -57.5 -24.5t-22.5 -59.5z" />
<glyph unicode="&#165;" horiz-adv-x="591" d="M80 338h97l-205 362h176l140 -257l16 -75h5l17 77l135 255h159l-205 -362h97v-94h-142v-58h142v-94h-142v-92h-148v92h-142v94h142v58l-142 0z" />
<glyph unicode="&#166;" horiz-adv-x="246" d="M65 213h116v-343h-116zM181 357h-116v343l116 0z" />
<glyph unicode="&#167;" horiz-adv-x="576" d="M53 353q0 31 16.5 60.5q16.5 29.5 43.5 52.5l45 13q-29 16 -46.5 41q-17.5 25 -17.5 65q0 57 47 93q47 36 142 36q65 0 120 -10q55 -10 85 -24l-35 -113q-24 12 -65.5 21q-41.5 9 -81.5 9q-40 0 -56 -10q-16 -10 -16 -26q0 -18 21.5 -27q21.5 -9 53.5 -16.5q32 -7.5 69 -16.5q37 -9 69 -27q32 -18 53.5 -48q21.5 -30 21.5 -79q0 -31 -15.5 -59.5q-15.5 -28.5 -43.5 -51.5l-49 -14q29 -16 48.5 -41q19.5 -25 19.5 -66q0 -63 -52 -96q-52 -33 -140 -33q-75 0 -125 15q-50 15 -81 32l38 106q25 -12 60.5 -24q35.5 -12 84.5 -12q40 0 57.5 8.5q17.5 8.5 17.5 28.5q0 19 -21.5 28.5q-21.5 9.5 -53.5 17q-32 7.5 -69.5 16.5q-37.5 9 -69.5 26.5q-32 17.5 -53.5 46.5q-21.5 29 -21.5 78zt0 0zM382 345q0 18 -9 30q-9 12 -26.5 21q-17.5 9 -43 16.5q-25.5 7.5 -57.5 16.5q-21 -12 -37 -31.5q-16 -19.5 -16 -42.5q0 -17 9 -29q9 -12 26 -21q17 -9 41.5 -16.5q24.5 -7.5 56.5 -15.5q24 12 40 31.5t16 40.5z" />
<glyph unicode="&#168;" horiz-adv-x="535" d="M67 657q0 35 21.5 56q21.5 21 55.5 21q34 0 54.5 -21q20.5 -21 20.5 -56q0 -30 -20.5 -51q-20.5 -21 -54.5 -21q-34 0 -55.5 21q-21.5 21 -21.5 51zt0 0zM320 657q0 35 20.5 56q20.5 21 54.5 21q35 0 55.5 -21q20.5 -21 20.5 -56q0 -30 -20.5 -51q-20.5 -21 -55.5 -21q-34 0 -54.5 21t-20.5 51z" />
<glyph unicode="&#169;" horiz-adv-x="890" d="M58 286q0 88 30 159.5q30 71.5 82 122q52 50.5 123 77.5q71 27 152 27q81 0 151.5 -27q70.5 -27 122.5 -77.5q52 -50.5 82 -122q30 -71.5 30 -159.5q0 -89 -30 -160.5q-30 -71.5 -82 -121.5q-52 -50 -122.5 -77.5q-70.5 -27.5 -151.5 -27.5q-89 0 -161 27.5q-72 27.5 -122 77.5q-50 50 -77 121.5q-27 71.5 -27 160.5zt0 0zM165 286q0 -66 21 -119q21 -53 58.5 -89.5q37.5 -36.5 88.5 -56.5q51 -20 112 -20q61 0 112 20q51 20 88.5 56.5q37.5 36.5 58.5 89.5q21 53 21 119q0 66 -21 118.5q-21 52.5 -58.5 89q-37.5 36.5 -88.5 56.5q-51 20 -112 20q-61 0 -112 -20q-51 -20 -88.5 -56.5q-37.5 -36.5 -58.5 -89q-21 -52.5 -21 -118.5zt0 0zM579 117q-23 -16 -59.5 -25q-36.5 -9 -77.5 -9q-86 0 -131.5 54.5q-45.5 54.5 -45.5 148.5q0 97 48.5 150q48.5 53 128.5 53q40 0 70.5 -9.5q30.5 -9.5 59.5 -24.5l-36 -96q-18 9 -33.5 12q-15.5 3 -29.5 3q-29 0 -46.5 -19q-17.5 -19 -17.5 -69q0 -89 72 -89q19 0 34 3.5q15 3.5 32 12.5z" />
<glyph unicode="&#170;" horiz-adv-x="479" d="M78 672q29 15 80 25.5q51 10.5 116 10.5q41 0 68.5 -7q27.5 -7 44 -21q16.5 -14 23.5 -35q7 -21 7 -50q0 -34 -1.5 -67q-1.5 -33 -1.5 -64q0 -23 1.5 -44q1.5 -21 6.5 -40l-113 0l-13 47h-4q-14 -17 -40 -34q-26 -17 -73 -17q-55 0 -88.5 28q-33.5 28 -33.5 72q0 31 16 52q16 21 44 34q28 13 65.5 19q37.5 6 80.5 6q8 0 14.5 -0.5q6.5 -0.5 14.5 -0.5q2 23 -7.5 34q-9.5 11 -47.5 11q-45 0 -80 -8.5q-35 -8.5 -56 -16.5zM222 457q18 0 29.5 3.5q11.5 3.5 19.5 8.5q8 5 12.5 11q4.5 6 8.5 12l0 32q-9 1 -18 1.5q-9 0.5 -17 0.5q-33 0 -53.5 -8.5q-20.5 -8.5 -20.5 -28.5q0 -15 11.5 -23.5t27.5 -8.5z" />
<glyph unicode="&#171;" horiz-adv-x="530" d="M242 261l168 215l74 -63l-85 -114l-50 -39l50 -35l91 -113l-74 -63zM31 259l174 230l83 -70l-91 -118l-52 -41l52 -36l98 -116l-84 -70z" />
<glyph unicode="&#172;" horiz-adv-x="571" d="M49 416h481v-233h-125v113l-356 0z" />
<glyph unicode="&#173;" horiz-adv-x="391" d="M59 350h273v-124l-273 0z" />
<glyph unicode="&#174;" horiz-adv-x="735" d="M64 435q0 72 24.5 128.5q24.5 56.5 66 95.5q41.5 39 96.5 59q55 20 117 20q63 0 118 -20q55 -20 96.5 -59q41.5 -39 65 -95.5q23.5 -56.5 23.5 -128.5q0 -72 -24.5 -128.5q-24.5 -56.5 -65.5 -95.5q-41 -39 -96.5 -59q-55.5 -20 -116.5 -20q-63 0 -118.5 20q-55.5 20 -97 59q-41.5 39 -65 95.5q-23.5 56.5 -23.5 128.5zt0 0zM167 435q0 -51 16.5 -89.5q16.5 -38.5 44 -64q27.5 -25.5 64 -38q36.5 -12.5 76.5 -12.5q42 0 78.5 12.5q36.5 12.5 63.5 37.5q27 25 42.5 63.5q15.5 38.5 15.5 90.5q0 51 -16 89.5q-16 38.5 -43.5 64q-27.5 25.5 -64 38q-36.5 12.5 -76.5 12.5q-45 0 -82 -14q-37 -14 -63.5 -40.5q-26.5 -26.5 -41 -64.5q-14.5 -38 -14.5 -85zt0 0zM258 574q17 5 48 8q31 3 58 3q45 0 77.5 -19q32.5 -19 32.5 -65q0 -33 -22 -51.5q-22 -18.5 -54 -20.5l29 -15l69 -116h-65l-67 111l-51 16v-127h-55zM353 537q-11 0 -22 -0.5q-11 -0.5 -18 -3.5l0 -76h37q31 0 48 9.5q17 9.5 17 32.5q0 18 -16.5 28t-45.5 10z" />
<glyph unicode="&#175;" horiz-adv-x="471" d="M60 679h351v-95l-351 0z" />
<glyph unicode="&#176;" horiz-adv-x="475" d="M58 545q0 37 14.5 68q14.5 31 39 53.5q24.5 22.5 57 35q32.5 12.5 67.5 12.5q37 0 69.5 -11.5q32.5 -11.5 57.5 -33.5q25 -22 39.5 -53q14.5 -31 14.5 -71q0 -39 -14.5 -69.5q-14.5 -30.5 -39.5 -52q-25 -21.5 -57.5 -33q-32.5 -11.5 -69.5 -11.5q-35 0 -67.5 11.5q-32.5 11.5 -57 33q-24.5 21.5 -39 52q-14.5 30.5 -14.5 69.5zt0 0zM166 546q0 -31 21 -47.5q21 -16.5 50 -16.5q29 0 50.5 16.5q21.5 16.5 21.5 47.5q0 31 -21.5 48q-21.5 17 -50.5 17q-29 0 -50 -17.5t-21 -47.5z" />
<glyph unicode="&#177;" horiz-adv-x="571" d="M47 528h176v174h125v-174h176v-120h-176v-110h-125v110h-176zM47 253h477v-120l-477 0z" />
<glyph unicode="&#178;" horiz-adv-x="442" d="M376 677q0 -29 -8.5 -53q-8.5 -24 -22.5 -44q-14 -20 -33.5 -38q-19.5 -18 -41.5 -36l-52 -24v-5l64 12h111v-109h-339v78q28 17 62 40.5q34 23.5 64 49q30 25.5 50 52.5q20 27 20 52q0 26 -15.5 35.5q-15.5 9.5 -45.5 9.5q-29 0 -55 -9.5q-26 -9.5 -46 -20.5l-38 98q38 21 81.5 31.5q43.5 10.5 82.5 10.5q77 0 119.5 -33.5t42.5 -96.5z" />
<glyph unicode="&#179;" horiz-adv-x="442" d="M181 474q49 0 68.5 12.5q19.5 12.5 19.5 34.5q0 21 -20.5 33.5q-20.5 12.5 -76.5 12.5h-43v40l77 74l47 24l-63 -6h-125v101h308v-67l-94 -86l-37 -18v-5l32 3q57 -2 89 -31.5q32 -29.5 32 -83.5q0 -36 -15.5 -62.5q-15.5 -26.5 -42.5 -43.5q-27 -17 -62.5 -25q-35.5 -8 -75.5 -8q-42 0 -78 7q-36 7 -62 18l25 95q45 -19 97 -19z" />
<glyph unicode="&#180;" horiz-adv-x="337" d="M139 729h142v-29l-126 -129l-76 0z" />
<glyph unicode="&#181;" horiz-adv-x="617" d="M196 500v-266q0 -63 23 -96q23 -33 78 -33q51 0 81 24.5q30 24.5 44 69.5l0 301h140v-337q0 -41 3 -82.5q3 -41.5 14 -80.5l-104 0l-35 79h-4q-19 -36 -55 -63.5q-36 -27.5 -94 -27.5q-42 0 -64.5 14.5q-22.5 14.5 -43.5 37.5l-5 0l23 -107v-133h-141l0 700z" />
<glyph unicode="&#182;" horiz-adv-x="573" d="M393 700h116v-830h-116zM192 292q-36 0 -66 17.5q-30 17.5 -52 46q-22 28.5 -34 65.5q-12 37 -12 76q0 39 14 75.5q14 36.5 40.5 65q26.5 28.5 63 45.5q36.5 17 81.5 17h81v-830l-116 0z" />
<glyph unicode="&#183;" horiz-adv-x="271" d="M48 318q0 37 24 58q24 21 63 21q40 0 64 -21q24 -21 24 -58q0 -35 -24 -57q-24 -22 -64 -22q-39 0 -63 22t-24 57z" />
<glyph unicode="&#184;" horiz-adv-x="367" d="M199 -52q48 -3 75.5 -21q27.5 -18 27.5 -56q0 -24 -12.5 -41.5q-12.5 -17.5 -34.5 -29.5q-22 -12 -51 -18q-29 -6 -63 -6q-18 0 -36 1q-18 1 -37 5l10 47q31 -2 50 0.5q19 2.5 29.5 7q10.5 4.5 14 11q3.5 6.5 3.5 14.5q0 17 -23 26q-23 9 -74 11l62 95l87 0z" />
<glyph unicode="&#185;" horiz-adv-x="442" d="M75 488h107v150l10 48l-33 -33l-62 -41l-55 83l171 112h93v-319h96v-108l-327 0z" />
<glyph unicode="&#186;" horiz-adv-x="476" d="M48 542q0 45 14 77q14 32 39.5 52.5q25.5 20.5 60 30.5q34.5 10 76.5 10q41 0 76 -9q35 -9 60.5 -29.5q25.5 -20.5 39.5 -53q14 -32.5 14 -78.5q0 -47 -14 -79q-14 -32 -39.5 -52.5q-25.5 -20.5 -60.5 -29.5q-35 -9 -76 -9q-42 0 -76.5 9q-34.5 9 -60 29.5q-25.5 20.5 -39.5 52.5q-14 32 -14 79zt0 0zM175 542q0 -39 14 -61q14 -22 49 -22q34 0 48 19q14 19 14 64q0 45 -14 64q-14 19 -48 19q-34 0 -48.5 -19t-14.5 -64z" />
<glyph unicode="&#187;" horiz-adv-x="530" d="M288 266l-168 -215l-75 64l85 113l50 39l-50 35l-90 113l73 63zM499 268l-174 -230l-83 71l91 117l52 41l-52 36l-98 116l83 70z" />
<glyph unicode="&#188;" horiz-adv-x="949" d="M658 715l91 -57l-468 -672l-90 61zM889 75h-83v-75h-108v75h-226v72l238 281h96v-259h83zM698 250l5 54h-5l-23 -48l-51 -63l-39 -33l58 9h55zM169 538l10 47l-33 -32l-63 -41l-54 83l171 112h93v-427l-124 0z" />
<glyph unicode="&#189;" horiz-adv-x="975" d="M658 715l91 -57l-468 -672l-90 61zM908 297q0 -29 -8.5 -53q-8.5 -24 -22.5 -44q-14 -20 -33.5 -38q-19.5 -18 -41.5 -36l-52 -24v-5l64 12h111v-109h-339v78q28 17 62 40.5q34 23.5 64 49q30 25.5 50 52.5q20 27 20 52q0 26 -15.5 35.5q-15.5 9.5 -45.5 9.5q-29 0 -55 -9.5q-26 -9.5 -46 -20.5l-38 98q38 21 81.5 31.5q43.5 10.5 82.5 10.5q77 0 119.5 -33.5q42.5 -33.5 42.5 -96.5zt0 0zM169 538l10 47l-33 -32l-63 -41l-54 83l171 112h93v-427l-124 0z" />
<glyph unicode="&#190;" horiz-adv-x="977" d="M686 715l91 -57l-468 -672l-90 61zM917 75h-83v-75h-108v75h-226v72l238 281h96v-259h83zM726 250l5 54h-5l-23 -48l-51 -63l-39 -33l58 9h55zM163 374q49 0 68.5 12.5q19.5 12.5 19.5 34.5q0 21 -20.5 33.5q-20.5 12.5 -76.5 12.5h-43v40l77 74l47 24l-63 -6h-125v101h308v-67l-94 -86l-37 -18v-5l32 3q57 -2 89 -31.5q32 -29.5 32 -83.5q0 -36 -15.5 -62.5q-15.5 -26.5 -42.5 -43.5q-27 -17 -62.5 -25q-35.5 -8 -75.5 -8q-42 0 -78 7q-36 7 -62 18l25 95q45 -19 97 -19z" />
<glyph unicode="&#191;" horiz-adv-x="491" d="M344 290q6 -54 -5 -91q-11 -37 -30.5 -62.5q-19.5 -25.5 -43.5 -44q-24 -18.5 -45.5 -35q-21.5 -16.5 -36 -34.5q-14.5 -18 -14.5 -44q0 -35 21.5 -54.5q21.5 -19.5 74.5 -19.5q17 0 37 4q20 4 40 11q20 7 38.5 16q18.5 9 32.5 19l54 -103q-41 -27 -94.5 -45.5q-53.5 -18.5 -130.5 -18.5q-102 0 -159.5 45.5q-57.5 45.5 -57.5 123.5q0 54 14.5 87.5q14.5 33.5 36.5 56.5q22 23 48 39.5q26 16.5 48 35.5q22 19 37 45.5q15 26.5 15 68.5zM193 433q0 37 24 58q24 21 63 21q40 0 64 -21q24 -21 24 -58q0 -35 -24 -57q-24 -22 -64 -22q-39 0 -63 22t-24 57z" />
<glyph unicode="&#192;" horiz-adv-x="658" d="M441 149h-236l-57 -149h-148l274 705h109l275 -705h-157zM246 266h160l-54 146l-24 111h-5l-24 -112zM414 752h-114l-172 87v31l173 0z" />
<glyph unicode="&#193;" horiz-adv-x="658" d="M441 149h-236l-57 -149h-148l274 705h109l275 -705h-157zM246 266h160l-54 146l-24 111h-5l-24 -112zM361 870h172v-31l-174 -87l-112 0z" />
<glyph unicode="&#194;" horiz-adv-x="658" d="M441 149h-236l-57 -149h-148l274 705h109l275 -705h-157zM246 266h160l-54 146l-24 111h-5l-24 -112zM279 870h105l138 -92v-41h-108l-62 40l-22 34l-24 -33l-66 -41h-106l0 42z" />
<glyph unicode="&#195;" horiz-adv-x="658" d="M441 149h-236l-57 -149h-148l274 705h109l275 -705h-157zM246 266h160l-54 146l-24 111h-5l-24 -112zM125 804q33 35 64.5 48q31.5 13 62.5 13q24 0 48 -5.5q24 -5.5 46.5 -12.5q22.5 -7 44 -12.5q21.5 -5.5 41.5 -5.5q17 0 33 5q16 5 31 19l25 -72q-29 -26 -57 -36q-28 -10 -55 -10q-24 0 -47.5 5.5q-23.5 5.5 -46 12.5q-22.5 7 -44 12.5q-21.5 5.5 -42.5 5.5q-21 0 -41 -7.5q-20 -7.5 -40 -27.5z" />
<glyph unicode="&#196;" horiz-adv-x="658" d="M441 149h-236l-57 -149h-148l274 705h109l275 -705h-157zM246 266h160l-54 146l-24 111h-5l-24 -112zM131 798q0 27 19.5 43.5q19.5 16.5 63.5 16.5q42 0 61.5 -16.5q19.5 -16.5 19.5 -43.5q0 -26 -19.5 -41.5q-19.5 -15.5 -61.5 -15.5q-44 0 -63.5 15.5q-19.5 15.5 -19.5 41.5zt0 0zM364 798q0 27 19.5 43.5q19.5 16.5 61.5 16.5q44 0 63.5 -16.5q19.5 -16.5 19.5 -43.5q0 -26 -19.5 -41.5q-19.5 -15.5 -63.5 -15.5q-42 0 -61.5 15.5t-19.5 41.5z" />
<glyph unicode="&#197;" horiz-adv-x="658" d="M191 772q0 18 6 34.5q6 16.5 21.5 29q15.5 12.5 42.5 19.5q27 7 68 7q77 0 108 -24q31 -24 31 -66q0 -29 -17 -51q-17 -22 -62 -32l269 -689h-157l-60 149h-236l-57 -149h-148l268 689q-43 9 -60 31q-17 22 -17 52zt0 0zM246 266h160l-54 146l-24 111h-5l-24 -112zM281 772q0 -14 11 -22q11 -8 37 -8q28 0 38.5 7.5q10.5 7.5 10.5 22.5q0 16 -11.5 24q-11.5 8 -37.5 8q-48 0 -48 -32z" />
<glyph unicode="&#198;" horiz-adv-x="935" d="M427 530l-39 -106l-87 -139h133v245zM434 165h-202l-106 -165h-158l461 700h456v-130h-303v-152h276v-130h-276v-158h308v-130l-456 0z" />
<glyph unicode="&#199;" horiz-adv-x="607" d="M579 30q-27 -19 -68 -29q-41 -10 -87 -13l-24 -40q48 -3 75.5 -21q27.5 -18 27.5 -56q0 -24 -12.5 -41.5q-12.5 -17.5 -34.5 -29.5q-22 -12 -51 -18q-29 -6 -63 -6q-18 0 -36 1q-18 1 -37 5l10 47q31 -2 50 0.5q19 2.5 29.5 7q10.5 4.5 14 11q3.5 6.5 3.5 14.5q0 17 -23 26q-23 9 -74 11l58 90q-60 6 -114 29q-54 23 -94.5 67q-40.5 44 -64.5 109.5q-24 65.5 -24 155.5q0 102 32 171.5q32 69.5 82 112q50 42.5 111 61.5q61 19 120 19q65 0 109.5 -8q44.5 -8 73.5 -19v-124q-54 11 -87.5 16q-33.5 5 -84.5 5q-45 0 -81.5 -14.5q-36.5 -14.5 -62.5 -43.5q-26 -29 -40.5 -73q-14.5 -44 -14.5 -103q0 -52 13 -95q13 -43 39 -74q26 -31 66 -48q40 -17 93 -17q49 0 82.5 9q33.5 9 59.5 23z" />
<glyph unicode="&#200;" horiz-adv-x="566" d="M65 700h451v-130h-303v-152h275v-130h-275v-158h308v-130h-456zM383 752h-114l-172 87v31l173 0z" />
<glyph unicode="&#201;" horiz-adv-x="566" d="M65 700h451v-130h-303v-152h275v-130h-275v-158h308v-130h-456zM319 870h172v-31l-174 -87l-112 0z" />
<glyph unicode="&#202;" horiz-adv-x="566" d="M65 700h451v-130h-303v-152h275v-130h-275v-158h308v-130h-456zM238 870h105l138 -92v-41h-108l-62 40l-22 34l-24 -33l-66 -41h-106l0 42z" />
<glyph unicode="&#203;" horiz-adv-x="566" d="M65 700h451v-130h-303v-152h275v-130h-275v-158h308v-130h-456zM91 798q0 27 19.5 43.5q19.5 16.5 63.5 16.5q42 0 61.5 -16.5q19.5 -16.5 19.5 -43.5q0 -26 -19.5 -41.5q-19.5 -15.5 -61.5 -15.5q-44 0 -63.5 15.5q-19.5 15.5 -19.5 41.5zt0 0zM324 798q0 27 19.5 43.5q19.5 16.5 61.5 16.5q44 0 63.5 -16.5q19.5 -16.5 19.5 -43.5q0 -26 -19.5 -41.5q-19.5 -15.5 -63.5 -15.5q-42 0 -61.5 15.5t-19.5 41.5z" />
<glyph unicode="&#204;" horiz-adv-x="388" d="M120 620h-80v80h308v-80h-80v-540h80v-80h-308v80h80zM298 752h-114l-172 87v31l173 0z" />
<glyph unicode="&#205;" horiz-adv-x="388" d="M120 620h-80v80h308v-80h-80v-540h80v-80h-308v80h80zM209 870h172v-31l-174 -87l-112 0z" />
<glyph unicode="&#206;" horiz-adv-x="388" d="M120 620h-80v80h308v-80h-80v-540h80v-80h-308v80h80zM145 870h105l138 -92v-41h-108l-62 40l-22 34l-24 -33l-66 -41h-106l0 42z" />
<glyph unicode="&#207;" horiz-adv-x="388" d="M120 620h-80v80h308v-80h-80v-540h80v-80h-308v80h80zM-4 798q0 27 19.5 43.5q19.5 16.5 63.5 16.5q42 0 61.5 -16.5q19.5 -16.5 19.5 -43.5q0 -26 -19.5 -41.5q-19.5 -15.5 -61.5 -15.5q-44 0 -63.5 15.5q-19.5 15.5 -19.5 41.5zt0 0zM229 798q0 27 19.5 43.5q19.5 16.5 61.5 16.5q44 0 63.5 -16.5q19.5 -16.5 19.5 -43.5q0 -26 -19.5 -41.5q-19.5 -15.5 -63.5 -15.5q-42 0 -61.5 15.5t-19.5 41.5z" />
<glyph unicode="&#208;" horiz-adv-x="714" d="M-7 412h84v288q22 3 50.5 5q28.5 2 59 3q30.5 1 59.5 1.5q29 0.5 52 0.5q100 0 171.5 -26.5q71.5 -26.5 117 -73.5q45.5 -47 66.5 -112q21 -65 21 -142q0 -70 -20.5 -136q-20.5 -66 -66.5 -117.5q-46 -51.5 -120 -82.5q-74 -31 -182 -31q-17 0 -46.5 1q-29.5 1 -61 2.5q-31.5 1.5 -59 3q-27.5 1.5 -41.5 3.5l0 296h-84zM225 412h135v-117h-135v-172q5 -1 15.5 -1.5q10.5 -0.5 22 -1q11.5 -0.5 22 -1q10.5 -0.5 15.5 -0.5q64 0 106 20q42 20 66.5 53q24.5 33 34.5 75q10 42 10 87q0 37 -9 77q-9 40 -32.5 73q-23.5 33 -63.5 54.5q-40 21.5 -103 21.5q-23 0 -47 -0.5q-24 -0.5 -37 -2.5z" />
<glyph unicode="&#209;" horiz-adv-x="713" d="M254 365l-60 105h-5l16 -106v-364h-140v705h107l289 -373l57 -102h6l-16 103v367h140v-705h-107zM150 804q33 35 64.5 48q31.5 13 62.5 13q24 0 48 -5.5q24 -5.5 46.5 -12.5q22.5 -7 44 -12.5q21.5 -5.5 41.5 -5.5q17 0 33 5q16 5 31 19l25 -72q-29 -26 -57 -36q-28 -10 -55 -10q-24 0 -47.5 5.5q-23.5 5.5 -46 12.5q-22.5 7 -44 12.5q-21.5 5.5 -42.5 5.5q-21 0 -41 -7.5q-20 -7.5 -40 -27.5z" />
<glyph unicode="&#210;" horiz-adv-x="727" d="M40 350q0 86 22 154q22 68 63.5 114.5q41.5 46.5 101.5 71q60 24.5 136 24.5q81 0 141.5 -26.5q60.5 -26.5 101 -74.5q40.5 -48 61 -115q20.5 -67 20.5 -148q0 -86 -22.5 -154q-22.5 -68 -64.5 -114.5q-42 -46.5 -102 -71q-60 -24.5 -135 -24.5q-81 0 -141.5 26.5q-60.5 26.5 -101 74.5q-40.5 48 -60.5 115q-20 67 -20 148zt0 0zM197 350q0 -52 10 -95q10 -43 30 -74q20 -31 51.5 -48q31.5 -17 74.5 -17q79 0 123 54q44 54 44 180q0 50 -9 93q-9 43 -29.5 74.5q-20.5 31.5 -52 49q-31.5 17.5 -76.5 17.5q-78 0 -122 -56q-44 -56 -44 -178zt0 0zM446 752h-114l-172 87v31l173 0z" />
<glyph unicode="&#211;" horiz-adv-x="727" d="M40 350q0 86 22 154q22 68 63.5 114.5q41.5 46.5 101.5 71q60 24.5 136 24.5q81 0 141.5 -26.5q60.5 -26.5 101 -74.5q40.5 -48 61 -115q20.5 -67 20.5 -148q0 -86 -22.5 -154q-22.5 -68 -64.5 -114.5q-42 -46.5 -102 -71q-60 -24.5 -135 -24.5q-81 0 -141.5 26.5q-60.5 26.5 -101 74.5q-40.5 48 -60.5 115q-20 67 -20 148zt0 0zM197 350q0 -52 10 -95q10 -43 30 -74q20 -31 51.5 -48q31.5 -17 74.5 -17q79 0 123 54q44 54 44 180q0 50 -9 93q-9 43 -29.5 74.5q-20.5 31.5 -52 49q-31.5 17.5 -76.5 17.5q-78 0 -122 -56q-44 -56 -44 -178zt0 0zM396 870h172v-31l-174 -87l-112 0z" />
<glyph unicode="&#212;" horiz-adv-x="727" d="M40 350q0 86 22 154q22 68 63.5 114.5q41.5 46.5 101.5 71q60 24.5 136 24.5q81 0 141.5 -26.5q60.5 -26.5 101 -74.5q40.5 -48 61 -115q20.5 -67 20.5 -148q0 -86 -22.5 -154q-22.5 -68 -64.5 -114.5q-42 -46.5 -102 -71q-60 -24.5 -135 -24.5q-81 0 -141.5 26.5q-60.5 26.5 -101 74.5q-40.5 48 -60.5 115q-20 67 -20 148zt0 0zM197 350q0 -52 10 -95q10 -43 30 -74q20 -31 51.5 -48q31.5 -17 74.5 -17q79 0 123 54q44 54 44 180q0 50 -9 93q-9 43 -29.5 74.5q-20.5 31.5 -52 49q-31.5 17.5 -76.5 17.5q-78 0 -122 -56q-44 -56 -44 -178zt0 0zM314 870h105l138 -92v-41h-108l-62 40l-22 34l-24 -33l-66 -41h-106l0 42z" />
<glyph unicode="&#213;" horiz-adv-x="727" d="M40 350q0 86 22 154q22 68 63.5 114.5q41.5 46.5 101.5 71q60 24.5 136 24.5q81 0 141.5 -26.5q60.5 -26.5 101 -74.5q40.5 -48 61 -115q20.5 -67 20.5 -148q0 -86 -22.5 -154q-22.5 -68 -64.5 -114.5q-42 -46.5 -102 -71q-60 -24.5 -135 -24.5q-81 0 -141.5 26.5q-60.5 26.5 -101 74.5q-40.5 48 -60.5 115q-20 67 -20 148zt0 0zM197 350q0 -52 10 -95q10 -43 30 -74q20 -31 51.5 -48q31.5 -17 74.5 -17q79 0 123 54q44 54 44 180q0 50 -9 93q-9 43 -29.5 74.5q-20.5 31.5 -52 49q-31.5 17.5 -76.5 17.5q-78 0 -122 -56q-44 -56 -44 -178zt0 0zM165 804q33 35 64.5 48q31.5 13 62.5 13q24 0 48 -5.5q24 -5.5 46.5 -12.5q22.5 -7 44 -12.5q21.5 -5.5 41.5 -5.5q17 0 33 5q16 5 31 19l25 -72q-29 -26 -57 -36q-28 -10 -55 -10q-24 0 -47.5 5.5q-23.5 5.5 -46 12.5q-22.5 7 -44 12.5q-21.5 5.5 -42.5 5.5q-21 0 -41 -7.5q-20 -7.5 -40 -27.5z" />
<glyph unicode="&#214;" horiz-adv-x="727" d="M40 350q0 86 22 154q22 68 63.5 114.5q41.5 46.5 101.5 71q60 24.5 136 24.5q81 0 141.5 -26.5q60.5 -26.5 101 -74.5q40.5 -48 61 -115q20.5 -67 20.5 -148q0 -86 -22.5 -154q-22.5 -68 -64.5 -114.5q-42 -46.5 -102 -71q-60 -24.5 -135 -24.5q-81 0 -141.5 26.5q-60.5 26.5 -101 74.5q-40.5 48 -60.5 115q-20 67 -20 148zt0 0zM197 350q0 -52 10 -95q10 -43 30 -74q20 -31 51.5 -48q31.5 -17 74.5 -17q79 0 123 54q44 54 44 180q0 50 -9 93q-9 43 -29.5 74.5q-20.5 31.5 -52 49q-31.5 17.5 -76.5 17.5q-78 0 -122 -56q-44 -56 -44 -178zt0 0zM165 798q0 27 19.5 43.5q19.5 16.5 63.5 16.5q42 0 61.5 -16.5q19.5 -16.5 19.5 -43.5q0 -26 -19.5 -41.5q-19.5 -15.5 -61.5 -15.5q-44 0 -63.5 15.5q-19.5 15.5 -19.5 41.5zt0 0zM398 798q0 27 19.5 43.5q19.5 16.5 61.5 16.5q44 0 63.5 -16.5q19.5 -16.5 19.5 -43.5q0 -26 -19.5 -41.5q-19.5 -15.5 -63.5 -15.5q-42 0 -61.5 15.5t-19.5 41.5z" />
<glyph unicode="&#215;" horiz-adv-x="571" d="M145 554l141 -134l140 134l83 -89l-136 -126l136 -129l-83 -88l-140 134l-142 -135l-82 88l137 130l-136 126z" />
<glyph unicode="&#216;" horiz-adv-x="727" d="M40 350q0 86 22 154q22 68 63.5 114.5q41.5 46.5 101.5 71q60 24.5 136 24.5q93 0 162 -37l26 38l95 -61l-34 -49q38 -48 56.5 -112.5q18.5 -64.5 18.5 -142.5q0 -86 -22.5 -154q-22.5 -68 -64.5 -114.5q-42 -46.5 -102 -71q-60 -24.5 -135 -24.5q-46 0 -84.5 8.5q-38.5 8.5 -71.5 24.5l-22 -33l-93 60l28 41q-41 48 -60.5 115q-19.5 67 -19.5 148zt0 0zM446 562q-35 22 -83 22q-78 0 -122 -56q-44 -56 -44 -178q0 -73 18 -125zM287 134q31 -18 76 -18q79 0 123 54q44 54 44 180q0 64 -15 114z" />
<glyph unicode="&#217;" horiz-adv-x="679" d="M478 700h140v-449q0 -68 -19.5 -118q-19.5 -50 -55 -82q-35.5 -32 -85 -47.5q-49.5 -15.5 -108.5 -15.5q-141 0 -215 61.5q-74 61.5 -74 184.5v466h148v-439q0 -80 35 -111.5q35 -31.5 104 -31.5q66 0 98 33.5q32 33.5 32 109.5zM428 752h-114l-172 87v31l173 0z" />
<glyph unicode="&#218;" horiz-adv-x="679" d="M478 700h140v-449q0 -68 -19.5 -118q-19.5 -50 -55 -82q-35.5 -32 -85 -47.5q-49.5 -15.5 -108.5 -15.5q-141 0 -215 61.5q-74 61.5 -74 184.5v466h148v-439q0 -80 35 -111.5q35 -31.5 104 -31.5q66 0 98 33.5q32 33.5 32 109.5zM396 870h172v-31l-174 -87l-112 0z" />
<glyph unicode="&#219;" horiz-adv-x="679" d="M478 700h140v-449q0 -68 -19.5 -118q-19.5 -50 -55 -82q-35.5 -32 -85 -47.5q-49.5 -15.5 -108.5 -15.5q-141 0 -215 61.5q-74 61.5 -74 184.5v466h148v-439q0 -80 35 -111.5q35 -31.5 104 -31.5q66 0 98 33.5q32 33.5 32 109.5zM297 870h105l138 -92v-41h-108l-62 40l-22 34l-24 -33l-66 -41h-106l0 42z" />
<glyph unicode="&#220;" horiz-adv-x="679" d="M478 700h140v-449q0 -68 -19.5 -118q-19.5 -50 -55 -82q-35.5 -32 -85 -47.5q-49.5 -15.5 -108.5 -15.5q-141 0 -215 61.5q-74 61.5 -74 184.5v466h148v-439q0 -80 35 -111.5q35 -31.5 104 -31.5q66 0 98 33.5q32 33.5 32 109.5zM144 798q0 27 19.5 43.5q19.5 16.5 63.5 16.5q42 0 61.5 -16.5q19.5 -16.5 19.5 -43.5q0 -26 -19.5 -41.5q-19.5 -15.5 -61.5 -15.5q-44 0 -63.5 15.5q-19.5 15.5 -19.5 41.5zt0 0zM377 798q0 27 19.5 43.5q19.5 16.5 61.5 16.5q44 0 63.5 -16.5q19.5 -16.5 19.5 -43.5q0 -26 -19.5 -41.5q-19.5 -15.5 -63.5 -15.5q-42 0 -61.5 15.5t-19.5 41.5z" />
<glyph unicode="&#221;" horiz-adv-x="644" d="M248 258l-250 442h176l140 -257l16 -75h5l17 77l135 255h159l-250 -441v-259h-148zM354 870h172v-31l-174 -87l-112 0z" />
<glyph unicode="&#222;" horiz-adv-x="620" d="M65 700h148v-72q15 1 30.5 1.5q15.5 0.5 31.5 0.5q69 0 127 -8.5q58 -8.5 101 -34q43 -25.5 67 -71q24 -45.5 24 -120.5q0 -66 -22.5 -112.5q-22.5 -46.5 -62.5 -75.5q-40 -29 -93.5 -42.5q-53.5 -13.5 -116.5 -13.5q-5 0 -17 0q-12 0 -25.5 0.5q-13.5 0.5 -25.5 1.5q-12 1 -18 2l0 -156h-148zM213 287q4 -1 13 -2q9 -1 19 -1.5q10 -0.5 18.5 -1q8.5 -0.5 13.5 -0.5q35 0 64.5 4q29.5 4 50.5 17q21 13 33 35.5q12 22.5 12 60.5q0 32 -10.5 51.5q-10.5 19.5 -30 30.5q-19.5 11 -48 15q-28.5 4 -63.5 4q-21 0 -40.5 -1q-19.5 -1 -31.5 -4z" />
<glyph unicode="&#223;" horiz-adv-x="693" d="M420 547q0 10 -3 19q-3 9 -13 15.5q-10 6.5 -27.5 10q-17.5 3.5 -46.5 3.5q-53 0 -73.5 -33.5q-20.5 -33.5 -20.5 -86.5v-475h-140v408h-79v117h79q0 97 64.5 138.5q64.5 41.5 181.5 41.5q59 0 100.5 -10.5q41.5 -10.5 68 -29q26.5 -18.5 38.5 -45q12 -26.5 12 -58.5q0 -45 -16.5 -69.5q-16.5 -24.5 -37 -41.5q-20.5 -17 -37 -33q-16.5 -16 -16.5 -44q0 -19 15.5 -30.5q15.5 -11.5 38.5 -21.5q23 -10 49.5 -21q26.5 -11 49.5 -28.5q23 -17.5 38.5 -44q15.5 -26.5 15.5 -67.5q0 -32 -10 -63.5q-10 -31.5 -32.5 -56.5q-22.5 -25 -59.5 -40.5q-37 -15.5 -91 -15.5q-55 0 -101 13q-46 13 -78 33l41 99q13 -7 25.5 -13.5q12.5 -6.5 27 -11q14.5 -4.5 32.5 -7.5q18 -3 42 -3q32 0 48 15.5q16 15.5 16 41.5q0 25 -15.5 39q-15.5 14 -38.5 24q-23 10 -49.5 18.5q-26.5 8.5 -49.5 23q-23 14.5 -38.5 38q-15.5 23.5 -15.5 63.5q0 43 16.5 70q16.5 27 36.5 46q20 19 36.5 35t16.5 38z" />
<glyph unicode="&#224;" horiz-adv-x="579" d="M67 489q45 20 110.5 33q65.5 13 135.5 13q55 0 92.5 -13q37.5 -13 59.5 -37.5q22 -24.5 31.5 -59q9.5 -34.5 9.5 -76.5q0 -51 -4 -101q-4 -50 -4 -106q0 -38 5 -74q5 -36 16 -69l-114 0l-23 78h-12q-26 -35 -66 -60q-40 -25 -103 -25q-38 0 -69.5 11q-31.5 11 -54 31.5q-22.5 20.5 -35 48.5q-12.5 28 -12.5 61q0 89 59.5 134.5q59.5 45.5 180.5 45.5q28 0 56 -4.5q28 -4.5 39 -6.5q3 21 3 36q0 38 -19 56q-19 18 -71 18q-48 0 -93.5 -11.5q-45.5 -11.5 -80.5 -28.5zM250 104q47 0 75 22q28 22 41 46l0 60q-5 2 -15.5 4q-10.5 2 -23 4q-12.5 2 -25 3q-12.5 1 -22.5 1q-54 0 -80 -19.5q-26 -19.5 -26 -48.5q0 -36 20.5 -54q20.5 -18 55.5 -18zt0 0zM350 571h-74l-140 128v30l147 0z" />
<glyph unicode="&#225;" horiz-adv-x="579" d="M67 489q45 20 110.5 33q65.5 13 135.5 13q55 0 92.5 -13q37.5 -13 59.5 -37.5q22 -24.5 31.5 -59q9.5 -34.5 9.5 -76.5q0 -51 -4 -101q-4 -50 -4 -106q0 -38 5 -74q5 -36 16 -69l-114 0l-23 78h-12q-26 -35 -66 -60q-40 -25 -103 -25q-38 0 -69.5 11q-31.5 11 -54 31.5q-22.5 20.5 -35 48.5q-12.5 28 -12.5 61q0 89 59.5 134.5q59.5 45.5 180.5 45.5q28 0 56 -4.5q28 -4.5 39 -6.5q3 21 3 36q0 38 -19 56q-19 18 -71 18q-48 0 -93.5 -11.5q-45.5 -11.5 -80.5 -28.5zM250 104q47 0 75 22q28 22 41 46l0 60q-5 2 -15.5 4q-10.5 2 -23 4q-12.5 2 -25 3q-12.5 1 -22.5 1q-54 0 -80 -19.5q-26 -19.5 -26 -48.5q0 -36 20.5 -54q20.5 -18 55.5 -18zt0 0zM287 729h142v-29l-126 -129l-76 0z" />
<glyph unicode="&#226;" horiz-adv-x="579" d="M67 489q45 20 110.5 33q65.5 13 135.5 13q55 0 92.5 -13q37.5 -13 59.5 -37.5q22 -24.5 31.5 -59q9.5 -34.5 9.5 -76.5q0 -51 -4 -101q-4 -50 -4 -106q0 -38 5 -74q5 -36 16 -69l-114 0l-23 78h-12q-26 -35 -66 -60q-40 -25 -103 -25q-38 0 -69.5 11q-31.5 11 -54 31.5q-22.5 20.5 -35 48.5q-12.5 28 -12.5 61q0 89 59.5 134.5q59.5 45.5 180.5 45.5q28 0 56 -4.5q28 -4.5 39 -6.5q3 21 3 36q0 38 -19 56q-19 18 -71 18q-48 0 -93.5 -11.5q-45.5 -11.5 -80.5 -28.5zM250 104q47 0 75 22q28 22 41 46l0 60q-5 2 -15.5 4q-10.5 2 -23 4q-12.5 2 -25 3q-12.5 1 -22.5 1q-54 0 -80 -19.5q-26 -19.5 -26 -48.5q0 -36 20.5 -54q20.5 -18 55.5 -18zt0 0zM252 752h92l125 -188h-110l-42 69l-24 64l-25 -63l-52 -70l-102 0z" />
<glyph unicode="&#227;" horiz-adv-x="579" d="M67 489q45 20 110.5 33q65.5 13 135.5 13q55 0 92.5 -13q37.5 -13 59.5 -37.5q22 -24.5 31.5 -59q9.5 -34.5 9.5 -76.5q0 -51 -4 -101q-4 -50 -4 -106q0 -38 5 -74q5 -36 16 -69l-114 0l-23 78h-12q-26 -35 -66 -60q-40 -25 -103 -25q-38 0 -69.5 11q-31.5 11 -54 31.5q-22.5 20.5 -35 48.5q-12.5 28 -12.5 61q0 89 59.5 134.5q59.5 45.5 180.5 45.5q28 0 56 -4.5q28 -4.5 39 -6.5q3 21 3 36q0 38 -19 56q-19 18 -71 18q-48 0 -93.5 -11.5q-45.5 -11.5 -80.5 -28.5zM250 104q47 0 75 22q28 22 41 46l0 60q-5 2 -15.5 4q-10.5 2 -23 4q-12.5 2 -25 3q-12.5 1 -22.5 1q-54 0 -80 -19.5q-26 -19.5 -26 -48.5q0 -36 20.5 -54q20.5 -18 55.5 -18zt0 0zM107 677q33 38 61.5 53q28.5 15 54.5 15q22 0 42.5 -7q20.5 -7 40.5 -16q20 -9 40.5 -16q20.5 -7 43.5 -7q33 0 68 26l17 -75q-30 -33 -57 -46.5q-27 -13.5 -52 -13.5q-23 0 -43.5 7.5q-20.5 7.5 -41.5 16q-21 8.5 -42.5 16q-21.5 7.5 -45.5 7.5q-17 0 -34 -5.5q-17 -5.5 -37 -21.5z" />
<glyph unicode="&#228;" horiz-adv-x="579" d="M67 489q45 20 110.5 33q65.5 13 135.5 13q55 0 92.5 -13q37.5 -13 59.5 -37.5q22 -24.5 31.5 -59q9.5 -34.5 9.5 -76.5q0 -51 -4 -101q-4 -50 -4 -106q0 -38 5 -74q5 -36 16 -69l-114 0l-23 78h-12q-26 -35 -66 -60q-40 -25 -103 -25q-38 0 -69.5 11q-31.5 11 -54 31.5q-22.5 20.5 -35 48.5q-12.5 28 -12.5 61q0 89 59.5 134.5q59.5 45.5 180.5 45.5q28 0 56 -4.5q28 -4.5 39 -6.5q3 21 3 36q0 38 -19 56q-19 18 -71 18q-48 0 -93.5 -11.5q-45.5 -11.5 -80.5 -28.5zM250 104q47 0 75 22q28 22 41 46l0 60q-5 2 -15.5 4q-10.5 2 -23 4q-12.5 2 -25 3q-12.5 1 -22.5 1q-54 0 -80 -19.5q-26 -19.5 -26 -48.5q0 -36 20.5 -54q20.5 -18 55.5 -18zt0 0zM80 657q0 35 21.5 56q21.5 21 55.5 21q34 0 54.5 -21q20.5 -21 20.5 -56q0 -30 -20.5 -51q-20.5 -21 -54.5 -21q-34 0 -55.5 21q-21.5 21 -21.5 51zt0 0zM333 657q0 35 20.5 56q20.5 21 54.5 21q35 0 55.5 -21q20.5 -21 20.5 -56q0 -30 -20.5 -51q-20.5 -21 -55.5 -21q-34 0 -54.5 21t-20.5 51z" />
<glyph unicode="&#229;" horiz-adv-x="579" d="M67 489q45 20 110.5 33q65.5 13 135.5 13q55 0 92.5 -13q37.5 -13 59.5 -37.5q22 -24.5 31.5 -59q9.5 -34.5 9.5 -76.5q0 -51 -4 -101q-4 -50 -4 -106q0 -38 5 -74q5 -36 16 -69l-114 0l-23 78h-12q-26 -35 -66 -60q-40 -25 -103 -25q-38 0 -69.5 11q-31.5 11 -54 31.5q-22.5 20.5 -35 48.5q-12.5 28 -12.5 61q0 89 59.5 134.5q59.5 45.5 180.5 45.5q28 0 56 -4.5q28 -4.5 39 -6.5q3 21 3 36q0 38 -19 56q-19 18 -71 18q-48 0 -93.5 -11.5q-45.5 -11.5 -80.5 -28.5zM250 104q47 0 75 22q28 22 41 46l0 60q-5 2 -15.5 4q-10.5 2 -23 4q-12.5 2 -25 3q-12.5 1 -22.5 1q-54 0 -80 -19.5q-26 -19.5 -26 -48.5q0 -36 20.5 -54q20.5 -18 55.5 -18zt0 0zM173 665q0 42 30.5 70.5q30.5 28.5 90.5 28.5q57 0 89.5 -25.5q32.5 -25.5 32.5 -73.5q0 -19 -8.5 -36.5q-8.5 -17.5 -24 -31q-15.5 -13.5 -38.5 -21.5q-23 -8 -51 -8q-58 0 -89.5 27q-31.5 27 -31.5 70zt0 0zM245 665q0 -17 14.5 -26q14.5 -9 34.5 -9q22 0 36.5 8.5q14.5 8.5 14.5 26.5q0 19 -15.5 28.5q-15.5 9.5 -35.5 9.5q-20 0 -34.5 -9t-14.5 -29z" />
<glyph unicode="&#230;" horiz-adv-x="915" d="M250 104q47 0 74.5 21q27.5 21 41.5 44l0 63q-11 3 -27.5 7q-16.5 4 -50.5 4q-57 0 -85.5 -20.5q-28.5 -20.5 -28.5 -55.5q0 -30 21 -46.5q21 -16.5 55 -16.5zt0 0zM406 83q-30 -38 -79 -64.5q-49 -26.5 -126 -26.5q-38 0 -69.5 11q-31.5 11 -54 31.5q-22.5 20.5 -35 48.5q-12.5 28 -12.5 61q0 89 62 134q62 45 176 45q32 0 60 -4q28 -4 37 -6q2 14 2.5 21q0.5 7 0.5 14q0 32 -19.5 53q-19.5 21 -71.5 21q-46 0 -92 -10.5q-46 -10.5 -81 -26.5l-37 98q44 22 106 37q62 15 131 15q59 0 94.5 -14q35.5 -14 61.5 -44q29 30 75 46.5q46 16.5 100 16.5q42 0 83 -10.5q41 -10.5 72.5 -35q31.5 -24.5 51 -66q19.5 -41.5 19.5 -103.5q0 -21 -2 -45.5q-2 -24.5 -8 -51.5l-351 0q5 -66 40.5 -99.5q35.5 -33.5 112.5 -33.5q46 0 84 13.5q38 13.5 59 27.5l46 -89q-17 -13 -40.5 -24.5q-23.5 -11.5 -52 -19.5q-28.5 -8 -60 -13q-31.5 -5 -64.5 -5q-71 0 -128 22.5q-57 22.5 -86 75.5zM633 429q-63 0 -92.5 -33.5q-29.5 -33.5 -34.5 -84.5l225 0q5 57 -19.5 87.5t-78.5 30.5z" />
<glyph unicode="&#231;" horiz-adv-x="500" d="M468 32q-26 -17 -61 -28q-35 -11 -73 -16l-24 -40q48 -3 75.5 -21q27.5 -18 27.5 -56q0 -24 -12.5 -41.5q-12.5 -17.5 -34.5 -29.5q-22 -12 -51 -18q-29 -6 -63 -6q-18 0 -36 1q-18 1 -37 5l10 47q31 -2 50 0.5q19 2.5 29.5 7q10.5 4.5 14 11q3.5 6.5 3.5 14.5q0 17 -23 26q-23 9 -74 11l57 89q-56 6 -94.5 28.5q-38.5 22.5 -63 58q-24.5 35.5 -35.5 83q-11 47.5 -11 104.5q0 131 64.5 204.5q64.5 73.5 187.5 73.5q60 0 98.5 -9.5q38.5 -9.5 68.5 -24.5l-34 -112q-26 11 -51.5 16.5q-25.5 5.5 -59.5 5.5q-63 0 -96.5 -36.5q-33.5 -36.5 -33.5 -117.5q0 -32 8 -59.5q8 -27.5 25 -48.5q17 -21 43 -33q26 -12 61 -12q42 0 66.5 7.5q24.5 7.5 46.5 20.5z" />
<glyph unicode="&#232;" horiz-adv-x="594" d="M521 48q-34 -26 -92.5 -44.5q-58.5 -18.5 -125.5 -18.5q-135 0 -198 74q-63 74 -63 203q0 137 71 207.5q71 70.5 200 70.5q42 0 83 -10.5q41 -10.5 73 -35q32 -24.5 51.5 -66q19.5 -41.5 19.5 -102.5q0 -21 -2.5 -46q-2.5 -25 -8.5 -52l-350 0q5 -68 39.5 -100.5q34.5 -32.5 112.5 -32.5q47 0 84.5 13.5q37.5 13.5 57.5 27.5zM311 430q-62 0 -92 -33.5q-30 -33.5 -35 -85.5l226 0q4 55 -20 87q-24 32 -79 32zt0 0zM371 571h-74l-140 128v30l147 0z" />
<glyph unicode="&#233;" horiz-adv-x="594" d="M521 48q-34 -26 -92.5 -44.5q-58.5 -18.5 -125.5 -18.5q-135 0 -198 74q-63 74 -63 203q0 137 71 207.5q71 70.5 200 70.5q42 0 83 -10.5q41 -10.5 73 -35q32 -24.5 51.5 -66q19.5 -41.5 19.5 -102.5q0 -21 -2.5 -46q-2.5 -25 -8.5 -52l-350 0q5 -68 39.5 -100.5q34.5 -32.5 112.5 -32.5q47 0 84.5 13.5q37.5 13.5 57.5 27.5zM311 430q-62 0 -92 -33.5q-30 -33.5 -35 -85.5l226 0q4 55 -20 87q-24 32 -79 32zt0 0zM328 729h142v-29l-126 -129l-76 0z" />
<glyph unicode="&#234;" horiz-adv-x="594" d="M521 48q-34 -26 -92.5 -44.5q-58.5 -18.5 -125.5 -18.5q-135 0 -198 74q-63 74 -63 203q0 137 71 207.5q71 70.5 200 70.5q42 0 83 -10.5q41 -10.5 73 -35q32 -24.5 51.5 -66q19.5 -41.5 19.5 -102.5q0 -21 -2.5 -46q-2.5 -25 -8.5 -52l-350 0q5 -68 39.5 -100.5q34.5 -32.5 112.5 -32.5q47 0 84.5 13.5q37.5 13.5 57.5 27.5zM311 430q-62 0 -92 -33.5q-30 -33.5 -35 -85.5l226 0q4 55 -20 87q-24 32 -79 32zt0 0zM256 752h92l125 -188h-110l-42 69l-24 64l-25 -63l-52 -70l-102 0z" />
<glyph unicode="&#235;" horiz-adv-x="594" d="M521 48q-34 -26 -92.5 -44.5q-58.5 -18.5 -125.5 -18.5q-135 0 -198 74q-63 74 -63 203q0 137 71 207.5q71 70.5 200 70.5q42 0 83 -10.5q41 -10.5 73 -35q32 -24.5 51.5 -66q19.5 -41.5 19.5 -102.5q0 -21 -2.5 -46q-2.5 -25 -8.5 -52l-350 0q5 -68 39.5 -100.5q34.5 -32.5 112.5 -32.5q47 0 84.5 13.5q37.5 13.5 57.5 27.5zM311 430q-62 0 -92 -33.5q-30 -33.5 -35 -85.5l226 0q4 55 -20 87q-24 32 -79 32zt0 0zM94 657q0 35 21.5 56q21.5 21 55.5 21q34 0 54.5 -21q20.5 -21 20.5 -56q0 -30 -20.5 -51q-20.5 -21 -54.5 -21q-34 0 -55.5 21q-21.5 21 -21.5 51zt0 0zM347 657q0 35 20.5 56q20.5 21 54.5 21q35 0 55.5 -21q20.5 -21 20.5 -56q0 -30 -20.5 -51q-20.5 -21 -55.5 -21q-34 0 -54.5 21t-20.5 51z" />
<glyph unicode="&#236;" horiz-adv-x="317" d="M89 525h140v-525h-140zM206 571h-74l-140 128v30l147 0z" />
<glyph unicode="&#237;" horiz-adv-x="317" d="M89 525h140v-525h-140zM144 729h142v-29l-126 -129l-76 0z" />
<glyph unicode="&#238;" horiz-adv-x="317" d="M89 525h140v-525h-140zM119 752h92l125 -188h-110l-42 69l-24 64l-25 -63l-52 -70l-102 0z" />
<glyph unicode="&#239;" horiz-adv-x="317" d="M89 525h140v-525h-140zM-44 657q0 35 21.5 56q21.5 21 55.5 21q34 0 54.5 -21q20.5 -21 20.5 -56q0 -30 -20.5 -51q-20.5 -21 -54.5 -21q-34 0 -55.5 21q-21.5 21 -21.5 51zt0 0zM209 657q0 35 20.5 56q20.5 21 54.5 21q35 0 55.5 -21q20.5 -21 20.5 -56q0 -30 -20.5 -51q-20.5 -21 -55.5 -21q-34 0 -54.5 21t-20.5 51z" />
<glyph unicode="&#240;" horiz-adv-x="643" d="M394 670q55 -27 94.5 -65.5q39.5 -38.5 64.5 -84.5q25 -46 36.5 -95.5q11.5 -49.5 11.5 -98.5q0 -83 -21 -146.5q-21 -63.5 -58.5 -106.5q-37.5 -43 -90 -65.5q-52.5 -22.5 -115.5 -22.5q-68 0 -119 19.5q-51 19.5 -85.5 54q-34.5 34.5 -52 83q-17.5 48.5 -17.5 105.5q0 58 19.5 105.5q19.5 47.5 55 81q35.5 33.5 84.5 51.5q49 18 108 18q42 0 78.5 -12q36.5 -12 65.5 -35q-17 48 -48.5 81.5q-31.5 33.5 -71.5 54.5l-51 -66l-56 41l40 51q-23 6 -45 9q-22 3 -44 5l54 82q50 -6 96 -18l35 45l53 -43zM462 347q-27 20 -63.5 29.5q-36.5 9.5 -72.5 9.5q-72 0 -110.5 -40q-38.5 -40 -38.5 -103q0 -70 40 -105.5q40 -35.5 107 -35.5q32 0 58.5 13q26.5 13 46 37q19.5 24 30 57.5q10.5 33.5 10.5 74.5q0 13 -1.5 31.5t-5.5 31.5z" />
<glyph unicode="&#241;" horiz-adv-x="638" d="M426 0v288q0 68 -21 98q-21 30 -74 30q-45 0 -76.5 -24.5q-31.5 -24.5 -43.5 -62.5q0 -82 0.5 -164.5q0.5 -82.5 0.5 -164.5l-140 0v525h110l15 -75h15q26 37 69 63.5q43 26.5 112 26.5q42 0 74.5 -10.5q32.5 -10.5 54 -36q21.5 -25.5 33 -68.5q11.5 -43 11.5 -108v-317zM134 677q33 38 61.5 53q28.5 15 54.5 15q22 0 42.5 -7q20.5 -7 40.5 -16q20 -9 40.5 -16q20.5 -7 43.5 -7q33 0 68 26l17 -75q-30 -33 -57 -46.5q-27 -13.5 -52 -13.5q-23 0 -43.5 7.5q-20.5 7.5 -41.5 16q-21 8.5 -42.5 16q-21.5 7.5 -45.5 7.5q-17 0 -34 -5.5q-17 -5.5 -37 -21.5z" />
<glyph unicode="&#242;" horiz-adv-x="616" d="M42 262q0 130 69 204q69 74 197 74q67 0 117 -21q50 -21 83 -58.5q33 -37.5 49.5 -88q16.5 -50.5 16.5 -110.5q0 -64 -18 -115.5q-18 -51.5 -52 -87.5q-34 -36 -83.5 -55q-49.5 -19 -112.5 -19q-68 0 -118 21q-50 21 -83 58.5q-33 37.5 -49 88q-16 50.5 -16 109.5zt0 0zM186 262q0 -33 7 -62q7 -29 21.5 -50.5q14.5 -21.5 37.5 -34.5q23 -13 56 -13q122 0 122 160q0 35 -6.5 64.5q-6.5 29.5 -21 51q-14.5 21.5 -38 33.5q-23.5 12 -56.5 12q-57 0 -89.5 -38q-32.5 -38 -32.5 -123zt0 0zM375 571h-74l-140 128v30l147 0z" />
<glyph unicode="&#243;" horiz-adv-x="616" d="M42 262q0 130 69 204q69 74 197 74q67 0 117 -21q50 -21 83 -58.5q33 -37.5 49.5 -88q16.5 -50.5 16.5 -110.5q0 -64 -18 -115.5q-18 -51.5 -52 -87.5q-34 -36 -83.5 -55q-49.5 -19 -112.5 -19q-68 0 -118 21q-50 21 -83 58.5q-33 37.5 -49 88q-16 50.5 -16 109.5zt0 0zM186 262q0 -33 7 -62q7 -29 21.5 -50.5q14.5 -21.5 37.5 -34.5q23 -13 56 -13q122 0 122 160q0 35 -6.5 64.5q-6.5 29.5 -21 51q-14.5 21.5 -38 33.5q-23.5 12 -56.5 12q-57 0 -89.5 -38q-32.5 -38 -32.5 -123zt0 0zM329 729h142v-29l-126 -129l-76 0z" />
<glyph unicode="&#244;" horiz-adv-x="616" d="M42 262q0 130 69 204q69 74 197 74q67 0 117 -21q50 -21 83 -58.5q33 -37.5 49.5 -88q16.5 -50.5 16.5 -110.5q0 -64 -18 -115.5q-18 -51.5 -52 -87.5q-34 -36 -83.5 -55q-49.5 -19 -112.5 -19q-68 0 -118 21q-50 21 -83 58.5q-33 37.5 -49 88q-16 50.5 -16 109.5zt0 0zM186 262q0 -33 7 -62q7 -29 21.5 -50.5q14.5 -21.5 37.5 -34.5q23 -13 56 -13q122 0 122 160q0 35 -6.5 64.5q-6.5 29.5 -21 51q-14.5 21.5 -38 33.5q-23.5 12 -56.5 12q-57 0 -89.5 -38q-32.5 -38 -32.5 -123zt0 0zM269 752h92l125 -188h-110l-42 69l-24 64l-25 -63l-52 -70l-102 0z" />
<glyph unicode="&#245;" horiz-adv-x="616" d="M42 262q0 130 69 204q69 74 197 74q67 0 117 -21q50 -21 83 -58.5q33 -37.5 49.5 -88q16.5 -50.5 16.5 -110.5q0 -64 -18 -115.5q-18 -51.5 -52 -87.5q-34 -36 -83.5 -55q-49.5 -19 -112.5 -19q-68 0 -118 21q-50 21 -83 58.5q-33 37.5 -49 88q-16 50.5 -16 109.5zt0 0zM186 262q0 -33 7 -62q7 -29 21.5 -50.5q14.5 -21.5 37.5 -34.5q23 -13 56 -13q122 0 122 160q0 35 -6.5 64.5q-6.5 29.5 -21 51q-14.5 21.5 -38 33.5q-23.5 12 -56.5 12q-57 0 -89.5 -38q-32.5 -38 -32.5 -123zt0 0zM124 677q33 38 61.5 53q28.5 15 54.5 15q22 0 42.5 -7q20.5 -7 40.5 -16q20 -9 40.5 -16q20.5 -7 43.5 -7q33 0 68 26l17 -75q-30 -33 -57 -46.5q-27 -13.5 -52 -13.5q-23 0 -43.5 7.5q-20.5 7.5 -41.5 16q-21 8.5 -42.5 16q-21.5 7.5 -45.5 7.5q-17 0 -34 -5.5q-17 -5.5 -37 -21.5z" />
<glyph unicode="&#246;" horiz-adv-x="616" d="M42 262q0 130 69 204q69 74 197 74q67 0 117 -21q50 -21 83 -58.5q33 -37.5 49.5 -88q16.5 -50.5 16.5 -110.5q0 -64 -18 -115.5q-18 -51.5 -52 -87.5q-34 -36 -83.5 -55q-49.5 -19 -112.5 -19q-68 0 -118 21q-50 21 -83 58.5q-33 37.5 -49 88q-16 50.5 -16 109.5zt0 0zM186 262q0 -33 7 -62q7 -29 21.5 -50.5q14.5 -21.5 37.5 -34.5q23 -13 56 -13q122 0 122 160q0 35 -6.5 64.5q-6.5 29.5 -21 51q-14.5 21.5 -38 33.5q-23.5 12 -56.5 12q-57 0 -89.5 -38q-32.5 -38 -32.5 -123zt0 0zM106 657q0 35 21.5 56q21.5 21 55.5 21q34 0 54.5 -21q20.5 -21 20.5 -56q0 -30 -20.5 -51q-20.5 -21 -54.5 -21q-34 0 -55.5 21q-21.5 21 -21.5 51zt0 0zM359 657q0 35 20.5 56q20.5 21 54.5 21q35 0 55.5 -21q20.5 -21 20.5 -56q0 -30 -20.5 -51q-20.5 -21 -55.5 -21q-34 0 -54.5 21t-20.5 51z" />
<glyph unicode="&#247;" horiz-adv-x="571" d="M47 397h477v-120h-477zM198 538q0 37 24 58q24 21 63 21q40 0 64 -21q24 -21 24 -58q0 -35 -24 -57q-24 -22 -64 -22q-39 0 -63 22q-24 22 -24 57zt0 0zM198 136q0 37 24 58q24 21 63 21q40 0 64 -21q24 -21 24 -58q0 -35 -24 -57q-24 -22 -64 -22q-39 0 -63 22t-24 57z" />
<glyph unicode="&#248;" horiz-adv-x="617" d="M42 262q0 64 18 115.5q18 51.5 52 87.5q34 36 83.5 55.5q49.5 19.5 112.5 19.5q37 0 68.5 -6.5q31.5 -6.5 57.5 -17.5l29 37l84 -67l-30 -35q29 -37 43.5 -84.5q14.5 -47.5 14.5 -104.5q0 -64 -18 -115.5q-18 -51.5 -52 -87.5q-34 -36 -83.5 -55q-49.5 -19 -113.5 -19q-78 0 -134 28l-29 -37l-87 67l34 40q-26 35 -38 80.5q-12 45.5 -12 98.5zt0 0zM243 120q25 -18 65 -18q123 0 123 160q0 23 -4 44q-4 21 -10 38zM370 407q-27 16 -62 16q-56 0 -89 -38.5q-33 -38.5 -33 -122.5q0 -39 11 -74z" />
<glyph unicode="&#249;" horiz-adv-x="642" d="M212 525v-291q0 -65 18 -95q18 -30 69 -30q44 0 74 23q30 23 44 58l0 335h140v-365q0 -42 4.5 -84q4.5 -42 12.5 -76l-103 0l-27 82h-11q-26 -42 -74 -69.5q-48 -27.5 -110 -27.5q-43 0 -76 11q-33 11 -55.5 36.5q-22.5 25.5 -34 67.5q-11.5 42 -11.5 104v321zM368 571h-74l-140 128v30l147 0z" />
<glyph unicode="&#250;" horiz-adv-x="642" d="M212 525v-291q0 -65 18 -95q18 -30 69 -30q44 0 74 23q30 23 44 58l0 335h140v-365q0 -42 4.5 -84q4.5 -42 12.5 -76l-103 0l-27 82h-11q-26 -42 -74 -69.5q-48 -27.5 -110 -27.5q-43 0 -76 11q-33 11 -55.5 36.5q-22.5 25.5 -34 67.5q-11.5 42 -11.5 104v321zM321 729h142v-29l-126 -129l-76 0z" />
<glyph unicode="&#251;" horiz-adv-x="642" d="M212 525v-291q0 -65 18 -95q18 -30 69 -30q44 0 74 23q30 23 44 58l0 335h140v-365q0 -42 4.5 -84q4.5 -42 12.5 -76l-103 0l-27 82h-11q-26 -42 -74 -69.5q-48 -27.5 -110 -27.5q-43 0 -76 11q-33 11 -55.5 36.5q-22.5 25.5 -34 67.5q-11.5 42 -11.5 104v321zM278 752h92l125 -188h-110l-42 69l-24 64l-25 -63l-52 -70l-102 0z" />
<glyph unicode="&#252;" horiz-adv-x="642" d="M212 525v-291q0 -65 18 -95q18 -30 69 -30q44 0 74 23q30 23 44 58l0 335h140v-365q0 -42 4.5 -84q4.5 -42 12.5 -76l-103 0l-27 82h-11q-26 -42 -74 -69.5q-48 -27.5 -110 -27.5q-43 0 -76 11q-33 11 -55.5 36.5q-22.5 25.5 -34 67.5q-11.5 42 -11.5 104v321zM114 657q0 35 21.5 56q21.5 21 55.5 21q34 0 54.5 -21q20.5 -21 20.5 -56q0 -30 -20.5 -51q-20.5 -21 -54.5 -21q-34 0 -55.5 21q-21.5 21 -21.5 51zt0 0zM367 657q0 35 20.5 56q20.5 21 54.5 21q35 0 55.5 -21q20.5 -21 20.5 -56q0 -30 -20.5 -51q-20.5 -21 -55.5 -21q-34 0 -54.5 21t-20.5 51z" />
<glyph unicode="&#253;" horiz-adv-x="541" d="M264 234l22 -84h10l19 84l89 291h143l-174 -475q-22 -59 -41.5 -106q-19.5 -47 -42.5 -80q-23 -33 -51.5 -50.5q-28.5 -17.5 -67.5 -17.5q-26 0 -49.5 4.5q-23.5 4.5 -40.5 13.5l29 108q15 -5 31 -5q14 0 27 3q13 3 24 11.5q11 8.5 20.5 24q9.5 15.5 16.5 41.5l-240 528h169zM300 729h142v-29l-126 -129l-76 0z" />
<glyph unicode="&#254;" horiz-adv-x="623" d="M72 700h140v-223h12q25 27 58 45q33 18 87 18q106 0 159 -62.5q53 -62.5 53 -201.5q0 -67 -17 -121q-17 -54 -49.5 -91.5q-32.5 -37.5 -81 -58q-48.5 -20.5 -111.5 -20.5q-35 0 -59 6q-24 6 -51 18l0 -209h-140zM326 423q-86 0 -114 -89l0 -201q17 -15 38 -23q21 -8 53 -8q68 0 101 42.5q33 42.5 33 135.5q0 67 -25.5 105t-85.5 38z" />
<glyph unicode="&#255;" horiz-adv-x="541" d="M264 234l22 -84h10l19 84l89 291h143l-174 -475q-22 -59 -41.5 -106q-19.5 -47 -42.5 -80q-23 -33 -51.5 -50.5q-28.5 -17.5 -67.5 -17.5q-26 0 -49.5 4.5q-23.5 4.5 -40.5 13.5l29 108q15 -5 31 -5q14 0 27 3q13 3 24 11.5q11 8.5 20.5 24q9.5 15.5 16.5 41.5l-240 528h169zM76 657q0 35 21.5 56q21.5 21 55.5 21q34 0 54.5 -21q20.5 -21 20.5 -56q0 -30 -20.5 -51q-20.5 -21 -54.5 -21q-34 0 -55.5 21q-21.5 21 -21.5 51zt0 0zM329 657q0 35 20.5 56q20.5 21 54.5 21q35 0 55.5 -21q20.5 -21 20.5 -56q0 -30 -20.5 -51q-20.5 -21 -55.5 -21q-34 0 -54.5 21t-20.5 51z" />
<glyph unicode="&#256;" horiz-adv-x="658" d="M441 149h-236l-57 -149h-148l274 705h109l275 -705h-157zM246 266h160l-54 146l-24 111h-5l-24 -112zM140 848h373v-92l-373 0z" />
<glyph unicode="&#257;" horiz-adv-x="579" d="M67 489q45 20 110.5 33q65.5 13 135.5 13q55 0 92.5 -13q37.5 -13 59.5 -37.5q22 -24.5 31.5 -59q9.5 -34.5 9.5 -76.5q0 -51 -4 -101q-4 -50 -4 -106q0 -38 5 -74q5 -36 16 -69l-114 0l-23 78h-12q-26 -35 -66 -60q-40 -25 -103 -25q-38 0 -69.5 11q-31.5 11 -54 31.5q-22.5 20.5 -35 48.5q-12.5 28 -12.5 61q0 89 59.5 134.5q59.5 45.5 180.5 45.5q28 0 56 -4.5q28 -4.5 39 -6.5q3 21 3 36q0 38 -19 56q-19 18 -71 18q-48 0 -93.5 -11.5q-45.5 -11.5 -80.5 -28.5zM250 104q47 0 75 22q28 22 41 46l0 60q-5 2 -15.5 4q-10.5 2 -23 4q-12.5 2 -25 3q-12.5 1 -22.5 1q-54 0 -80 -19.5q-26 -19.5 -26 -48.5q0 -36 20.5 -54q20.5 -18 55.5 -18zt0 0zM104 679h351v-95l-351 0z" />
<glyph unicode="&#258;" horiz-adv-x="658" d="M441 149h-236l-57 -149h-148l274 705h109l275 -705h-157zM246 266h160l-54 146l-24 111h-5l-24 -112zM177 876q23 -26 64 -38.5q41 -12.5 92 -12.5q52 0 90 14q38 14 59 37l53 -35q-13 -28 -34.5 -49q-21.5 -21 -49 -34.5q-27.5 -13.5 -58 -20.5q-30.5 -7 -61.5 -7q-29 0 -60 5.5q-31 5.5 -59.5 18q-28.5 12.5 -52.5 33q-24 20.5 -39 49.5z" />
<glyph unicode="&#259;" horiz-adv-x="579" d="M67 489q45 20 110.5 33q65.5 13 135.5 13q55 0 92.5 -13q37.5 -13 59.5 -37.5q22 -24.5 31.5 -59q9.5 -34.5 9.5 -76.5q0 -51 -4 -101q-4 -50 -4 -106q0 -38 5 -74q5 -36 16 -69l-114 0l-23 78h-12q-26 -35 -66 -60q-40 -25 -103 -25q-38 0 -69.5 11q-31.5 11 -54 31.5q-22.5 20.5 -35 48.5q-12.5 28 -12.5 61q0 89 59.5 134.5q59.5 45.5 180.5 45.5q28 0 56 -4.5q28 -4.5 39 -6.5q3 21 3 36q0 38 -19 56q-19 18 -71 18q-48 0 -93.5 -11.5q-45.5 -11.5 -80.5 -28.5zM250 104q47 0 75 22q28 22 41 46l0 60q-5 2 -15.5 4q-10.5 2 -23 4q-12.5 2 -25 3q-12.5 1 -22.5 1q-54 0 -80 -19.5q-26 -19.5 -26 -48.5q0 -36 20.5 -54q20.5 -18 55.5 -18zt0 0zM160 728q23 -28 58.5 -43.5q35.5 -15.5 73.5 -15.5q38 0 71.5 15q33.5 15 52.5 44l64 -26q-5 -24 -21 -48q-16 -24 -41 -43q-25 -19 -57.5 -31q-32.5 -12 -69.5 -12q-73 0 -125 34.5q-52 34.5 -70 93.5z" />
<glyph unicode="&#260;" horiz-adv-x="658" d="M441 149h-236l-57 -149h-148l274 705h109l275 -705h-19q-62 -27 -61 -74q0 -20 14 -33.5q14 -13.5 38 -13.5q11 0 21 2q10 2 23 9l22 -64q-18 -13 -53 -25q-35 -12 -76 -12q-61 0 -93 27q-32 27 -32 70q0 38 27.5 67.5q27.5 29.5 73.5 46.5l-42 0zM246 266h160l-54 146l-24 111h-5l-24 -112z" />
<glyph unicode="&#261;" horiz-adv-x="579" d="M67 489q45 20 110.5 33q65.5 13 135.5 13q55 0 92.5 -13q37.5 -13 59.5 -37.5q22 -24.5 31.5 -59q9.5 -34.5 9.5 -76.5q0 -51 -4 -101q-4 -50 -4 -106q0 -38 5 -74q5 -36 16 -69l-21 0q-32 -13 -49.5 -30q-17.5 -17 -16.5 -43q0 -20 14 -33.5q14 -13.5 38 -13.5q11 0 21 2q10 2 23 9l22 -64q-18 -13 -53 -25q-35 -12 -76 -12q-61 0 -93 27q-32 27 -32 70q0 39 30 68q30 29 79 46l-23 77h-12q-26 -35 -66 -60q-40 -25 -103 -25q-38 0 -69.5 11q-31.5 11 -54 31.5q-22.5 20.5 -35 48.5q-12.5 28 -12.5 61q0 89 59.5 134.5q59.5 45.5 180.5 45.5q28 0 56 -4.5q28 -4.5 39 -6.5q3 21 3 36q0 38 -19 56q-19 18 -71 18q-48 0 -93.5 -11.5q-45.5 -11.5 -80.5 -28.5zM250 104q47 0 75 22q28 22 41 46l0 60q-5 2 -15.5 4q-10.5 2 -23 4q-12.5 2 -25 3q-12.5 1 -22.5 1q-54 0 -80 -19.5q-26 -19.5 -26 -48.5q0 -36 20.5 -54t55.5 -18z" />
<glyph unicode="&#262;" horiz-adv-x="607" d="M579 30q-33 -23 -87 -33.5q-54 -10.5 -111 -10.5q-67 0 -128.5 20q-61.5 20 -109 64q-47.5 44 -75.5 113q-28 69 -28 167q0 102 32 171.5q32 69.5 82 112q50 42.5 111 61.5q61 19 120 19q65 0 109.5 -8q44.5 -8 73.5 -19v-124q-54 11 -87.5 16q-33.5 5 -84.5 5q-45 0 -81.5 -14.5q-36.5 -14.5 -62.5 -43.5q-26 -29 -40.5 -73q-14.5 -44 -14.5 -103q0 -52 13 -95q13 -43 39 -74q26 -31 66 -48q40 -17 93 -17q49 0 82.5 9q33.5 9 59.5 23zM407 870h172v-31l-174 -87l-112 0z" />
<glyph unicode="&#263;" horiz-adv-x="500" d="M468 32q-34 -23 -81.5 -35q-47.5 -12 -98.5 -12q-68 0 -114.5 20q-46.5 20 -76 57q-29.5 37 -42.5 87.5q-13 50.5 -13 112.5q0 131 64.5 204.5q64.5 73.5 187.5 73.5q60 0 98.5 -9.5q38.5 -9.5 68.5 -24.5l-34 -112q-26 11 -51.5 16.5q-25.5 5.5 -59.5 5.5q-63 0 -96.5 -36.5q-33.5 -36.5 -33.5 -117.5q0 -32 8 -59.5q8 -27.5 25 -48.5q17 -21 43 -33q26 -12 61 -12q42 0 66.5 7.5q24.5 7.5 46.5 20.5zM298 729h142v-29l-126 -129l-76 0z" />
<glyph unicode="&#264;" horiz-adv-x="607" d="M579 30q-33 -23 -87 -33.5q-54 -10.5 -111 -10.5q-67 0 -128.5 20q-61.5 20 -109 64q-47.5 44 -75.5 113q-28 69 -28 167q0 102 32 171.5q32 69.5 82 112q50 42.5 111 61.5q61 19 120 19q65 0 109.5 -8q44.5 -8 73.5 -19v-124q-54 11 -87.5 16q-33.5 5 -84.5 5q-45 0 -81.5 -14.5q-36.5 -14.5 -62.5 -43.5q-26 -29 -40.5 -73q-14.5 -44 -14.5 -103q0 -52 13 -95q13 -43 39 -74q26 -31 66 -48q40 -17 93 -17q49 0 82.5 9q33.5 9 59.5 23zM312 870h105l138 -92v-41h-108l-62 40l-22 34l-24 -33l-66 -41h-106l0 42z" />
<glyph unicode="&#265;" horiz-adv-x="500" d="M468 32q-34 -23 -81.5 -35q-47.5 -12 -98.5 -12q-68 0 -114.5 20q-46.5 20 -76 57q-29.5 37 -42.5 87.5q-13 50.5 -13 112.5q0 131 64.5 204.5q64.5 73.5 187.5 73.5q60 0 98.5 -9.5q38.5 -9.5 68.5 -24.5l-34 -112q-26 11 -51.5 16.5q-25.5 5.5 -59.5 5.5q-63 0 -96.5 -36.5q-33.5 -36.5 -33.5 -117.5q0 -32 8 -59.5q8 -27.5 25 -48.5q17 -21 43 -33q26 -12 61 -12q42 0 66.5 7.5q24.5 7.5 46.5 20.5zM238 752h92l125 -188h-110l-42 69l-24 64l-25 -63l-52 -70l-102 0z" />
<glyph unicode="&#268;" horiz-adv-x="607" d="M579 30q-33 -23 -87 -33.5q-54 -10.5 -111 -10.5q-67 0 -128.5 20q-61.5 20 -109 64q-47.5 44 -75.5 113q-28 69 -28 167q0 102 32 171.5q32 69.5 82 112q50 42.5 111 61.5q61 19 120 19q65 0 109.5 -8q44.5 -8 73.5 -19v-124q-54 11 -87.5 16q-33.5 5 -84.5 5q-45 0 -81.5 -14.5q-36.5 -14.5 -62.5 -43.5q-26 -29 -40.5 -73q-14.5 -44 -14.5 -103q0 -52 13 -95q13 -43 39 -74q26 -31 66 -48q40 -17 93 -17q49 0 82.5 9q33.5 9 59.5 23zM419 736h-102l-138 93v41h114l57 -44l21 -30l22 29l62 45h109l0 -42z" />
<glyph unicode="&#269;" horiz-adv-x="500" d="M468 32q-34 -23 -81.5 -35q-47.5 -12 -98.5 -12q-68 0 -114.5 20q-46.5 20 -76 57q-29.5 37 -42.5 87.5q-13 50.5 -13 112.5q0 131 64.5 204.5q64.5 73.5 187.5 73.5q60 0 98.5 -9.5q38.5 -9.5 68.5 -24.5l-34 -112q-26 11 -51.5 16.5q-25.5 5.5 -59.5 5.5q-63 0 -96.5 -36.5q-33.5 -36.5 -33.5 -117.5q0 -32 8 -59.5q8 -27.5 25 -48.5q17 -21 43 -33q26 -12 61 -12q42 0 66.5 7.5q24.5 7.5 46.5 20.5zM325 584h-99l-129 188h116l43 -69l25 -63l24 62l50 70l108 0z" />
<glyph unicode="&#270;" horiz-adv-x="702" d="M65 700q22 3 50.5 5q28.5 2 59 3q30.5 1 59.5 1.5q29 0.5 52 0.5q100 0 171.5 -26.5q71.5 -26.5 117 -73.5q45.5 -47 66.5 -112q21 -65 21 -142q0 -70 -20.5 -136q-20.5 -66 -66.5 -117.5q-46 -51.5 -120 -82.5q-74 -31 -182 -31q-17 0 -46.5 1q-29.5 1 -61 2.5q-31.5 1.5 -59 3q-27.5 1.5 -41.5 3.5zM297 580q-23 0 -47 -0.5q-24 -0.5 -37 -2.5l0 -454q5 -1 15.5 -1.5q10.5 -0.5 22 -1q11.5 -0.5 22 -1q10.5 -0.5 15.5 -0.5q64 0 106 20q42 20 66.5 53q24.5 33 34.5 75q10 42 10 87q0 37 -9 77q-9 40 -32.5 73q-23.5 33 -63.5 54.5q-40 21.5 -103 21.5zt0 0zM360 736h-102l-138 93v41h114l57 -44l21 -30l22 29l62 45h109l0 -42z" />
<glyph unicode="&#271;" horiz-adv-x="628" d="M550 184q0 -42 1 -87q1 -45 9 -98l-97 0l-20 73h-13q-23 -40 -65.5 -63.5q-42.5 -23.5 -101.5 -23.5q-105 0 -163 65.5q-58 65.5 -58 202.5q0 66 16.5 119q16.5 53 49 90q32.5 37 80.5 57q48 20 111 20q35 0 60.5 -5.5q25.5 -5.5 50.5 -13.5l0 180h140zM299 102q47 0 73 21.5q26 21.5 38 61.5l0 210q-18 14 -38.5 20.5q-20.5 6.5 -53.5 6.5q-67 0 -99.5 -39q-32.5 -39 -32.5 -134q0 -66 27.5 -106.5q27.5 -40.5 85.5 -40.5zt0 0zM725 700q-2 -29 -13 -61q-11 -32 -26 -60.5q-15 -28.5 -31 -51.5q-16 -23 -28 -33l-63 35q19 36 28.5 80.5q9.5 44.5 9.5 90.5z" />
<glyph unicode="&#272;" horiz-adv-x="714" d="M-7 412h84v288q22 3 50.5 5q28.5 2 59 3q30.5 1 59.5 1.5q29 0.5 52 0.5q100 0 171.5 -26.5q71.5 -26.5 117 -73.5q45.5 -47 66.5 -112q21 -65 21 -142q0 -70 -20.5 -136q-20.5 -66 -66.5 -117.5q-46 -51.5 -120 -82.5q-74 -31 -182 -31q-17 0 -46.5 1q-29.5 1 -61 2.5q-31.5 1.5 -59 3q-27.5 1.5 -41.5 3.5l0 296h-84zM225 412h135v-117h-135v-172q5 -1 15.5 -1.5q10.5 -0.5 22 -1q11.5 -0.5 22 -1q10.5 -0.5 15.5 -0.5q64 0 106 20q42 20 66.5 53q24.5 33 34.5 75q10 42 10 87q0 37 -9 77q-9 40 -32.5 73q-23.5 33 -63.5 54.5q-40 21.5 -103 21.5q-23 0 -47 -0.5q-24 -0.5 -37 -2.5z" />
<glyph unicode="&#273;" horiz-adv-x="638" d="M550 656h88v-82h-88v-390q0 -42 1 -87q1 -45 9 -98l-97 0l-20 73h-13q-23 -40 -65.5 -63.5q-42.5 -23.5 -101.5 -23.5q-105 0 -163 65.5q-58 65.5 -58 202.5q0 66 16.5 119q16.5 53 49 90q32.5 37 80.5 57q48 20 111 20q35 0 60.5 -5.5q25.5 -5.5 50.5 -13.5l0 54h-170v82h170v44h140zM410 395q-18 14 -38.5 20.5q-20.5 6.5 -53.5 6.5q-67 0 -99.5 -39q-32.5 -39 -32.5 -134q0 -66 27.5 -106.5q27.5 -40.5 85.5 -40.5q47 0 73 21.5q26 21.5 38 61.5z" />
<glyph unicode="&#274;" horiz-adv-x="566" d="M65 700h451v-130h-303v-152h275v-130h-275v-158h308v-130h-456zM105 848h373v-92l-373 0z" />
<glyph unicode="&#275;" horiz-adv-x="594" d="M521 48q-34 -26 -92.5 -44.5q-58.5 -18.5 -125.5 -18.5q-135 0 -198 74q-63 74 -63 203q0 137 71 207.5q71 70.5 200 70.5q42 0 83 -10.5q41 -10.5 73 -35q32 -24.5 51.5 -66q19.5 -41.5 19.5 -102.5q0 -21 -2.5 -46q-2.5 -25 -8.5 -52l-350 0q5 -68 39.5 -100.5q34.5 -32.5 112.5 -32.5q47 0 84.5 13.5q37.5 13.5 57.5 27.5zM311 430q-62 0 -92 -33.5q-30 -33.5 -35 -85.5l226 0q4 55 -20 87q-24 32 -79 32zt0 0zM128 679h351v-95l-351 0z" />
<glyph unicode="&#278;" horiz-adv-x="566" d="M65 700h451v-130h-303v-152h275v-130h-275v-158h308v-130h-456zM209 799q0 25 23.5 43q23.5 18 70.5 18q47 0 71.5 -18q24.5 -18 24.5 -43q0 -27 -24.5 -45q-24.5 -18 -71.5 -18q-47 0 -70.5 18t-23.5 45z" />
<glyph unicode="&#279;" horiz-adv-x="594" d="M521 48q-34 -26 -92.5 -44.5q-58.5 -18.5 -125.5 -18.5q-135 0 -198 74q-63 74 -63 203q0 137 71 207.5q71 70.5 200 70.5q42 0 83 -10.5q41 -10.5 73 -35q32 -24.5 51.5 -66q19.5 -41.5 19.5 -102.5q0 -21 -2.5 -46q-2.5 -25 -8.5 -52l-350 0q5 -68 39.5 -100.5q34.5 -32.5 112.5 -32.5q47 0 84.5 13.5q37.5 13.5 57.5 27.5zM311 430q-62 0 -92 -33.5q-30 -33.5 -35 -85.5l226 0q4 55 -20 87q-24 32 -79 32zt0 0zM217 656q0 32 23 53.5q23 21.5 65 21.5q43 0 68 -22q25 -22 25 -53q0 -29 -25 -50q-25 -21 -68 -21q-42 0 -65 21t-23 50z" />
<glyph unicode="&#280;" horiz-adv-x="566" d="M65 700h451v-130h-303v-152h275v-130h-275v-158h308v-130h-24q-62 -27 -61 -74q0 -20 14 -33.5q14 -13.5 38 -13.5q11 0 21 2q10 2 23 9l22 -64q-18 -13 -53 -25q-35 -12 -76 -12q-61 0 -93 27q-32 27 -32 70q0 38 27.5 67.5q27.5 29.5 73.5 46.5l-336 0z" />
<glyph unicode="&#281;" horiz-adv-x="594" d="M521 48q-13 -10 -30 -19q-17 -9 -37 -17q-30 -15 -46 -35q-16 -20 -16 -52q0 -20 13 -33.5q13 -13.5 39 -13.5q19 0 42 10l21 -62q-9 -6 -22.5 -13q-13.5 -7 -30.5 -12q-17 -5 -35.5 -8.5q-18.5 -3.5 -37.5 -3.5q-64 0 -96.5 27q-32.5 27 -32.5 70q0 31 20 56q20 25 52 44q-5 -1 -10.5 -1q-5.5 0 -10.5 0q-135 0 -198 74q-63 74 -63 203q0 137 71 207.5q71 70.5 200 70.5q42 0 83 -10.5q41 -10.5 73 -35q32 -24.5 51.5 -66q19.5 -41.5 19.5 -102.5q0 -21 -2.5 -46q-2.5 -25 -8.5 -52l-350 0q5 -68 39.5 -100.5q34.5 -32.5 112.5 -32.5q47 0 84.5 13.5q37.5 13.5 57.5 27.5zM311 430q-62 0 -92 -33.5q-30 -33.5 -35 -85.5l226 0q4 55 -20 87t-79 32z" />
<glyph unicode="&#282;" horiz-adv-x="566" d="M65 700h451v-130h-303v-152h275v-130h-275v-158h308v-130h-456zM334 736h-102l-138 93v41h114l57 -44l21 -30l22 29l62 45h109l0 -42z" />
<glyph unicode="&#283;" horiz-adv-x="594" d="M521 48q-34 -26 -92.5 -44.5q-58.5 -18.5 -125.5 -18.5q-135 0 -198 74q-63 74 -63 203q0 137 71 207.5q71 70.5 200 70.5q42 0 83 -10.5q41 -10.5 73 -35q32 -24.5 51.5 -66q19.5 -41.5 19.5 -102.5q0 -21 -2.5 -46q-2.5 -25 -8.5 -52l-350 0q5 -68 39.5 -100.5q34.5 -32.5 112.5 -32.5q47 0 84.5 13.5q37.5 13.5 57.5 27.5zM311 430q-62 0 -92 -33.5q-30 -33.5 -35 -85.5l226 0q4 55 -20 87q-24 32 -79 32zt0 0zM346 584h-99l-129 188h116l43 -69l25 -63l24 62l50 70l108 0z" />
<glyph unicode="&#284;" horiz-adv-x="661" d="M331 368h286v-314q-23 -18 -50.5 -30.5q-27.5 -12.5 -58 -21q-30.5 -8.5 -62.5 -12.5q-32 -4 -63 -4q-72 0 -134.5 21q-62.5 21 -109 65.5q-46.5 44.5 -73 113.5q-26.5 69 -26.5 164q0 99 32 168.5q32 69.5 83.5 113q51.5 43.5 115 63q63.5 19.5 126.5 19.5q65 0 114.5 -9.5q49.5 -9.5 77.5 -18.5l-31 -123q-27 9 -61 15q-34 6 -85 6q-47 0 -86 -12.5q-39 -12.5 -68 -40.5q-29 -28 -45 -73q-16 -45 -16 -109q0 -62 16 -106q16 -44 43.5 -72.5q27.5 -28.5 63.5 -41.5q36 -13 76 -13q27 0 54.5 6q27.5 6 46.5 19l0 121l-166 16zM328 870h105l138 -92v-41h-108l-62 40l-22 34l-24 -33l-66 -41h-106l0 42z" />
<glyph unicode="&#285;" horiz-adv-x="619" d="M547 20q0 -116 -66 -171q-66 -55 -187 -55q-78 0 -125.5 10.5q-47.5 10.5 -73.5 23.5q13 40 19.5 63.5q6.5 23.5 9.5 35.5q3 12 4 15q1 3 1 3q24 -12 58 -24.5q34 -12.5 83 -12.5q41 0 68 8q27 8 43 23.5q16 15.5 22.5 37.5q6.5 22 6.5 49v39h-12q-20 -29 -55 -41q-35 -12 -87 -12q-107 0 -160.5 59q-53.5 59 -53.5 190q0 138 70.5 208q70.5 70 209.5 70q73 0 130.5 -9.5q57.5 -9.5 94.5 -21.5zM289 121q46 0 75.5 17q29.5 17 42.5 42l0 226q-37 16 -94 16q-61 0 -94 -36q-33 -36 -33 -119q0 -76 28 -111q28 -35 75 -35zt0 0zM273 752h92l125 -188h-110l-42 69l-24 64l-25 -63l-52 -70l-102 0z" />
<glyph unicode="&#286;" horiz-adv-x="661" d="M331 368h286v-314q-23 -18 -50.5 -30.5q-27.5 -12.5 -58 -21q-30.5 -8.5 -62.5 -12.5q-32 -4 -63 -4q-72 0 -134.5 21q-62.5 21 -109 65.5q-46.5 44.5 -73 113.5q-26.5 69 -26.5 164q0 99 32 168.5q32 69.5 83.5 113q51.5 43.5 115 63q63.5 19.5 126.5 19.5q65 0 114.5 -9.5q49.5 -9.5 77.5 -18.5l-31 -123q-27 9 -61 15q-34 6 -85 6q-47 0 -86 -12.5q-39 -12.5 -68 -40.5q-29 -28 -45 -73q-16 -45 -16 -109q0 -62 16 -106q16 -44 43.5 -72.5q27.5 -28.5 63.5 -41.5q36 -13 76 -13q27 0 54.5 6q27.5 6 46.5 19l0 121l-166 16zM210 876q23 -26 64 -38.5q41 -12.5 92 -12.5q52 0 90 14q38 14 59 37l53 -35q-13 -28 -34.5 -49q-21.5 -21 -49 -34.5q-27.5 -13.5 -58 -20.5q-30.5 -7 -61.5 -7q-29 0 -60 5.5q-31 5.5 -59.5 18q-28.5 12.5 -52.5 33q-24 20.5 -39 49.5z" />
<glyph unicode="&#287;" horiz-adv-x="619" d="M547 20q0 -116 -66 -171q-66 -55 -187 -55q-78 0 -125.5 10.5q-47.5 10.5 -73.5 23.5q13 40 19.5 63.5q6.5 23.5 9.5 35.5q3 12 4 15q1 3 1 3q24 -12 58 -24.5q34 -12.5 83 -12.5q41 0 68 8q27 8 43 23.5q16 15.5 22.5 37.5q6.5 22 6.5 49v39h-12q-20 -29 -55 -41q-35 -12 -87 -12q-107 0 -160.5 59q-53.5 59 -53.5 190q0 138 70.5 208q70.5 70 209.5 70q73 0 130.5 -9.5q57.5 -9.5 94.5 -21.5zM289 121q46 0 75.5 17q29.5 17 42.5 42l0 226q-37 16 -94 16q-61 0 -94 -36q-33 -36 -33 -119q0 -76 28 -111q28 -35 75 -35zt0 0zM184 728q23 -28 58.5 -43.5q35.5 -15.5 73.5 -15.5q38 0 71.5 15q33.5 15 52.5 44l64 -26q-5 -24 -21 -48q-16 -24 -41 -43q-25 -19 -57.5 -31q-32.5 -12 -69.5 -12q-73 0 -125 34.5q-52 34.5 -70 93.5z" />
<glyph unicode="&#290;" horiz-adv-x="661" d="M331 368h286v-314q-23 -18 -50.5 -30.5q-27.5 -12.5 -58 -21q-30.5 -8.5 -62.5 -12.5q-32 -4 -63 -4q-72 0 -134.5 21q-62.5 21 -109 65.5q-46.5 44.5 -73 113.5q-26.5 69 -26.5 164q0 99 32 168.5q32 69.5 83.5 113q51.5 43.5 115 63q63.5 19.5 126.5 19.5q65 0 114.5 -9.5q49.5 -9.5 77.5 -18.5l-31 -123q-27 9 -61 15q-34 6 -85 6q-47 0 -86 -12.5q-39 -12.5 -68 -40.5q-29 -28 -45 -73q-16 -45 -16 -109q0 -62 16 -106q16 -44 43.5 -72.5q27.5 -28.5 63.5 -41.5q36 -13 76 -13q27 0 54.5 6q27.5 6 46.5 19l0 121l-166 16zM297 -105q0 29 20 47q20 18 51 18q38 0 62 -24.5q24 -24.5 24 -65.5q0 -34 -12 -59.5q-12 -25.5 -29.5 -43q-17.5 -17.5 -36.5 -28.5q-19 -11 -33 -15l-36 60q15 6 29.5 16.5q14.5 10.5 16.5 31.5q-20 -1 -38 15t-18 48z" />
<glyph unicode="&#291;" horiz-adv-x="619" d="M547 20q0 -116 -66 -171q-66 -55 -187 -55q-78 0 -125.5 10.5q-47.5 10.5 -73.5 23.5q13 40 19.5 63.5q6.5 23.5 9.5 35.5q3 12 4 15q1 3 1 3q24 -12 58 -24.5q34 -12.5 83 -12.5q41 0 68 8q27 8 43 23.5q16 15.5 22.5 37.5q6.5 22 6.5 49v39h-12q-20 -29 -55 -41q-35 -12 -87 -12q-107 0 -160.5 59q-53.5 59 -53.5 190q0 138 70.5 208q70.5 70 209.5 70q73 0 130.5 -9.5q57.5 -9.5 94.5 -21.5zM289 121q46 0 75.5 17q29.5 17 42.5 42l0 226q-37 16 -94 16q-61 0 -94 -36q-33 -36 -33 -119q0 -76 28 -111q28 -35 75 -35zt0 0zM407 649q0 -29 -20 -47q-20 -18 -51 -18q-38 0 -62 24.5q-24 24.5 -24 65.5q0 34 12 59.5q12 25.5 29.5 43q17.5 17.5 36.5 28.5q19 11 33 15l36 -60q-15 -6 -29.5 -16.5q-14.5 -10.5 -16.5 -31.5q20 1 38 -15t18 -48z" />
<glyph unicode="&#292;" horiz-adv-x="706" d="M493 289h-280v-289h-148v700h148v-281h280v281h148v-700h-148zM302 870h105l138 -92v-41h-108l-62 40l-22 34l-24 -33l-66 -41h-106l0 42z" />
<glyph unicode="&#293;" horiz-adv-x="638" d="M426 0v289q0 68 -20.5 97.5q-20.5 29.5 -75.5 29.5q-40 0 -73.5 -25.5q-33.5 -25.5 -44.5 -67.5l0 -323h-140v700h140v-239h12q27 35 67.5 57q40.5 22 102.5 22q43 0 75 -10.5q32 -10.5 53.5 -36q21.5 -25.5 32.5 -68q11 -42.5 11 -105.5v-320zM103 870h105l138 -92v-41h-108l-62 40l-22 34l-24 -33l-66 -41h-106l0 42z" />
<glyph unicode="&#294;" horiz-adv-x="742" d="M2 601h82v99h148v-99h280v99h148v-99h80v-86h-80v-515h-148v289h-280v-289h-148v515h-82zM512 419v96h-280l0 -96z" />
<glyph unicode="&#295;" horiz-adv-x="652" d="M0 642h86v58h140v-58h171v-83h-171v-98h12q27 35 67.5 57q40.5 22 102.5 22q43 0 75 -10.5q32 -10.5 53.5 -36q21.5 -25.5 32.5 -68q11 -42.5 11 -105.5v-320h-140v289q0 68 -20.5 97.5q-20.5 29.5 -75.5 29.5q-40 0 -73.5 -25.5q-33.5 -25.5 -44.5 -67.5l0 -323h-140v559l-86 0z" />
<glyph unicode="&#298;" horiz-adv-x="388" d="M120 620h-80v80h308v-80h-80v-540h80v-80h-308v80h80zM8 848h373v-92l-373 0z" />
<glyph unicode="&#299;" horiz-adv-x="317" d="M89 525h140v-525h-140zM-17 679h351v-95l-351 0z" />
<glyph unicode="&#302;" horiz-adv-x="388" d="M120 620h-80v80h308v-80h-80v-540h80v-80h-51q-62 -27 -61 -74q0 -20 14 -33.5q14 -13.5 38 -13.5q11 0 21 2q10 2 23 9l22 -64q-18 -13 -53 -25q-35 -12 -76 -12q-61 0 -93 27q-32 27 -32 70q0 38 27.5 67.5q27.5 29.5 73.5 46.5l-161 0v80l80 0z" />
<glyph unicode="&#303;" horiz-adv-x="317" d="M89 525h140v-525h-10q-62 -27 -61 -74q0 -20 14 -33.5q14 -13.5 38 -13.5q11 0 21 2q10 2 23 9l22 -64q-18 -13 -53 -25q-35 -12 -76 -12q-61 0 -93 27q-32 27 -32 70q0 38 27.5 67.5q27.5 29.5 73.5 46.5l-34 0zM68 636q0 32 23 53.5q23 21.5 65 21.5q43 0 68 -22q25 -22 25 -53q0 -29 -25 -50q-25 -21 -68 -21q-42 0 -65 21t-23 50z" />
<glyph unicode="&#304;" horiz-adv-x="388" d="M120 620h-80v80h308v-80h-80v-540h80v-80h-308v80h80zM99 799q0 25 23.5 43q23.5 18 70.5 18q47 0 71.5 -18q24.5 -18 24.5 -43q0 -27 -24.5 -45q-24.5 -18 -71.5 -18q-47 0 -70.5 18t-23.5 45z" />
<glyph unicode="&#305;" horiz-adv-x="317" d="M89 525h140v-525l-140 0z" />
<glyph unicode="&#308;" horiz-adv-x="362" d="M143 700h148v-510q0 -37 -10 -73q-10 -36 -31.5 -65q-21.5 -29 -56.5 -47q-35 -18 -85 -18q-32 0 -68.5 6.5q-36.5 6.5 -64.5 18.5l32 118q29 -13 64 -13q23 0 37 8.5q14 8.5 22 24q8 15.5 10.5 36.5q2.5 21 2.5 45zM166 870h105l138 -92v-41h-108l-62 40l-22 34l-24 -33l-66 -41h-106l0 42z" />
<glyph unicode="&#309;" horiz-adv-x="317" d="M91 525h140v-549q0 -95 -39 -146q-39 -51 -126 -51q-34 0 -72 7l0 117q31 -3 50 4q19 7 29.5 22q10.5 15 14 37q3.5 22 3.5 51zM119 752h92l125 -188h-110l-42 69l-24 64l-25 -63l-52 -70l-102 0z" />
<glyph unicode="&#310;" horiz-adv-x="671" d="M252 296h-39v-296h-148v700h148v-308l35 15l210 293h169l-222 -293l-58 -38l60 -40l254 -329h-183zM238 -105q0 29 20 47q20 18 51 18q38 0 62 -24.5q24 -24.5 24 -65.5q0 -34 -12 -59.5q-12 -25.5 -29.5 -43q-17.5 -17.5 -36.5 -28.5q-19 -11 -33 -15l-36 60q15 6 29.5 16.5q14.5 10.5 16.5 31.5q-20 -1 -38 15t-18 48z" />
<glyph unicode="&#311;" horiz-adv-x="564" d="M260 218h-48v-218h-140v700h140v-402l44 19l131 208h154l-134 -191h1l-64 -46l67 -44h-1l154 -244h-162zM207 -105q0 29 20 47q20 18 51 18q38 0 62 -24.5q24 -24.5 24 -65.5q0 -34 -12 -59.5q-12 -25.5 -29.5 -43q-17.5 -17.5 -36.5 -28.5q-19 -11 -33 -15l-36 60q15 6 29.5 16.5q14.5 10.5 16.5 31.5q-20 -1 -38 15t-18 48z" />
<glyph unicode="&#313;" horiz-adv-x="557" d="M547 0h-482v700h148v-570h334zM231 870h172v-31l-174 -87l-112 0z" />
<glyph unicode="&#314;" horiz-adv-x="337" d="M215 184q0 -76 49 -76q14 0 26.5 2.5q12.5 2.5 29.5 8.5l17 -109q-20 -9 -56.5 -17.5q-36.5 -8.5 -75.5 -8.5q-63 0 -96.5 28q-33.5 28 -33.5 92v596h140zM191 870h172v-31l-174 -87l-112 0z" />
<glyph unicode="&#315;" horiz-adv-x="557" d="M547 0h-482v700h148v-570h334zM196 -105q0 29 20 47q20 18 51 18q38 0 62 -24.5q24 -24.5 24 -65.5q0 -34 -12 -59.5q-12 -25.5 -29.5 -43q-17.5 -17.5 -36.5 -28.5q-19 -11 -33 -15l-36 60q15 6 29.5 16.5q14.5 10.5 16.5 31.5q-20 -1 -38 15t-18 48z" />
<glyph unicode="&#316;" horiz-adv-x="337" d="M215 184q0 -76 49 -76q14 0 26.5 2.5q12.5 2.5 29.5 8.5l17 -109q-20 -9 -56.5 -17.5q-36.5 -8.5 -75.5 -8.5q-63 0 -96.5 28q-33.5 28 -33.5 92v596h140zM105 -105q0 29 20 47q20 18 51 18q38 0 62 -24.5q24 -24.5 24 -65.5q0 -34 -12 -59.5q-12 -25.5 -29.5 -43q-17.5 -17.5 -36.5 -28.5q-19 -11 -33 -15l-36 60q15 6 29.5 16.5q14.5 10.5 16.5 31.5q-20 -1 -38 15t-18 48z" />
<glyph unicode="&#317;" horiz-adv-x="557" d="M547 0h-482v700h148v-570h334zM499 700q-2 -29 -13 -61q-11 -32 -26 -60.5q-15 -28.5 -31 -51.5q-16 -23 -28 -33l-63 35q19 36 28.5 80.5q9.5 44.5 9.5 90.5z" />
<glyph unicode="&#318;" horiz-adv-x="337" d="M215 184q0 -76 49 -76q14 0 26.5 2.5q12.5 2.5 29.5 8.5l17 -109q-20 -9 -56.5 -17.5q-36.5 -8.5 -75.5 -8.5q-63 0 -96.5 28q-33.5 28 -33.5 92v596h140zM396 700q-2 -29 -13 -61q-11 -32 -26 -60.5q-15 -28.5 -31 -51.5q-16 -23 -28 -33l-63 35q19 36 28.5 80.5q9.5 44.5 9.5 90.5z" />
<glyph unicode="&#321;" horiz-adv-x="569" d="M2 321l75 46v333h148v-241l108 67v-129l-108 -66v-201h334v-130h-482v241l-75 -45z" />
<glyph unicode="&#322;" horiz-adv-x="359" d="M0 309l97 60v331h140v-245l94 59v-129l-94 -58v-143q0 -76 48 -76q25 0 57 11l17 -109q-20 -9 -56.5 -17.5q-36.5 -8.5 -75.5 -8.5q-63 0 -96.5 28q-33.5 28 -33.5 92v139l-97 -59z" />
<glyph unicode="&#323;" horiz-adv-x="713" d="M254 365l-60 105h-5l16 -106v-364h-140v705h107l289 -373l57 -102h6l-16 103v367h140v-705h-107zM393 870h172v-31l-174 -87l-112 0z" />
<glyph unicode="&#324;" horiz-adv-x="638" d="M426 0v288q0 68 -21 98q-21 30 -74 30q-45 0 -76.5 -24.5q-31.5 -24.5 -43.5 -62.5q0 -82 0.5 -164.5q0.5 -82.5 0.5 -164.5l-140 0v525h110l15 -75h15q26 37 69 63.5q43 26.5 112 26.5q42 0 74.5 -10.5q32.5 -10.5 54 -36q21.5 -25.5 33 -68.5q11.5 -43 11.5 -108v-317zM334 729h142v-29l-126 -129l-76 0z" />
<glyph unicode="&#325;" horiz-adv-x="713" d="M254 365l-60 105h-5l16 -106v-364h-140v705h107l289 -373l57 -102h6l-16 103v367h140v-705h-107zM272 -105q0 29 20 47q20 18 51 18q38 0 62 -24.5q24 -24.5 24 -65.5q0 -34 -12 -59.5q-12 -25.5 -29.5 -43q-17.5 -17.5 -36.5 -28.5q-19 -11 -33 -15l-36 60q15 6 29.5 16.5q14.5 10.5 16.5 31.5q-20 -1 -38 15t-18 48z" />
<glyph unicode="&#326;" horiz-adv-x="638" d="M426 0v288q0 68 -21 98q-21 30 -74 30q-45 0 -76.5 -24.5q-31.5 -24.5 -43.5 -62.5q0 -82 0.5 -164.5q0.5 -82.5 0.5 -164.5l-140 0v525h110l15 -75h15q26 37 69 63.5q43 26.5 112 26.5q42 0 74.5 -10.5q32.5 -10.5 54 -36q21.5 -25.5 33 -68.5q11.5 -43 11.5 -108v-317zM229 -105q0 29 20 47q20 18 51 18q38 0 62 -24.5q24 -24.5 24 -65.5q0 -34 -12 -59.5q-12 -25.5 -29.5 -43q-17.5 -17.5 -36.5 -28.5q-19 -11 -33 -15l-36 60q15 6 29.5 16.5q14.5 10.5 16.5 31.5q-20 -1 -38 15t-18 48z" />
<glyph unicode="&#327;" horiz-adv-x="713" d="M254 365l-60 105h-5l16 -106v-364h-140v705h107l289 -373l57 -102h6l-16 103v367h140v-705h-107zM410 736h-102l-138 93v41h114l57 -44l21 -30l22 29l62 45h109l0 -42z" />
<glyph unicode="&#328;" horiz-adv-x="638" d="M426 0v288q0 68 -21 98q-21 30 -74 30q-45 0 -76.5 -24.5q-31.5 -24.5 -43.5 -62.5q0 -82 0.5 -164.5q0.5 -82.5 0.5 -164.5l-140 0v525h110l15 -75h15q26 37 69 63.5q43 26.5 112 26.5q42 0 74.5 -10.5q32.5 -10.5 54 -36q21.5 -25.5 33 -68.5q11.5 -43 11.5 -108v-317zM367 584h-99l-129 188h116l43 -69l25 -63l24 62l50 70l108 0z" />
<glyph unicode="&#332;" horiz-adv-x="727" d="M40 350q0 86 22 154q22 68 63.5 114.5q41.5 46.5 101.5 71q60 24.5 136 24.5q81 0 141.5 -26.5q60.5 -26.5 101 -74.5q40.5 -48 61 -115q20.5 -67 20.5 -148q0 -86 -22.5 -154q-22.5 -68 -64.5 -114.5q-42 -46.5 -102 -71q-60 -24.5 -135 -24.5q-81 0 -141.5 26.5q-60.5 26.5 -101 74.5q-40.5 48 -60.5 115q-20 67 -20 148zt0 0zM197 350q0 -52 10 -95q10 -43 30 -74q20 -31 51.5 -48q31.5 -17 74.5 -17q79 0 123 54q44 54 44 180q0 50 -9 93q-9 43 -29.5 74.5q-20.5 31.5 -52 49q-31.5 17.5 -76.5 17.5q-78 0 -122 -56q-44 -56 -44 -178zt0 0zM177 848h373v-92l-373 0z" />
<glyph unicode="&#333;" horiz-adv-x="616" d="M42 262q0 130 69 204q69 74 197 74q67 0 117 -21q50 -21 83 -58.5q33 -37.5 49.5 -88q16.5 -50.5 16.5 -110.5q0 -64 -18 -115.5q-18 -51.5 -52 -87.5q-34 -36 -83.5 -55q-49.5 -19 -112.5 -19q-68 0 -118 21q-50 21 -83 58.5q-33 37.5 -49 88q-16 50.5 -16 109.5zt0 0zM186 262q0 -33 7 -62q7 -29 21.5 -50.5q14.5 -21.5 37.5 -34.5q23 -13 56 -13q122 0 122 160q0 35 -6.5 64.5q-6.5 29.5 -21 51q-14.5 21.5 -38 33.5q-23.5 12 -56.5 12q-57 0 -89.5 -38q-32.5 -38 -32.5 -123zt0 0zM133 679h351v-95l-351 0z" />
<glyph unicode="&#336;" horiz-adv-x="727" d="M40 350q0 86 22 154q22 68 63.5 114.5q41.5 46.5 101.5 71q60 24.5 136 24.5q81 0 141.5 -26.5q60.5 -26.5 101 -74.5q40.5 -48 61 -115q20.5 -67 20.5 -148q0 -86 -22.5 -154q-22.5 -68 -64.5 -114.5q-42 -46.5 -102 -71q-60 -24.5 -135 -24.5q-81 0 -141.5 26.5q-60.5 26.5 -101 74.5q-40.5 48 -60.5 115q-20 67 -20 148zt0 0zM197 350q0 -52 10 -95q10 -43 30 -74q20 -31 51.5 -48q31.5 -17 74.5 -17q79 0 123 54q44 54 44 180q0 50 -9 93q-9 43 -29.5 74.5q-20.5 31.5 -52 49q-31.5 17.5 -76.5 17.5q-78 0 -122 -56q-44 -56 -44 -178zt0 0zM270 850h145v-16l-109 -93h-101zM485 850h151v-16l-155 -93l-102 0z" />
<glyph unicode="&#337;" horiz-adv-x="616" d="M42 262q0 130 69 204q69 74 197 74q67 0 117 -21q50 -21 83 -58.5q33 -37.5 49.5 -88q16.5 -50.5 16.5 -110.5q0 -64 -18 -115.5q-18 -51.5 -52 -87.5q-34 -36 -83.5 -55q-49.5 -19 -112.5 -19q-68 0 -118 21q-50 21 -83 58.5q-33 37.5 -49 88q-16 50.5 -16 109.5zt0 0zM186 262q0 -33 7 -62q7 -29 21.5 -50.5q14.5 -21.5 37.5 -34.5q23 -13 56 -13q122 0 122 160q0 35 -6.5 64.5q-6.5 29.5 -21 51q-14.5 21.5 -38 33.5q-23.5 12 -56.5 12q-57 0 -89.5 -38q-32.5 -38 -32.5 -123zt0 0zM210 738h127v-14l-85 -117h-81zM414 738h137v-14l-134 -117l-84 0z" />
<glyph unicode="&#338;" horiz-adv-x="993" d="M492 558q-23 11 -56 18.5q-33 7.5 -74 7.5q-78 0 -121.5 -56.5q-43.5 -56.5 -43.5 -177.5q0 -52 9.5 -95q9.5 -43 30.5 -74q21 -31 54 -48q33 -17 80 -17q32 0 60.5 3.5q28.5 3.5 60.5 16.5zM492 0q-10 -3 -25 -6q-15 -3 -32 -4.5q-17 -1.5 -35 -2.5q-18 -1 -35 -1q-82 0 -143 26.5q-61 26.5 -101.5 74.5q-40.5 48 -60.5 115q-20 67 -20 148q0 86 22 154q22 68 63.5 114.5q41.5 46.5 102 71q60.5 24.5 137.5 24.5q44 0 74 -4.5q30 -4.5 53 -9.5l451 0v-130h-303v-152h275v-130h-275v-158h308l0 -130z" />
<glyph unicode="&#339;" horiz-adv-x="978" d="M186 262q0 -33 7 -62.5q7 -29.5 21.5 -51q14.5 -21.5 37.5 -34q23 -12.5 56 -12.5q61 0 91.5 39q30.5 39 30.5 121q0 36 -6.5 65.5q-6.5 29.5 -21 50.5q-14.5 21 -38 33q-23.5 12 -56.5 12q-57 0 -89.5 -38q-32.5 -38 -32.5 -123zt0 0zM491 63q-28 -34 -72 -56q-44 -22 -109 -22q-69 0 -119.5 21q-50.5 21 -83.5 57.5q-33 36.5 -49 87.5q-16 51 -16 111q0 132 69 205q69 73 197 73q37 0 67.5 -7q30.5 -7 54.5 -18q24 -11 42.5 -25q18.5 -14 32.5 -27q28 31 74.5 54q46.5 23 118.5 23q42 0 83 -10.5q41 -10.5 72.5 -35q31.5 -24.5 51 -66q19.5 -41.5 19.5 -102.5q0 -22 -2.5 -46.5q-2.5 -24.5 -8.5 -51.5l-348 0q4 -66 39.5 -99q35.5 -33 113.5 -33q44 0 81.5 12.5q37.5 12.5 58.5 25.5l47 -87q-34 -25 -91.5 -43.5q-57.5 -18.5 -123.5 -18.5q-125 0 -191 78zM696 429q-63 0 -92.5 -31.5q-29.5 -31.5 -34.5 -86.5l226 0q4 57 -21 87.5t-78 30.5z" />
<glyph unicode="&#340;" horiz-adv-x="652" d="M65 693q24 4 52.5 7.5q28.5 3.5 57.5 5.5q29 2 56.5 3q27.5 1 50.5 1q53 0 104.5 -9q51.5 -9 92 -31q40.5 -22 65.5 -60.5q25 -38.5 25 -96.5q0 -86 -42.5 -141.5q-42.5 -55.5 -117.5 -75.5l53 -31l175 -265h-172l-174 271l-78 12v-283h-148zM292 580q-23 0 -44.5 -0.5q-21.5 -0.5 -34.5 -3.5l0 -193h63q63 0 99.5 24q36.5 24 36.5 83q0 44 -31 67q-31 23 -89 23zt0 0zM317 870h172v-31l-174 -87l-112 0z" />
<glyph unicode="&#341;" horiz-adv-x="406" d="M382 397q-30 10 -60 10q-44 0 -72.5 -21q-28.5 -21 -37.5 -53l0 -333h-140v525h110l15 -73h13q20 41 53.5 63q33.5 22 76.5 22q27 0 62 -11zM211 729h142v-29l-126 -129l-76 0z" />
<glyph unicode="&#342;" horiz-adv-x="652" d="M65 693q24 4 52.5 7.5q28.5 3.5 57.5 5.5q29 2 56.5 3q27.5 1 50.5 1q53 0 104.5 -9q51.5 -9 92 -31q40.5 -22 65.5 -60.5q25 -38.5 25 -96.5q0 -86 -42.5 -141.5q-42.5 -55.5 -117.5 -75.5l53 -31l175 -265h-172l-174 271l-78 12v-283h-148zM292 580q-23 0 -44.5 -0.5q-21.5 -0.5 -34.5 -3.5l0 -193h63q63 0 99.5 24q36.5 24 36.5 83q0 44 -31 67q-31 23 -89 23zt0 0zM245 -105q0 29 20 47q20 18 51 18q38 0 62 -24.5q24 -24.5 24 -65.5q0 -34 -12 -59.5q-12 -25.5 -29.5 -43q-17.5 -17.5 -36.5 -28.5q-19 -11 -33 -15l-36 60q15 6 29.5 16.5q14.5 10.5 16.5 31.5q-20 -1 -38 15t-18 48z" />
<glyph unicode="&#343;" horiz-adv-x="406" d="M382 397q-30 10 -60 10q-44 0 -72.5 -21q-28.5 -21 -37.5 -53l0 -333h-140v525h110l15 -73h13q20 41 53.5 63q33.5 22 76.5 22q27 0 62 -11zM105 -105q0 29 20 47q20 18 51 18q38 0 62 -24.5q24 -24.5 24 -65.5q0 -34 -12 -59.5q-12 -25.5 -29.5 -43q-17.5 -17.5 -36.5 -28.5q-19 -11 -33 -15l-36 60q15 6 29.5 16.5q14.5 10.5 16.5 31.5q-20 -1 -38 15t-18 48z" />
<glyph unicode="&#344;" horiz-adv-x="652" d="M65 693q24 4 52.5 7.5q28.5 3.5 57.5 5.5q29 2 56.5 3q27.5 1 50.5 1q53 0 104.5 -9q51.5 -9 92 -31q40.5 -22 65.5 -60.5q25 -38.5 25 -96.5q0 -86 -42.5 -141.5q-42.5 -55.5 -117.5 -75.5l53 -31l175 -265h-172l-174 271l-78 12v-283h-148zM292 580q-23 0 -44.5 -0.5q-21.5 -0.5 -34.5 -3.5l0 -193h63q63 0 99.5 24q36.5 24 36.5 83q0 44 -31 67q-31 23 -89 23zt0 0zM330 736h-102l-138 93v41h114l57 -44l21 -30l22 29l62 45h109l0 -42z" />
</font>
</defs>
</svg>
