<?xml version="1.0" standalone="no"?>
<!DOCTYPE svg PUBLIC "-//W3C//DTD SVG 1.1//EN" "http://www.w3.org/Graphics/SVG/1.1/DTD/svg11.dtd" >
<svg xmlns="http://www.w3.org/2000/svg">
<metadata>
Generated by SVGconv.
Copyright   : Copyright  2010 ParaType Ltd. All rights reserved.
Designer    : A.Korolkova, O.Umpeleva, V.Yefimov
Foundry     : ParaType Ltd
Foundry URL : http://www.paratype.com
</metadata>
<defs>
<font id="PTSerif-Bold" horiz-adv-x="600" >
<font-face units-per-em="1000" ascent="1039" descent="286" />
<missing-glyph horiz-adv-x="709" />
<glyph unicode="&#32;" horiz-adv-x="270" />
<glyph unicode="&#33;" horiz-adv-x="344" d="M172 218l-50 194v278q10 6 30 8.5q20 2.5 42 2.5q22 0 41.5 -2.5q19.5 -2.5 30.5 -8.5l0 -278l-50 -194zM110 71q0 36 23.5 58q23.5 22 61.5 22q38 0 62 -22q24 -22 24 -58q0 -36 -24 -57.5q-24 -21.5 -62 -21.5q-38 0 -61.5 21.5t-23.5 57.5z" />
<glyph unicode="&#34;" horiz-adv-x="416" d="M221 670q5 13 23.5 21.5q18.5 8.5 41.5 8.5q21 0 40.5 -7.5q19.5 -7.5 24.5 -22.5l-46 -184h-38zM65 670q5 13 23.5 21.5q18.5 8.5 41.5 8.5q21 0 40.5 -7.5q19.5 -7.5 24.5 -22.5l-46 -184l-38 0z" />
<glyph unicode="&#35;" horiz-adv-x="565" d="M314 220h-124l-38 -162h-71l38 162h-81l19 64h77l31 132h-77l19 64h74l39 162h70l-38 -162h124l39 162h70l-39 -162h79l-22 -64h-73l-31 -132h76l-22 -64h-69l-38 -162h-70zM205 284h124l31 132l-124 0z" />
<glyph unicode="&#36;" horiz-adv-x="565" d="M246 -12q-30 0 -60 4.5q-30 4.5 -56 11.5q-26 7 -46 15.5q-20 8.5 -30 17.5q2 39 10.5 77.5q8.5 38.5 16.5 60.5l42 0l51 -97q10 -8 26.5 -15.5q16.5 -7.5 45.5 -9.5l0 253q-2 1 -4.5 1.5q-2.5 0.5 -4.5 2.5l-23 10q-31 13 -60 31.5q-29 18.5 -52 43q-23 24.5 -37 57.5q-14 33 -14 75q0 41 14.5 73.5q14.5 32.5 40.5 55.5q26 23 62 37q36 14 78 17l0 50h70v-49q48 -2 86.5 -11q38.5 -9 73.5 -24q0 -15 -2.5 -31.5q-2.5 -16.5 -6.5 -32q-4 -15.5 -9 -28.5q-5 -13 -9 -20l-41 0l-51 77q-8 2 -17.5 3.5q-9.5 1.5 -23.5 1.5l0 -240l38 -16q30 -14 60 -31.5q30 -17.5 53.5 -41.5q23.5 -24 38 -56q14.5 -32 14.5 -76q0 -79 -52 -130q-52 -51 -152 -64l0 -61h-70zM390 166q0 43 -24 68.5q-24 25.5 -60 44.5l0 -221q40 11 62 38q22 27 22 70zt0 0zM175 546q0 -42 23 -67.5q23 -25.5 58 -44.5l0 210q-38 -5 -59.5 -30.5t-21.5 -67.5z" />
<glyph unicode="&#37;" horiz-adv-x="848" d="M691 715l48 -42l-585 -686l-47 43zM42 542q0 39 14 70q14 31 39.5 53.5q25.5 22.5 60.5 34.5q35 12 78 12q43 0 78.5 -10.5q35.5 -10.5 60.5 -31.5q25 -21 39 -53q14 -32 14 -75q0 -39 -14 -70.5q-14 -31.5 -39 -53.5q-25 -22 -60.5 -34q-35.5 -12 -78.5 -12q-43 0 -78 10.5q-35 10.5 -60.5 31.5q-25.5 21 -39.5 53q-14 32 -14 75zt0 0zM162 542q0 -119 72 -119q35 0 53.5 26.5q18.5 26.5 18.5 92.5q0 66 -18.5 92.5q-18.5 26.5 -53.5 26.5q-37 0 -54.5 -26.5q-17.5 -26.5 -17.5 -92.5zt0 0zM422 158q0 39 14 70q14 31 39.5 53.5q25.5 22.5 60.5 34.5q35 12 78 12q43 0 78.5 -10.5q35.5 -10.5 60.5 -31.5q25 -21 39 -53q14 -32 14 -75q0 -39 -14 -70.5q-14 -31.5 -39 -53.5q-25 -22 -60.5 -34q-35.5 -12 -78.5 -12q-43 0 -78 10.5q-35 10.5 -60.5 31.5q-25.5 21 -39.5 53q-14 32 -14 75zt0 0zM542 158q0 -119 72 -119q35 0 53.5 26.5q18.5 26.5 18.5 92.5q0 66 -18.5 92.5q-18.5 26.5 -53.5 26.5q-37 0 -54.5 -26.5t-17.5 -92.5z" />
<glyph unicode="&#38;" horiz-adv-x="896" d="M529 116q-32 27 -65 62q-33 35 -62.5 71q-29.5 36 -53.5 70q-24 34 -38 58q-29 -36 -42 -68.5q-13 -32.5 -13 -76.5q0 -37 12 -68q12 -31 33.5 -53.5q21.5 -22.5 50.5 -35q29 -12.5 63 -12.5q30 0 61.5 12.5q31.5 12.5 53.5 40.5zt0 0zM324 582q0 -15 6 -33q6 -18 15.5 -36q9.5 -18 21 -35q11.5 -17 22.5 -30q34 26 50 63q16 37 14 79q-2 28 -17.5 47.5q-15.5 19.5 -47.5 19.5q-33 0 -48.5 -23q-15.5 -23 -15.5 -52zt0 0zM676 0q-20 12 -47 28.5q-27 16.5 -53 42.5q-31 -32 -87 -57.5q-56 -25.5 -128 -25.5q-67 0 -115.5 18.5q-48.5 18.5 -79.5 48q-31 29.5 -46 66.5q-15 37 -15 75q0 46 17.5 84.5q17.5 38.5 42.5 68.5q25 30 53.5 51.5q28.5 21.5 49.5 33.5q-25 27 -43 65q-18 38 -18 75q0 25 10.5 50q10.5 25 32 44.5q21.5 19.5 53 31.5q31.5 12 73.5 12q72 0 117 -32q45 -32 45 -92q0 -29 -10 -55q-10 -26 -26.5 -49q-16.5 -23 -38 -43.5q-21.5 -20.5 -45.5 -37.5q69 -95 189 -202q8 11 18 37q10 26 17 59q7 33 9 70q2 37 -6 70q-16 3 -28 9q-12 6 -25 15l0 39h228v-39q-27 -17 -66 -24q-5 -43 -15 -85q-10 -42 -23.5 -79q-13.5 -37 -28.5 -66q-15 -29 -30 -45q35 -31 71 -55q36 -24 71 -44l51 -24l0 -39z" />
<glyph unicode="&#39;" horiz-adv-x="240" d="M65 670q5 13 23.5 21.5q18.5 8.5 41.5 8.5q21 0 40.5 -7.5q19.5 -7.5 24.5 -22.5l-46 -184l-38 0z" />
<glyph unicode="&#40;" horiz-adv-x="375" d="M327 -210q-48 29 -97.5 67.5q-49.5 38.5 -89.5 92.5q-40 54 -65 125.5q-25 71.5 -25 167.5q0 87 23.5 156.5q23.5 69.5 62.5 125q39 55.5 89.5 99q50.5 43.5 104.5 78.5l30 -31q-40 -43 -71.5 -86.5q-31.5 -43.5 -53.5 -94.5q-22 -51 -33.5 -111q-11.5 -60 -11.5 -136q0 -73 12.5 -134q12.5 -61 35 -112.5q22.5 -51.5 54 -94.5q31.5 -43 68.5 -79z" />
<glyph unicode="&#41;" horiz-adv-x="375" d="M15 -177q37 36 68 80.5q31 44.5 53.5 98q22.5 53.5 35 116q12.5 62.5 12.5 135.5q0 76 -11.5 135.5q-11.5 59.5 -33 108.5q-21.5 49 -53 91q-31.5 42 -71.5 83l30 31q57 -33 107.5 -76q50.5 -43 89 -98q38.5 -55 61 -123q22.5 -68 22.5 -152q0 -85 -20.5 -155.5q-20.5 -70.5 -57 -127.5q-36.5 -57 -87.5 -101.5q-51 -44.5 -112 -78.5z" />
<glyph unicode="&#42;" horiz-adv-x="463" d="M58 597q-6 8 -2.5 24.5q3.5 16.5 12.5 33q9 16.5 22 29q13 12.5 25 13.5l91 -106q0 -15 -13 -22zM118 429q-11 0 -23.5 12.5q-12.5 12.5 -22.5 29q-10 16.5 -15 33.5q-5 17 0 26l135 26q14 -8 14 -21zM291 395q-4 -8 -20.5 -12.5q-16.5 -4.5 -35.5 -5q-19 -0.5 -36 3.5q-17 4 -22 12l43 131q14 8 27 0zM405 530q6 -11 2.5 -28q-3.5 -17 -12 -33q-8.5 -16 -21 -27.5q-12.5 -11.5 -24.5 -11.5l-88 103q0 13 12 21zM352 696q12 1 23.5 -9.5q11.5 -10.5 19.5 -26q8 -15.5 11.5 -33q3.5 -17.5 0.5 -29.5l-134 -30q-12 9 -12 22zM177 731q4 9 20 14q16 5 35 5q19 0 35.5 -4.5q16.5 -4.5 21.5 -14.5l-43 -131q-13 -8 -26 0z" />
<glyph unicode="&#43;" horiz-adv-x="565" d="M57 384h185v196h80v-196h185v-80h-185v-202h-80v202l-185 0z" />
<glyph unicode="&#44;" horiz-adv-x="306" d="M53 -131q20 6 36 18q16 12 27.5 27q11.5 15 17.5 32q6 17 5 33q-14 18 -33.5 29q-19.5 11 -41.5 18q-5 21 -1.5 42q3.5 21 13.5 39q10 18 23.5 30.5q13.5 12.5 28.5 15.5q21 -1 41 -9.5q20 -8.5 36 -24q16 -15.5 25.5 -39.5q9.5 -24 9.5 -56q0 -31 -12.5 -63q-12.5 -32 -34 -59.5q-21.5 -27.5 -51.5 -48q-30 -20.5 -66 -28.5z" />
<glyph unicode="&#45;" horiz-adv-x="414" d="M66 327h282v-90l-282 0z" />
<glyph unicode="&#46;" horiz-adv-x="296" d="M63 71q0 36 23 58q23 22 61 22q38 0 62 -22q24 -22 24 -58q0 -36 -24 -57.5q-24 -21.5 -62 -21.5q-38 0 -61 21.5t-23 57.5z" />
<glyph unicode="&#47;" horiz-adv-x="344" d="M318 716l60 -25l-365 -824l-59 26z" />
<glyph unicode="&#48;" horiz-adv-x="565" d="M23 350q0 90 19.5 157.5q19.5 67.5 54 113q34.5 45.5 82 68.5q47.5 23 103.5 23q120 0 190 -90.5q70 -90.5 70 -271.5q0 -90 -19.5 -157.5q-19.5 -67.5 -55 -113q-35.5 -45.5 -84.5 -68.5q-49 -23 -107 -23q-61 0 -108 24.5q-47 24.5 -79.5 71q-32.5 46.5 -49 113.5q-16.5 67 -16.5 153zt0 0zM173 350q0 -72 4.5 -129q4.5 -57 16.5 -96.5q12 -39.5 31.5 -60.5q19.5 -21 49.5 -21q35 0 57.5 17q22.5 17 36 54q13.5 37 18.5 95q5 58 5 141q0 72 -4 129q-4 57 -15.5 96.5q-11.5 39.5 -33 60.5q-21.5 21 -57.5 21q-32 0 -53 -17q-21 -17 -33.5 -54q-12.5 -37 -17.5 -95.5t-5 -140.5z" />
<glyph unicode="&#49;" horiz-adv-x="565" d="M466 0h-346v43q25 11 50.5 19.5q25.5 8.5 51.5 14.5l0 459l4 59q-28 -9 -58 -12q-30 -3 -62 -2l-5 37q53 14 115.5 38q62.5 24 115.5 56l34 0v-635q25 -6 50 -14.5q25 -8.5 50 -19.5z" />
<glyph unicode="&#50;" horiz-adv-x="565" d="M141 478h-34q-6 15 -13.5 35q-7.5 20 -15.5 42q-8 22 -15 43.5q-7 21.5 -11 39.5q35 30 89.5 52q54.5 22 132.5 22q55 0 95 -14q40 -14 66.5 -39q26.5 -25 39 -58q12.5 -33 12.5 -71q0 -61 -28 -115.5q-28 -54.5 -69 -102q-41 -47.5 -88 -88q-47 -40.5 -85 -73.5l-52 -35v-4l61 6h172l49 112h34q3 -24 6.5 -56q3.5 -32 6.5 -64.5q3 -32.5 5 -62q2 -29.5 2 -47.5l-458 0v64q26 23 59 53.5q33 30.5 67 67q34 36.5 67 77.5q33 41 59 83.5q26 42.5 41.5 86.5q15.5 44 15.5 86q0 55 -29.5 89.5q-29.5 34.5 -83.5 34.5q-17 0 -30.5 -2q-13.5 -2 -30.5 -7z" />
<glyph unicode="&#51;" horiz-adv-x="565" d="M257 53q23 0 45 10.5q22 10.5 39.5 29.5q17.5 19 28 45q10.5 26 10.5 56q0 34 -11.5 58.5q-11.5 24.5 -30 40.5q-18.5 16 -42.5 23.5q-24 7.5 -48 7.5h-58v40l150 196l34 35v4l-54 -6h-151l-39 -102h-34q-5 21 -10.5 50q-5.5 29 -10 58q-4.5 29 -7 56q-2.5 27 -2.5 45l436 0v-49l-173 -211l-43 -44v-2l34 7q47 -2 84.5 -17.5q37.5 -15.5 63 -42q25.5 -26.5 39 -61.5q13.5 -35 13.5 -77q0 -50 -21.5 -90q-21.5 -40 -57.5 -68q-36 -28 -84 -42.5q-48 -14.5 -101 -14.5q-30 0 -60 4.5q-30 4.5 -56.5 12.5q-26.5 8 -48 19q-21.5 11 -36.5 24l37 104h29q6 -7 16.5 -18.5q10.5 -11.5 22 -24.5q11.5 -13 22.5 -26q11 -13 19 -22q10 -2 22.5 -5t33.5 -3z" />
<glyph unicode="&#52;" horiz-adv-x="565" d="M513 0h-309v43q49 17 92 24l0 113h-296v45l383 487h54v-467h123v-65h-123v-113q39 -8 76 -24zM296 458l10 70h-3l-38 -70l-145 -187l-40 -33l71 7l145 0z" />
<glyph unicode="&#53;" horiz-adv-x="565" d="M455 755h34q0 -15 -1 -39q-1 -24 -4 -49q-3 -25 -7 -47.5q-4 -22.5 -8 -34.5l-274 0l-18 -143h83q54 0 98 -14.5q44 -14.5 75 -42q31 -27.5 48 -67q17 -39.5 17 -90.5q0 -57 -21.5 -101.5q-21.5 -44.5 -58.5 -75q-37 -30.5 -87 -47q-50 -16.5 -108 -16.5q-58 0 -106 18.5q-48 18.5 -77 41.5l42 99h29q7 -7 16 -18q9 -11 19 -23q10 -12 19 -24q9 -12 16 -21q10 -4 18.5 -6q8.5 -2 22.5 -2q30 0 56 10.5q26 10.5 44.5 29.5q18.5 19 29.5 45.5q11 26.5 11 58.5q0 35 -13.5 61.5q-13.5 26.5 -36.5 43.5q-23 17 -54 25.5q-31 8.5 -65 8.5l-87 -1l40 365l261 0z" />
<glyph unicode="&#54;" horiz-adv-x="565" d="M536 215q0 -52 -19.5 -94q-19.5 -42 -52.5 -71.5q-33 -29.5 -77.5 -45.5q-44.5 -16 -94.5 -16q-62 0 -109.5 19.5q-47.5 19.5 -79.5 54.5q-32 35 -48.5 83q-16.5 48 -16.5 105q0 94 33 172q33 78 89 138q56 60 130.5 100q74.5 40 158.5 58l15 -43q-54 -17 -100 -46q-46 -29 -81.5 -70.5q-35.5 -41.5 -58 -94q-22.5 -52.5 -28.5 -115.5q8 13 20.5 25.5q12.5 12.5 30.5 23q18 10.5 41.5 17q23.5 6.5 53.5 6.5q41 0 76.5 -13q35.5 -13 61.5 -39q26 -26 41 -64.5q15 -38.5 15 -89.5zt0 0zM386 203q0 148 -99 148q-34 0 -58 -17.5q-24 -17.5 -35 -40.5q-3 -14 -4.5 -32.5q-1.5 -18.5 -1.5 -35.5q0 -34 6 -65.5q6 -31.5 19 -56q13 -24.5 33.5 -39.5q20.5 -15 49.5 -15q25 0 42 12.5q17 12.5 27.5 33.5q10.5 21 15.5 49t5 59z" />
<glyph unicode="&#55;" horiz-adv-x="565" d="M117 481h-34q-5 21 -10 51.5q-5 30.5 -9.5 61.5q-4.5 31 -7.5 59.5q-3 28.5 -3 46.5l468 0v-47q-54 -84 -91 -158q-37 -74 -62 -150q-25 -76 -41.5 -159q-16.5 -83 -28.5 -186l-142 0q36 145 93 276q57 131 135 264l37 48l-50 -5l-215 0z" />
<glyph unicode="&#56;" horiz-adv-x="565" d="M35 157q0 70 45 117.5q45 47.5 118 70.5q-60 34 -97 80.5q-37 46.5 -37 107.5q0 39 15.5 71.5q15.5 32.5 44.5 56.5q29 24 70.5 37.5q41.5 13.5 93.5 13.5q48 0 87.5 -12q39.5 -12 67.5 -33q28 -21 43 -51q15 -30 15 -66q0 -60 -40 -104q-40 -44 -101 -63q43 -23 74.5 -46q31.5 -23 52.5 -48q21 -25 31.5 -53q10.5 -28 10.5 -61q0 -39 -16.5 -73q-16.5 -34 -48 -59.5q-31.5 -25.5 -78 -40q-46.5 -14.5 -107.5 -14.5q-56 0 -101.5 13q-45.5 13 -77 35.5q-31.5 22.5 -48.5 53.5q-17 31 -17 67zt0 0zM387 146q0 34 -12.5 58q-12.5 24 -33 43.5q-20.5 19.5 -48 36q-27.5 16.5 -57.5 34.5q-35 -27 -48 -64q-13 -37 -13 -72q0 -24 6 -48q6 -24 19.5 -42.5q13.5 -18.5 34.5 -30.5q21 -12 52 -12q25 0 43.5 8q18.5 8 31 21.5q12.5 13.5 19 31q6.5 17.5 6.5 36.5zt0 0zM200 554q0 -48 33.5 -84.5q33.5 -36.5 86.5 -63.5q28 26 39.5 57.5q11.5 31.5 11.5 72.5q0 58 -23.5 86.5q-23.5 28.5 -61.5 28.5q-45 0 -65.5 -28t-20.5 -69z" />
<glyph unicode="&#57;" horiz-adv-x="565" d="M38 482q0 51 18 93q18 42 50.5 72.5q32.5 30.5 77.5 47.5q45 17 100 17q58 0 104 -19.5q46 -19.5 78 -54.5q32 -35 48.5 -85.5q16.5 -50.5 16.5 -111.5q0 -93 -28 -171.5q-28 -78.5 -79 -138q-51 -59.5 -122.5 -97q-71.5 -37.5 -157.5 -46.5l-23 43q115 30 177 108q62 78 78 192q-19 -25 -50 -41q-31 -16 -80 -16q-43 0 -80.5 13q-37.5 13 -66 39.5q-28.5 26.5 -45 65.5q-16.5 39 -16.5 90zt0 0zM188 488q0 -29 6.5 -55q6.5 -26 19.5 -46q13 -20 32 -31.5q19 -11.5 45 -11.5q30 0 53 11.5q23 11.5 35 31.5q2 13 3 32q1 19 1 37q0 39 -5.5 74.5q-5.5 35.5 -17.5 62q-12 26.5 -31 42.5q-19 16 -47 16q-50 0 -72 -40.5t-22 -122.5z" />
<glyph unicode="&#58;" horiz-adv-x="343" d="M110 429q0 36 23 58q23 22 61 22q38 0 62 -22q24 -22 24 -58q0 -36 -24 -57.5q-24 -21.5 -62 -21.5q-38 0 -61 21.5q-23 21.5 -23 57.5zt0 0zM110 71q0 36 23 58q23 22 61 22q38 0 62 -22q24 -22 24 -58q0 -36 -24 -57.5q-24 -21.5 -62 -21.5q-38 0 -61 21.5t-23 57.5z" />
<glyph unicode="&#59;" horiz-adv-x="348" d="M112 429q0 36 23 58q23 22 61 22q38 0 62 -22q24 -22 24 -58q0 -36 -24 -57.5q-24 -21.5 -62 -21.5q-38 0 -61 21.5q-23 21.5 -23 57.5zt0 0zM102 -131q20 6 36 18q16 12 27.5 27q11.5 15 17.5 32q6 17 5 33q-14 18 -33.5 29q-19.5 11 -41.5 18q-5 21 -1.5 42q3.5 21 13.5 39q10 18 23.5 30.5q13.5 12.5 28.5 15.5q21 -1 41 -9.5q20 -8.5 36 -24q16 -15.5 25.5 -39.5q9.5 -24 9.5 -56q0 -31 -12.5 -63q-12.5 -32 -34 -59.5q-21.5 -27.5 -51.5 -48q-30 -20.5 -66 -28.5z" />
<glyph unicode="&#60;" horiz-adv-x="565" d="M65 324v31l385 235l36 -65l-213 -128l-82 -34l81 -31l233 -137l-56 -92z" />
<glyph unicode="&#61;" horiz-adv-x="565" d="M57 469h450v-80h-450zM57 299h450v-80l-450 0z" />
<glyph unicode="&#62;" horiz-adv-x="565" d="M513 369v-31l-385 -235l-36 65l213 128l82 34l-81 31l-233 136l56 93z" />
<glyph unicode="&#63;" horiz-adv-x="486" d="M135 501h-34q-6 13 -13 32.5q-7 19.5 -13.5 41q-6.5 21.5 -11.5 44q-5 22.5 -7 42.5q38 23 86.5 37q48.5 14 123.5 14q45 0 80.5 -12.5q35.5 -12.5 61 -34q25.5 -21.5 39 -51.5q13.5 -30 13.5 -65q0 -45 -17 -77q-17 -32 -42 -56.5q-25 -24.5 -54.5 -45q-29.5 -20.5 -55 -44q-25.5 -23.5 -42.5 -52.5q-17 -29 -17 -71l-33 0q-14 46 -10.5 79.5q3.5 33.5 16.5 60.5q13 27 32 49q19 22 36.5 45q17.5 23 30 49q12.5 26 12.5 60q0 19 -4.5 37.5q-4.5 18.5 -15 32.5q-10.5 14 -27 22.5q-16.5 8.5 -40.5 8.5q-21 0 -37 -4q-16 -4 -24 -10zM142 71q0 36 23 58q23 22 61 22q38 0 62 -22q24 -22 24 -58q0 -36 -24 -57.5q-24 -21.5 -62 -21.5q-38 0 -61 21.5t-23 57.5z" />
<glyph unicode="&#64;" horiz-adv-x="1064" d="M647 465q24 11 57.5 16q33.5 5 67.5 4l-49 -278q-12 -64 -10.5 -95.5q1.5 -31.5 29.5 -31.5q23 0 52.5 15q29.5 15 55.5 45.5q26 30.5 44 77q18 46.5 18 108.5q0 76 -27.5 136q-27.5 60 -76 101q-48.5 41 -115 62.5q-66.5 21.5 -143.5 21.5q-87 0 -159.5 -30.5q-72.5 -30.5 -124.5 -84.5q-52 -54 -81 -128.5q-29 -74.5 -29 -161.5q0 -89 29.5 -155.5q29.5 -66.5 81.5 -111.5q52 -45 123.5 -67.5q71.5 -22.5 155.5 -22.5q29 0 66 7q37 7 67 21l16 -57q-35 -20 -77 -28q-42 -8 -93 -8q-89 0 -169.5 26q-80.5 26 -141.5 78q-61 52 -97 130q-36 78 -36 182q0 109 37.5 197q37.5 88 102 150q64.5 62 150.5 95.5q86 33.5 184 33.5q95 0 174.5 -26.5q79.5 -26.5 136.5 -76q57 -49.5 89 -121q32 -71.5 32 -162.5q0 -70 -25.5 -127.5q-25.5 -57.5 -66.5 -99q-41 -41.5 -93 -64q-52 -22.5 -105 -22.5q-30 0 -52 7.5q-22 7.5 -36 25.5q-14 18 -18.5 47q-4.5 29 1.5 72l-4 0q-9 -27 -26.5 -54.5q-17.5 -27.5 -40 -49q-22.5 -21.5 -49.5 -35q-27 -13.5 -55 -13.5q-68 0 -102.5 44q-34.5 44 -34.5 112q0 59 19.5 117q19.5 58 54 103.5q34.5 45.5 82.5 74q48 28.5 105 28.5q35 0 58.5 -6.5q23.5 -6.5 47.5 -20.5zt0 0zM627 415q-11 8 -23 12q-12 4 -29 4q-34 0 -63 -26q-29 -26 -50 -66q-21 -40 -33 -86.5q-12 -46.5 -12 -86.5q0 -34 12 -53.5q12 -19.5 41 -19.5q17 0 34.5 14q17.5 14 34 36.5q16.5 22.5 32 51q15.5 28.5 28.5 56.5z" />
<glyph unicode="&#65;" horiz-adv-x="729" d="M247 0h-247v38q16 10 34.5 17.5q18.5 7.5 36.5 11.5l258 645h74l251 -645q20 -4 40 -11.5q20 -7.5 35 -17.5l0 -38h-313v38q19 9 41 17q22 8 42 12l-58 159h-222l-59 -159q46 -6 87 -29zM243 291h177l-65 191l-19 86h-2l-22 -88z" />
<glyph unicode="&#66;" horiz-adv-x="649" d="M20 0v38q19 11 40.5 19q21.5 8 41.5 10l0 566q-20 4 -42 11.5q-22 7.5 -40 17.5l0 38h161q38 0 72 3q34 3 78 3q48 0 93 -7q45 -7 80 -25q35 -18 56 -50.5q21 -32.5 21 -83.5q0 -32 -11.5 -59.5q-11.5 -27.5 -32 -48.5q-20.5 -21 -48 -35q-27.5 -14 -59.5 -20l0 -4q32 -4 64.5 -15q32.5 -11 58.5 -32q26 -21 42.5 -52.5q16.5 -31.5 16.5 -74.5q0 -54 -24 -93q-24 -39 -64.5 -64q-40.5 -25 -92.5 -36.5q-52 -11.5 -108 -11.5q-21 0 -46 1q-25 1 -50 2q-25 1 -48.5 2q-23.5 1 -39.5 1zM322 59q63 0 99 37.5q36 37.5 36 99.5q0 38 -12 62.5q-12 24.5 -33 39q-21 14.5 -50 20q-29 5.5 -63 5.5h-53v-257q14 -3 29.5 -5q15.5 -2 46.5 -2zt0 0zM278 388q17 0 34 1.5q17 1.5 32 3.5q39 16 63 49.5q24 33.5 24 76.5q0 63 -33 92.5q-33 29.5 -85 29.5q-22 0 -38 -1q-16 -1 -29 -3l0 -249z" />
<glyph unicode="&#67;" horiz-adv-x="652" d="M540 210h41q4 -16 7.5 -38.5q3.5 -22.5 6 -48q2.5 -25.5 3.5 -50.5q1 -25 1 -45q-35 -22 -87.5 -31q-52.5 -9 -107.5 -9q-83 0 -150.5 20.5q-67.5 20.5 -115 65q-47.5 44.5 -73.5 113q-26 68.5 -26 164.5q0 95 28.5 163.5q28.5 68.5 76.5 112.5q48 44 111.5 64.5q63.5 20.5 133.5 20.5q66 0 119.5 -9.5q53.5 -9.5 87.5 -25.5q0 -16 -1.5 -41q-1.5 -25 -5 -52.5q-3.5 -27.5 -8 -54q-4.5 -26.5 -8.5 -44.5l-42 0l-55 151q-9 5 -29 8q-20 3 -41 3q-41 0 -77 -16.5q-36 -16.5 -64 -52.5q-28 -36 -44 -92.5q-16 -56.5 -16 -135.5q0 -143 57 -220q57 -77 155 -77q28 0 47.5 4.5q19.5 4.5 26.5 12.5z" />
<glyph unicode="&#68;" horiz-adv-x="736" d="M20 0v38q17 10 38 17.5q21 7.5 44 11.5l0 566q-23 5 -44.5 12.5q-21.5 7.5 -37.5 16.5l0 38h116q17 0 42 1q25 1 52 2.5q27 1.5 52.5 3q25.5 1.5 43.5 1.5q87 0 155.5 -23q68.5 -23 116 -67q47.5 -44 73 -109q25.5 -65 25.5 -150q0 -83 -24 -151q-24 -68 -72 -116q-48 -48 -121.5 -74.5q-73.5 -26.5 -172.5 -26.5q-13 0 -35 1.5q-22 1.5 -47 3q-25 1.5 -50 3q-25 1.5 -44 1.5zM313 643q-18 0 -36 -1q-18 -1 -31 -3l0 -579q4 -1 14 -1.5q10 -0.5 20.5 -1q10.5 -0.5 20.5 -1q10 -0.5 15 -0.5q58 0 98.5 24q40.5 24 66.5 65q26 41 38 96q12 55 12 117q0 55 -12.5 106q-12.5 51 -38.5 91q-26 40 -67.5 64t-99.5 24z" />
<glyph unicode="&#69;" horiz-adv-x="604" d="M546 700q-2 -45 -7 -93q-5 -48 -13 -90l-41 0l-46 118h-187v-245h122l44 77h32q5 -49 5 -109q0 -60 -5 -112l-32 0l-44 79h-122v-260h195l53 127h41q4 -19 8 -43q4 -24 6.5 -49.5q2.5 -25.5 4 -51.5q1.5 -26 1.5 -48l-541 0v38q17 9 38 17q21 8 44 12l0 566q-20 4 -42.5 11.5q-22.5 7.5 -39.5 17.5l0 38z" />
<glyph unicode="&#70;" horiz-adv-x="575" d="M242 67q46 -6 87 -29l0 -38h-309v38q16 9 34 16.5q18 7.5 38 12.5l0 566q-23 5 -40.5 13q-17.5 8 -31.5 16l0 38h523q0 -20 -2 -43.5q-2 -23.5 -4.5 -48q-2.5 -24.5 -6 -48q-3.5 -23.5 -7.5 -43.5l-41 0l-46 118h-194v-263h137l45 77h30q4 -26 5.5 -55q1.5 -29 1.5 -58q-1 -30 -2.5 -58q-1.5 -28 -4.5 -50l-30 0l-45 79l-137 0z" />
<glyph unicode="&#71;" horiz-adv-x="709" d="M636 44q-20 -10 -49 -20q-29 -10 -61 -18q-32 -8 -64 -13q-32 -5 -57 -5q-86 0 -153.5 22.5q-67.5 22.5 -115 68q-47.5 45.5 -72.5 113.5q-25 68 -25 158q0 98 30.5 166.5q30.5 68.5 81 112q50.5 43.5 114.5 63.5q64 20 131 20q66 0 124 -9q58 -9 92 -26q0 -15 -1.5 -38.5q-1.5 -23.5 -4.5 -50.5q-3 -27 -7.5 -54q-4.5 -27 -10.5 -49l-41 0l-56 152q-11 5 -33 7.5q-22 2.5 -44 2.5q-41 0 -79 -16q-38 -16 -67 -51.5q-29 -35.5 -46 -92q-17 -56.5 -17 -137.5q0 -66 15.5 -120.5q15.5 -54.5 43.5 -93.5q28 -39 67 -61q39 -22 86 -22q15 0 31 2.5q16 2.5 30 6.5q14 4 24.5 9q10.5 5 14.5 9l0 188q-26 2 -49 10q-23 8 -43 19l0 38h273v-38q-9 -9 -24 -16.5q-15 -7.5 -38 -12.5z" />
<glyph unicode="&#72;" horiz-adv-x="769" d="M323 0h-303v38q17 9 39.5 17q22.5 8 42.5 12l0 566q-24 4 -46 12q-22 8 -36 17l0 38h303v-38q-15 -10 -33.5 -18q-18.5 -8 -37.5 -11l0 -242h265v242q-22 4 -39.5 12q-17.5 8 -31.5 17l0 38h303v-38q-17 -11 -39 -18q-22 -7 -43 -11l0 -566q23 -4 44.5 -12q21.5 -8 37.5 -17l0 -38h-303v38q15 9 33 17q18 8 38 12l0 259h-265v-259q20 -4 37 -11q17 -7 34 -18z" />
<glyph unicode="&#73;" horiz-adv-x="372" d="M342 0h-312v38q40 22 81 29l0 566q-20 3 -42 11q-22 8 -39 18l0 38h312v-38q-18 -11 -39.5 -18.5q-21.5 -7.5 -41.5 -10.5l0 -566q20 -4 41.5 -11q21.5 -7 39.5 -18z" />
<glyph unicode="&#74;" horiz-adv-x="365" d="M27 700h308v-38q-16 -10 -36 -18q-20 -8 -40 -11l0 -512q0 -82 -24.5 -134.5q-24.5 -52.5 -58 -83q-33.5 -30.5 -68.5 -44.5q-35 -14 -57 -19l-19 26q15 12 29 30.5q14 18.5 24.5 47.5q10.5 29 17 70.5q6.5 41.5 6.5 100.5v518q-22 5 -43.5 11.5q-21.5 6.5 -38.5 17.5z" />
<glyph unicode="&#75;" horiz-adv-x="710" d="M399 700h268v-38q-17 -11 -39 -18.5q-22 -7.5 -40 -10.5l-190 -241q23 -32 54 -72.5q31 -40.5 66 -84q35 -43.5 72 -88q37 -44.5 72 -84.5l48 -29v-34h-174l-40 28q-24 30 -50.5 66.5q-26.5 36.5 -52.5 76q-26 39.5 -51 79.5q-25 40 -47 78l-43 0v-261q22 -4 40 -12q18 -8 31 -17l0 -38h-303v38q20 10 41 17.5q21 7.5 41 11.5l0 566q-23 3 -44.5 11q-21.5 8 -37.5 18l0 38h303v-38q-13 -8 -31.5 -16q-18.5 -8 -39.5 -13l0 -254l59 14l161 240q-20 4 -39.5 12.5q-19.5 8.5 -33.5 16.5z" />
<glyph unicode="&#76;" horiz-adv-x="583" d="M20 700h328v-38q-21 -11 -46.5 -18.5q-25.5 -7.5 -49.5 -10.5l0 -568h193l67 179h41q4 -23 7.5 -54q3.5 -31 5.5 -65q2 -34 3 -67q1 -33 0 -58l-549 0v38q23 12 43.5 19q20.5 7 38.5 10l0 566q-49 8 -82 29z" />
<glyph unicode="&#77;" horiz-adv-x="930" d="M909 0h-299v38q20 10 39 17q19 7 41 12l0 418l5 117h-8l-33 -107l-193 -495h-46l-192 491l-36 117h-9l1 -127v-410q19 -4 42 -13q23 -9 43 -20l0 -38h-244v38q16 8 39.5 19q23.5 11 44.5 15l0 561q-20 4 -42.5 11q-22.5 7 -39.5 18l0 38h271l153 -407l29 -96h1l30 98l156 405h248v-38q-17 -10 -36.5 -17.5q-19.5 -7.5 -39.5 -11.5l0 -567q21 -4 40.5 -12q19.5 -8 34.5 -16z" />
<glyph unicode="&#78;" horiz-adv-x="758" d="M490 700h248v-38q-19 -15 -42 -26.5q-23 -11.5 -43 -17.5l0 -630h-85l-353 510l-40 77h-3l9 -80v-417q20 -5 44.5 -16.5q24.5 -11.5 41.5 -23.5l0 -38h-247v38q18 12 39.5 22.5q21.5 10.5 44.5 17.5l0 546q-20 8 -40 18q-20 10 -36 21l0 37h216l287 -416l46 -86h4l-5 86v334q-24 8 -46.5 19.5q-22.5 11.5 -39.5 24.5z" />
<glyph unicode="&#79;" horiz-adv-x="754" d="M39 350q0 78 22 144.5q22 66.5 65 115q43 48.5 106 75.5q63 27 145 27q82 0 145 -27q63 -27 105.5 -75.5q42.5 -48.5 64.5 -115q22 -66.5 22 -144.5q0 -78 -22 -144.5q-22 -66.5 -64.5 -115q-42.5 -48.5 -105.5 -75.5q-63 -27 -145 -27q-82 0 -145 27q-63 27 -106 75.5q-43 48.5 -65 115q-22 66.5 -22 144.5zt0 0zM209 350q0 -64 10 -118.5q10 -54.5 31.5 -94q21.5 -39.5 55 -62q33.5 -22.5 80.5 -22.5q43 0 73 22.5q30 22.5 49 62q19 39.5 27.5 94q8.5 54.5 8.5 118.5q0 64 -9.5 118.5q-9.5 54.5 -30 94q-20.5 39.5 -54 62q-33.5 22.5 -81.5 22.5q-46 0 -77 -22.5q-31 -22.5 -49.5 -62q-18.5 -39.5 -26 -94t-7.5 -118.5z" />
<glyph unicode="&#80;" horiz-adv-x="640" d="M252 67q27 -4 53.5 -11.5q26.5 -7.5 47.5 -17.5l0 -38h-333v38q19 11 40.5 18q21.5 7 41.5 11l0 566q-23 4 -44 11.5q-21 7.5 -38 17.5l0 38h126q40 0 91.5 4q51.5 4 94.5 4q53 0 103.5 -10.5q50.5 -10.5 90 -35.5q39.5 -25 63.5 -66.5q24 -41.5 24 -103.5q0 -59 -23.5 -102q-23.5 -43 -62.5 -71q-39 -28 -90 -41.5q-51 -13.5 -105 -13.5q-5 0 -16 0q-11 0 -23.5 0.5q-12.5 0.5 -24 1q-11.5 0.5 -16.5 1.5zM306 643q-20 0 -31.5 -1.5q-11.5 -1.5 -22.5 -4.5l0 -304q9 -3 27 -3.5q18 -0.5 29 -0.5q27 0 52 9q25 9 44.5 28q19.5 19 31.5 49q12 30 12 72q0 80 -39 118t-103 38z" />
<glyph unicode="&#81;" horiz-adv-x="754" d="M774 -112q-18 -19 -38.5 -36.5q-20.5 -17.5 -43 -31.5q-22.5 -14 -47.5 -22q-25 -8 -52 -8q-46 0 -92.5 16.5q-46.5 16.5 -97 38q-50.5 21.5 -106 41.5q-55.5 20 -120.5 28l25 44q48 9 94.5 4.5q46.5 -4.5 92 -15q45.5 -10.5 91 -23.5q45.5 -13 91.5 -21q46 -8 94 -7.5q48 0.5 99 17.5zM39 350q0 78 22 144.5q22 66.5 65 115q43 48.5 106 75.5q63 27 145 27q82 0 145 -27q63 -27 105.5 -75.5q42.5 -48.5 64.5 -115q22 -66.5 22 -144.5q0 -78 -22 -144.5q-22 -66.5 -64.5 -115q-42.5 -48.5 -105.5 -75.5q-63 -27 -145 -27q-82 0 -145 27q-63 27 -106 75.5q-43 48.5 -65 115q-22 66.5 -22 144.5zt0 0zM209 350q0 -64 10 -118.5q10 -54.5 31.5 -94q21.5 -39.5 55 -62q33.5 -22.5 80.5 -22.5q43 0 73 22.5q30 22.5 49 62q19 39.5 27.5 94q8.5 54.5 8.5 118.5q0 64 -9.5 118.5q-9.5 54.5 -30 94q-20.5 39.5 -54 62q-33.5 22.5 -81.5 22.5q-46 0 -77 -22.5q-31 -22.5 -49.5 -62q-18.5 -39.5 -26 -94t-7.5 -118.5z" />
<glyph unicode="&#82;" horiz-adv-x="697" d="M252 67q23 -5 41 -13q18 -8 35 -16l0 -38h-308v38q22 12 42 18.5q20 6.5 40 10.5l0 566q-50 11 -82 29l0 38h106q20 0 45.5 1q25.5 1 53.5 2.5q28 1.5 57 3q29 1.5 56 1.5q55 0 101.5 -12.5q46.5 -12.5 80 -37.5q33.5 -25 52 -62.5q18.5 -37.5 18.5 -87.5q0 -72 -35 -118q-35 -46 -96 -69q40 -63 85 -128.5q45 -65.5 95 -126.5l48 -32v-34h-167l-43 33q-46 55 -81.5 127.5q-35.5 72.5 -62.5 142.5l-81 0zM302 643q-31 0 -50 -6l0 -279h59q51 0 87 36.5q36 36.5 36 108.5q0 37 -10 63.5q-10 26.5 -28 43.5q-18 17 -42 25t-52 8z" />
<glyph unicode="&#83;" horiz-adv-x="558" d="M157 83q11 -11 31 -20.5q20 -9.5 53 -9.5q55 0 91.5 28.5q36.5 28.5 36.5 79.5q0 37 -23.5 62q-23.5 25 -59.5 46q-36 21 -77 41.5q-41 20.5 -77 48.5q-36 28 -59.5 66.5q-23.5 38.5 -23.5 95.5q0 49 18 85q18 36 49.5 59.5q31.5 23.5 74.5 35q43 11.5 93 11.5q61 0 113.5 -8.5q52.5 -8.5 94.5 -26.5q-1 -20 -3.5 -46q-2.5 -26 -6.5 -51.5q-4 -25.5 -8.5 -48q-4.5 -22.5 -8.5 -37.5l-41 0l-46 137q-12 6 -35.5 11q-23.5 5 -48.5 5q-42 0 -71 -22q-29 -22 -29 -64q0 -38 24 -64.5q24 -26.5 60 -48.5q36 -22 78.5 -43.5q42.5 -21.5 78.5 -49.5q36 -28 60 -65.5q24 -37.5 24 -92.5q0 -100 -67.5 -154.5q-67.5 -54.5 -198.5 -54.5q-32 0 -64.5 4q-32.5 4 -61.5 11q-29 7 -51.5 15q-22.5 8 -33.5 17q1 23 5 49.5q4 26.5 8.5 53q4.5 26.5 9.5 50.5q5 24 10 42l41 0z" />
<glyph unicode="&#84;" horiz-adv-x="667" d="M505 0h-344v38q20 8 45.5 16.5q25.5 8.5 51.5 12.5l0 568h-116l-64 -171h-41q-4 20 -8 51q-4 31 -7 64q-3 33 -5 65.5q-2 32.5 -2 55.5l637 0q0 -24 -2 -56q-2 -32 -5 -65q-3 -33 -7 -63.5q-4 -30.5 -8 -51.5l-42 0l-64 171h-116v-568q26 -5 51.5 -12q25.5 -7 45.5 -17z" />
<glyph unicode="&#85;" horiz-adv-x="715" d="M7 700h308v-38q-33 -21 -76 -29l0 -385q0 -49 11 -82q11 -33 32 -53.5q21 -20.5 50.5 -29.5q29.5 -9 66.5 -9q33 0 60.5 9.5q27.5 9.5 48 30.5q20.5 21 31.5 55q11 34 11 84v375q-23 5 -47.5 14q-24.5 9 -40.5 20l0 38h248v-38q-18 -13 -40 -21q-22 -8 -43 -13l0 -376q0 -128 -67.5 -194.5q-67.5 -66.5 -190.5 -66.5q-134 0 -207 60q-73 60 -73 192v390q-20 3 -42 10.5q-22 7.5 -40 18.5z" />
<glyph unicode="&#86;" horiz-adv-x="734" d="M564 633q-24 5 -45.5 13q-21.5 8 -38.5 16l0 38h254v-38q-12 -8 -31.5 -16q-19.5 -8 -40.5 -13l-230 -633l-99 -12l-258 645q-20 5 -40 12.5q-20 7.5 -35 16.5l0 38h333v-38q-17 -8 -38 -16q-21 -8 -44 -13l140 -394l23 -94h2l22 96z" />
<glyph unicode="&#87;" horiz-adv-x="1033" d="M865 633q-40 6 -84 29l0 38h252v-38q-17 -11 -36 -18q-19 -7 -37 -11l-177 -633l-104 -12l-155 484l-151 -472l-105 -12l-195 645q-21 4 -39 11.5q-18 7.5 -34 17.5l0 38h324v-38q-17 -9 -38.5 -16.5q-21.5 -7.5 -44.5 -12.5l93 -353l21 -130h2l35 135l133 415h59l142 -410l34 -130h2l23 132z" />
<glyph unicode="&#88;" horiz-adv-x="728" d="M435 700h248v-38q-15 -8 -31.5 -16q-16.5 -8 -36.5 -13l-178 -261l207 -305q23 -5 41.5 -12.5q18.5 -7.5 35.5 -16.5l0 -38h-324v38q16 9 33.5 16.5q17.5 7.5 37.5 12.5l-142 220l-132 -221q21 -3 39 -10q18 -7 35 -18l0 -38h-256v38q33 20 68 29l201 285l-188 281q-19 5 -36 13q-17 8 -33 16l0 38h317v-38q-12 -7 -30 -14.5q-18 -7.5 -42 -14.5l122 -201l120 201q-20 4 -40 12.5q-20 8.5 -36 16.5z" />
<glyph unicode="&#89;" horiz-adv-x="698" d="M453 700h245v-38q-15 -9 -33.5 -17.5q-18.5 -8.5 -37.5 -11.5l-194 -340v-226q20 -2 39.5 -10.5q19.5 -8.5 36.5 -18.5l0 -38h-308v38q17 9 38 17q21 8 44 12l0 225l-202 341q-23 4 -43.5 12q-20.5 8 -37.5 17l0 38h328v-38q-14 -8 -32 -16q-18 -8 -42 -13l143 -268l136 268q-23 5 -44 13q-21 8 -36 16z" />
<glyph unicode="&#90;" horiz-adv-x="634" d="M537 211h42q4 -21 7.5 -47.5q3.5 -26.5 6.5 -55q3 -28.5 4.5 -56.5q1.5 -28 1.5 -52l-564 0v65l388 570h-248l-59 -143h-42q-5 22 -9 50q-4 28 -7 56.5q-3 28.5 -4 55q-1 26.5 -1 46.5l534 0v-65l-386 -570l274 0z" />
<glyph unicode="&#91;" horiz-adv-x="324" d="M72 700h234v-55h-104v-820h104v-55l-234 0z" />
<glyph unicode="&#92;" horiz-adv-x="382" d="M416 -104l-57 -30l-415 820l58 29z" />
<glyph unicode="&#93;" horiz-adv-x="324" d="M252 -230h-234v55h104v820h-104v55l234 0z" />
<glyph unicode="&#94;" horiz-adv-x="498" d="M229 711h46l170 -277h-120l-79 135l-18 53l-25 -54l-90 -134l-70 0z" />
<glyph unicode="&#95;" horiz-adv-x="410" d="M0 -116h410v-80l-410 0z" />
<glyph unicode="&#96;" horiz-adv-x="351" d="M291 589l-45 -22l-186 145v29q6 6 26 11.5q20 5.5 42.5 8.5q22.5 3 42.5 3.5q20 0.5 27 -1.5z" />
<glyph unicode="&#97;" horiz-adv-x="557" d="M470 145q0 -22 0.5 -38q0.5 -16 2.5 -34l69 -10v-35q-12 -6 -32.5 -12q-20.5 -6 -43 -11.5q-22.5 -5.5 -44.5 -9q-22 -3.5 -39 -5.5l-34 0q-10 23 -12 46q-2 23 -3 56l-5 0q-5 -20 -17 -38.5q-12 -18.5 -30.5 -33q-18.5 -14.5 -43.5 -23.5q-25 -9 -56 -9q-33 0 -61 10q-28 10 -49 28q-21 18 -33 43.5q-12 25.5 -12 57.5q0 45 17 74q17 29 53.5 47.5q36.5 18.5 94 27.5q57.5 9 139.5 13q8 86 -7 126q-15 40 -65 40q-31 0 -57 -10l-47 -120h-44q-8 12 -15.5 27.5q-7.5 15.5 -14 33q-6.5 17.5 -11 35.5q-4.5 18 -6.5 35q38 26 98 41q60 15 127 15q57 0 93 -12.5q36 -12.5 56.5 -34q20.5 -21.5 28.5 -50.5q8 -29 8 -62q0 -60 -2.5 -108.5q-2.5 -48.5 -2.5 -99.5zt0 0zM245 68q21 0 36 8q15 8 25.5 19q10.5 11 16 24q5.5 13 8.5 23l0 100q-47 -1 -77 -6q-30 -5 -47 -16.5q-17 -11.5 -23.5 -29q-6.5 -17.5 -6.5 -42.5q0 -38 18 -59t50 -21z" />
<glyph unicode="&#98;" horiz-adv-x="588" d="M67 669l-76 8v39q15 6 39.5 12q24.5 6 51 10.5q26.5 4.5 52 8q25.5 3.5 43.5 5.5l34 0v-346h2q20 50 61 78q41 28 97 28q88 0 137 -61q49 -61 49 -185q0 -137 -72.5 -206q-72.5 -69 -212.5 -69q-25 0 -56 3.5q-31 3.5 -60 8.5q-29 5 -53.5 12q-24.5 7 -35.5 14zM306 432q-38 0 -61 -27.5q-23 -27.5 -34 -69.5l0 -265q14 -10 34.5 -16q20.5 -6 46.5 -6q57 0 83.5 51q26.5 51 26.5 160q0 79 -21.5 126t-74.5 47z" />
<glyph unicode="&#99;" horiz-adv-x="484" d="M456 81q-7 -20 -23 -36.5q-16 -16.5 -38.5 -29.5q-22.5 -13 -51 -20q-28.5 -7 -59.5 -7q-66 0 -113.5 18.5q-47.5 18.5 -78.5 53q-31 34.5 -46 83q-15 48.5 -15 107.5q0 127 69.5 194.5q69.5 67.5 197.5 67.5q49 0 90 -10.5q41 -10.5 68 -24.5q-2 -17 -5.5 -37.5q-3.5 -20.5 -8 -41q-4.5 -20.5 -10.5 -40q-6 -19.5 -12 -32.5l-49 0l-42 119q-7 5 -15 7.5q-8 2.5 -24 2.5q-26 0 -45 -9.5q-19 -9.5 -32.5 -32.5q-13.5 -23 -20 -61q-6.5 -38 -6.5 -94q0 -41 9 -75.5q9 -34.5 27.5 -60q18.5 -25.5 46.5 -40q28 -14.5 66 -14.5q35 0 61 10q26 10 44 24z" />
<glyph unicode="&#100;" horiz-adv-x="599" d="M372 99q-5 -22 -18 -42q-13 -20 -31 -35.5q-18 -15.5 -41 -24.5q-23 -9 -49 -9q-99 0 -150.5 62.5q-51.5 62.5 -51.5 191.5q0 66 18 115.5q18 49.5 50.5 83.5q32.5 34 78.5 51q46 17 102 17q18 0 30.5 -1q12.5 -1 23 -2.5q10.5 -1.5 20 -5q9.5 -3.5 21.5 -7.5l0 176l-76 8v39q14 6 38.5 11q24.5 5 51.5 9.5q27 4.5 53 8.5q26 4 43 7l34 0v-681l66 -8v-35q-14 -7 -36 -13q-22 -6 -46 -11q-24 -5 -46.5 -8.5q-22.5 -3.5 -37.5 -5.5l-34 0l-9 109zM281 68q35 0 59 22q24 22 35 75l0 269q-13 8 -32.5 13q-19.5 5 -48.5 5q-58 0 -83 -52.5q-25 -52.5 -25 -152.5q0 -81 22 -130t73 -49z" />
<glyph unicode="&#101;" horiz-adv-x="537" d="M486 84q-8 -17 -25.5 -34.5q-17.5 -17.5 -43 -31q-25.5 -13.5 -59 -22q-33.5 -8.5 -72.5 -8.5q-62 0 -110 18.5q-48 18.5 -80 53q-32 34.5 -48.5 82.5q-16.5 48 -16.5 108q0 128 67 195q67 67 186 67q51 0 95.5 -14q44.5 -14 74 -46q29.5 -32 41 -84q11.5 -52 -1.5 -127l-307 0q1 -79 40.5 -126q39.5 -47 116.5 -47q33 0 68.5 10q35.5 10 55.5 26zM280 455q-20 0 -35.5 -7q-15.5 -7 -27 -25.5q-11.5 -18.5 -18.5 -50q-7 -31.5 -10 -79.5l161 0q7 78 -9 120t-61 42z" />
<glyph unicode="&#102;" horiz-adv-x="372" d="M321 752q41 0 73.5 -7.5q32.5 -7.5 49.5 -14.5q-3 -33 -13 -68q-10 -35 -18 -58l-34 0l-44 95q-26 0 -43.5 -5.5q-17.5 -5.5 -28 -21.5q-10.5 -16 -15.5 -45.5q-5 -29.5 -5 -76.5v-50h106v-63h-106v-374q52 -6 96 -24l0 -39h-306v39q31 18 66 24l0 374h-76v39q35 22 76 33l0 35q0 62 17.5 102.5q17.5 40.5 47.5 64q30 23.5 70.5 32.5t86.5 9z" />
<glyph unicode="&#103;" horiz-adv-x="564" d="M264 512q65 0 108 -13.5q43 -13.5 65 -33.5q47 51 108 71q7 -5 14 -14.5q7 -9.5 12 -20.5q5 -11 8 -22q3 -11 3 -18l-13 -24h-105q11 -14 20.5 -36.5q9.5 -22.5 9.5 -53.5q0 -33 -14 -62q-14 -29 -42.5 -51.5q-28.5 -22.5 -72 -35.5q-43.5 -13 -101.5 -13q-17 0 -30.5 0.5q-13.5 0.5 -23.5 2.5q-4 -6 -8.5 -14.5q-4.5 -8.5 -4.5 -16.5q0 -17 24 -27q24 -10 61 -18q37 -8 79.5 -18q42.5 -10 79.5 -26.5q37 -16.5 62 -43q25 -26.5 26 -68.5q1 -40 -20 -71q-21 -31 -57.5 -52.5q-36.5 -21.5 -86 -33q-49.5 -11.5 -105.5 -11.5q-66 0 -112.5 10.5q-46.5 10.5 -75.5 28.5q-29 18 -42.5 41q-13.5 23 -13.5 48q0 28 11 48q11 20 31 35q20 15 46.5 25q26.5 10 58.5 18q-15 4 -29 10q-14 6 -25 14.5q-11 8.5 -18 20q-7 11.5 -7 26.5q0 13 8 25.5q8 12.5 21 23q13 10.5 28 19q15 8.5 30 14.5q-63 14 -100 54.5q-37 40.5 -37 103.5q0 75 62 117q62 42 168 42zt0 0zM390 -76q0 27 -16.5 43.5q-16.5 16.5 -42.5 27q-26 10.5 -58.5 18q-32.5 7.5 -64.5 17.5q-26 -20 -37 -40q-11 -20 -11 -48q0 -46 31.5 -71.5q31.5 -25.5 88.5 -25.5q56 0 83 23.5q27 23.5 27 55.5zt0 0zM178 348q0 -52 17.5 -79q17.5 -27 68.5 -27q49 0 67.5 27.5q18.5 27.5 18.5 78.5q0 54 -19 80.5q-19 26.5 -67 26.5q-50 0 -68 -26t-18 -81z" />
<glyph unicode="&#104;" horiz-adv-x="640" d="M628 0h-265v39q12 7 25 13q13 6 30 11l0 202q0 86 -16.5 126.5q-16.5 40.5 -64.5 40.5q-40 0 -68 -27.5q-28 -27.5 -40 -63.5l0 -278q16 -4 28.5 -9q12.5 -5 26.5 -15l0 -39h-265v39q31 16 66 24l0 606l-76 8v39q15 6 38.5 12q23.5 6 49.5 10.5q26 4.5 52 8q26 3.5 46 5.5l34 0v-353h1q10 23 27 43.5q17 20.5 38.5 36q21.5 15.5 46.5 24.5q25 9 53 9q40 0 71.5 -9.5q31.5 -9.5 52.5 -33.5q21 -24 32 -64.5q11 -40.5 11 -102.5v-239q17 -4 34 -9q17 -5 32 -15z" />
<glyph unicode="&#105;" horiz-adv-x="332" d="M307 0h-276v39q15 8 31 13.5q16 5.5 35 10.5l0 366l-66 8v39q15 6 37.5 12q22.5 6 47.5 10.5q25 4.5 49 8q24 3.5 42 5.5l34 0v-449q20 -5 36 -10.5q16 -5.5 30 -13.5zM80 664q0 35 24 55q24 20 62 20q38 0 62 -20q24 -20 24 -55q0 -34 -24 -54q-24 -20 -62 -20q-38 0 -62 20t-24 54z" />
<glyph unicode="&#106;" horiz-adv-x="320" d="M97 429l-66 8v39q15 7 37 13q22 6 47 10.5q25 4.5 49.5 7.5q24.5 3 42.5 5l34 0v-469q0 -47 -11.5 -84q-11.5 -37 -30 -64q-18.5 -27 -41 -46q-22.5 -19 -44 -31.5q-21.5 -12.5 -39.5 -19.5q-18 -7 -28 -10l-20 30q12 6 24 19.5q12 13.5 22.5 37.5q10.5 24 17 60.5q6.5 36.5 6.5 88.5zM80 664q0 35 24 55q24 20 62 20q38 0 62 -20q24 -20 24 -55q0 -34 -24 -54q-24 -20 -62 -20q-38 0 -62 20t-24 54z" />
<glyph unicode="&#107;" horiz-adv-x="583" d="M322 500h234v-39q-19 -8 -35.5 -14q-16.5 -6 -36.5 -10q-15 -20 -32.5 -39.5q-17.5 -19.5 -35 -37.5q-17.5 -18 -33.5 -34.5q-16 -16.5 -29 -29.5q15 -20 35 -48q20 -28 43 -59.5q23 -31.5 48.5 -64q25.5 -32.5 51.5 -61.5l51 -24v-39h-169l-27 24q-23 31 -40.5 58q-17.5 27 -31.5 52q-14 25 -27 48.5q-13 23.5 -26 46.5l-33 10v-176q17 -3 31 -9q14 -6 30 -15l0 -39h-271v39q33 16 66 24l0 606l-76 8v39q14 6 38 12q24 6 51 10.5q27 4.5 53 8q26 3.5 44 5.5l34 0v-469h26q33 35 61.5 77q28.5 42 50.5 77q-13 4 -23.5 10q-10.5 6 -21.5 14z" />
<glyph unicode="&#108;" horiz-adv-x="332" d="M307 0h-276v39q33 16 66 24l0 606l-76 8v39q13 6 36 12q23 6 49.5 10.5q26.5 4.5 53 8q26.5 3.5 47.5 5.5l34 0v-689q33 -8 66 -24z" />
<glyph unicode="&#109;" horiz-adv-x="924" d="M594 0h-250v39q10 6 22.5 12.5q12.5 6.5 27.5 11.5l0 199q0 46 -2.5 78q-2.5 32 -10.5 52.5q-8 20.5 -22 30q-14 9.5 -36 9.5q-32 0 -55.5 -24.5q-23.5 -24.5 -34.5 -64.5l0 -280q27 -8 50 -24l0 -39h-260v39q14 7 31 13q17 6 35 11l0 366l-66 8v39q16 7 39.5 13q23.5 6 48.5 10.5q25 4.5 48.5 7.5q23.5 3 39.5 5l34 0v-113h1q16 47 56.5 80q40.5 33 97.5 33q24 0 47 -5q23 -5 42.5 -18.5q19.5 -13.5 33.5 -37.5q14 -24 20 -62q18 55 60 89q42 34 102 34q37 0 65.5 -9.5q28.5 -9.5 48 -33.5q19.5 -24 29.5 -65q10 -41 10 -104v-237q34 -6 66 -24l0 -39h-260v39q23 15 50 24l0 217q0 78 -14.5 115q-14.5 37 -62.5 37q-36 0 -56.5 -27q-20.5 -27 -30.5 -72l0 -270q17 -5 30.5 -11q13.5 -6 25.5 -13z" />
<glyph unicode="&#110;" horiz-adv-x="644" d="M632 0h-265v39q13 7 25.5 12.5q12.5 5.5 29.5 11.5l0 235q0 63 -18 98.5q-18 35.5 -64 35.5q-38 0 -65.5 -24.5q-27.5 -24.5 -41.5 -66.5l0 -278q16 -4 28.5 -9.5q12.5 -5.5 26.5 -14.5l0 -39h-265v39q25 13 66 24l0 366l-66 8v39q13 6 34 11.5q21 5.5 45.5 10.5q24.5 5 50 8.5q25.5 3.5 46.5 5.5l34 0v-103h1q21 42 63 72.5q42 30.5 102 30.5q39 0 70 -9.5q31 -9.5 52.5 -33.5q21.5 -24 33 -64.5q11.5 -40.5 11.5 -102.5v-239q40 -7 66 -24z" />
<glyph unicode="&#111;" horiz-adv-x="594" d="M31 250q0 61 18.5 109.5q18.5 48.5 53 82.5q34.5 34 83.5 52q49 18 111 18q70 0 120.5 -19.5q50.5 -19.5 83 -54q32.5 -34.5 47.5 -83q15 -48.5 15 -105.5q0 -61 -18 -109.5q-18 -48.5 -52.5 -82.5q-34.5 -34 -84 -52q-49.5 -18 -111.5 -18q-68 0 -118 19.5q-50 19.5 -83 54q-33 34.5 -49 83q-16 48.5 -16 105.5zt0 0zM186 250q0 -45 5.5 -82.5q5.5 -37.5 19.5 -63.5q14 -26 38 -40.5q24 -14.5 62 -14.5q22 0 40 10.5q18 10.5 31 34q13 23.5 19.5 62q6.5 38.5 6.5 94.5q0 46 -5.5 83q-5.5 37 -19 63q-13.5 26 -36.5 40.5q-23 14.5 -58 14.5q-26 0 -45 -10.5q-19 -10.5 -32 -34q-13 -23.5 -19.5 -62t-6.5 -94.5z" />
<glyph unicode="&#112;" horiz-adv-x="609" d="M297 -200h-276v39q34 16 66 24l0 566l-66 8v39q16 7 39.5 13q23.5 6 48.5 10.5q25 4.5 48.5 7.5q23.5 3 39.5 5l34 0v-112h1q17 48 53.5 80q36.5 32 101.5 32q44 0 79.5 -14.5q35.5 -14.5 60 -45q24.5 -30.5 38 -78q13.5 -47.5 13.5 -113.5q0 -63 -17.5 -114q-17.5 -51 -50 -86q-32.5 -35 -79 -54q-46.5 -19 -105.5 -19q-34 0 -53.5 4.5q-19.5 4.5 -41.5 15.5l0 -145q16 -2 32 -7.5q16 -5.5 34 -16.5zM329 432q-34 0 -60.5 -24q-26.5 -24 -37.5 -74l0 -266q16 -12 34 -17.5q18 -5.5 47 -5.5q57 0 84 55q27 55 27 161q0 82 -20.5 126.5t-73.5 44.5z" />
<glyph unicode="&#113;" horiz-adv-x="589" d="M367 89q-7 -20 -20 -38q-13 -18 -31 -32q-18 -14 -41.5 -22.5q-23.5 -8.5 -52.5 -8.5q-91 0 -141 62q-50 62 -50 187q0 137 73.5 204.5q73.5 67.5 208.5 67.5q28 0 59 -3q31 -3 59 -7.5q28 -4.5 50.5 -10q22.5 -5.5 33.5 -10.5l0 -615q33 -6 66 -24l0 -39h-276v39q31 16 66 24l0 226zM272 68q75 0 99 96l0 274q-17 5 -36 9.5q-19 4.5 -42 4.5q-58 0 -82.5 -46q-24.5 -46 -24.5 -157q0 -87 18 -134t68 -47z" />
<glyph unicode="&#114;" horiz-adv-x="431" d="M290 385q-12 -6 -28 -20q-16 -14 -29 -46l0 -256q20 -2 40 -7.5q20 -5.5 40 -16.5l0 -39h-290v39q18 10 34 15q16 5 32 9l0 366l-66 8v39q16 7 39.5 13q23.5 6 48.5 10.5q25 4.5 48.5 7.5q23.5 3 39.5 5l34 0v-133h4q8 22 23.5 46q15.5 24 36.5 44q21 20 46 32q25 12 52 11q11 -14 19 -39.5q8 -25.5 13 -48.5l0 -39z" />
<glyph unicode="&#115;" horiz-adv-x="452" d="M288 109q0 26 -18.5 45q-18.5 19 -46 35q-27.5 16 -60 32q-32.5 16 -60 37.5q-27.5 21.5 -46 50.5q-18.5 29 -18.5 71q0 30 14 54.5q14 24.5 38 41.5q24 17 57.5 26.5q33.5 9.5 72.5 9.5q54 0 100.5 -8.5q46.5 -8.5 81.5 -23.5q-4 -32 -16 -68.5q-12 -36.5 -23 -66.5l-34 0l-42 102q-12 5 -25 6.5q-13 1.5 -29 1.5q-30 0 -45.5 -17.5q-15.5 -17.5 -15.5 -39.5q0 -25 18.5 -43.5q18.5 -18.5 46 -34.5q27.5 -16 60 -32q32.5 -16 60 -36.5q27.5 -20.5 46 -48.5q18.5 -28 18.5 -67q0 -69 -56 -108.5q-56 -39.5 -150 -39.5q-48 0 -99 10q-51 10 -88 28q2 36 17 73q15 37 32 66l34 0l49 -109q11 -8 24.5 -9.5q13.5 -1.5 25.5 -1.5q29 0 53 17t24 47z" />
<glyph unicode="&#116;" horiz-adv-x="399" d="M8 476q38 24 80 34l0 81q6 6 20.5 11.5q14.5 5.5 31 10q16.5 4.5 32.5 8.5q16 4 26 6l34 0v-127h132v-63h-132v-259q0 -62 15.5 -86q15.5 -24 51.5 -24q18 0 40.5 2.5q22.5 2.5 41.5 9.5l7 -33q-9 -9 -26.5 -19q-17.5 -10 -40 -19q-22.5 -9 -49 -15q-26.5 -6 -55.5 -6q-65 0 -97 34q-32 34 -32 110v305l-80 0z" />
<glyph unicode="&#117;" horiz-adv-x="622" d="M71 198q0 63 3 117q3 54 3 114l-66 8v39q16 6 39.5 12q23.5 6 48.5 10.5q25 4.5 48.5 8q23.5 3.5 39.5 5.5l34 0q0 -75 -3 -147.5q-3 -72.5 -3 -142.5q0 -82 16.5 -118q16.5 -36 61.5 -36q31 0 57.5 23.5q26.5 23.5 43.5 75.5l0 262l-65 8v39q15 6 37.5 12q22.5 6 47 10.5q24.5 4.5 48.5 8q24 3.5 42 5.5l34 0v-441l66 -8v-35q-14 -6 -35 -12q-21 -6 -44 -11.5q-23 -5.5 -45.5 -9q-22.5 -3.5 -40.5 -5.5l-34 0l-7 119h-4q-5 -21 -18 -42.5q-13 -21.5 -33.5 -39q-20.5 -17.5 -48.5 -28.5q-28 -11 -62 -11q-38 0 -67.5 9.5q-29.5 9.5 -50.5 33.5q-21 24 -32 64.5t-11 102.5z" />
<glyph unicode="&#118;" horiz-adv-x="539" d="M243 -12l-200 449q-29 10 -53 24l0 39h263v-38q-13 -7 -26.5 -13.5q-13.5 -6.5 -30.5 -11.5l93 -256l19 -67h2l16 68l85 255q-16 4 -29.5 10q-13.5 6 -25.5 14l0 39h193v-39q-10 -7 -24.5 -13q-14.5 -6 -32.5 -11l-175 -437z" />
<glyph unicode="&#119;" horiz-adv-x="784" d="M200 -12l-157 449q-14 5 -27.5 10.5q-13.5 5.5 -25.5 13.5l0 39h253v-38q-14 -8 -28 -14.5q-14 -6.5 -29 -10.5l69 -256l13 -77h2l18 80l106 310l49 6l114 -317l21 -79h2l16 78l60 255q-11 2 -25.5 8q-14.5 6 -29.5 16l0 39h193v-39q-21 -14 -57 -24l-139 -437l-94 -12l-86 247l-19 83h-3l-23 -83l-80 -235z" />
<glyph unicode="&#120;" horiz-adv-x="560" d="M343 268l158 -205q26 -8 49 -24l0 -39h-255v38q11 8 22.5 14.5q11.5 6.5 23.5 10.5l-95 136l-92 -136q14 -5 24.5 -11q10.5 -6 20.5 -13l0 -39h-189v39q14 8 25.5 14q11.5 6 26.5 10l148 184l-149 190q-14 5 -25 10.5q-11 5.5 -20 13.5l0 39h251v-38q-12 -8 -21.5 -14.5q-9.5 -6.5 -23.5 -10.5l87 -124l83 124q-17 5 -27 11q-10 6 -18 13l0 39h185v-39q-10 -7 -22 -13q-12 -6 -30 -11z" />
<glyph unicode="&#121;" horiz-adv-x="528" d="M38 437q-15 4 -27.5 10q-12.5 6 -25.5 14l0 39h263v-38q-21 -14 -57 -25l101 -251l17 -64h2l16 65l78 250q-30 6 -55 24l0 39h193v-39q-21 -14 -57 -24l-163 -437q-24 -64 -48 -104.5q-24 -40.5 -48 -64.5q-24 -24 -48 -33.5q-24 -9.5 -48 -12.5q-10 9 -18 22.5q-8 13.5 -14 29q-6 15.5 -10 31.5q-4 16 -5 30l13 24h122q9 14 15.5 30q6.5 16 15.5 48z" />
<glyph unicode="&#122;" horiz-adv-x="516" d="M453 185q11 -41 19 -91q8 -50 6 -94l-446 0v39l285 404h-166l-44 -118h-34q-11 43 -18 91q-7 48 -7 84l430 0v-39l-286 -404h173l54 128z" />
<glyph unicode="&#123;" horiz-adv-x="354" d="M123 102q0 51 -21 80q-21 29 -59 29l0 48q38 0 59 30.5q21 30.5 21 74.5v230q0 48 24 77q24 29 72 29h121v-55h-35q-27 0 -39.5 -14q-12.5 -14 -12.5 -46v-220q0 -33 -10.5 -56q-10.5 -23 -27 -37.5q-16.5 -14.5 -35.5 -22q-19 -7.5 -37 -9.5l0 -6q17 -2 36.5 -10q19.5 -8 36 -24q16.5 -16 27 -39.5q10.5 -23.5 10.5 -55.5v-220q0 -31 12 -45.5q12 -14.5 41 -14.5h34v-55h-121q-45 0 -70.5 26.5q-25.5 26.5 -25.5 78.5z" />
<glyph unicode="&#124;" horiz-adv-x="235" d="M83 700h70v-830l-70 0z" />
<glyph unicode="&#125;" horiz-adv-x="354" d="M244 369q0 -51 21 -80q21 -29 59 -29l0 -48q-38 0 -59 -30.5q-21 -30.5 -21 -74.5v-231q0 -48 -24 -77q-24 -29 -72 -29h-121v55h35q27 0 39.5 14q12.5 14 12.5 46v221q0 33 9 56q9 23 23.5 37.5q14.5 14.5 32 22q17.5 7.5 35.5 9.5l0 6q-17 2 -35 10q-18 8 -32.5 24q-14.5 16 -23.5 39.5q-9 23.5 -9 55.5v219q0 31 -12 45.5q-12 14.5 -41 14.5h-34v55h122q45 0 70 -26.5q25 -26.5 25 -78.5z" />
<glyph unicode="&#126;" horiz-adv-x="530" d="M46 312q27 58 67 88.5q40 30.5 77 30.5q25 0 49 -10.5q24 -10.5 47 -23.5q23 -13 46.5 -23.5q23.5 -10.5 48.5 -10.5q18 0 37.5 7.5q19.5 7.5 39.5 26.5l23 -30q-23 -48 -56 -71.5q-33 -23.5 -67 -23.5q-26 0 -50.5 10.5q-24.5 10.5 -48.5 23.5q-24 13 -48 23.5q-24 10.5 -48 10.5q-22 0 -44.5 -12q-22.5 -12 -45.5 -43z" />
<glyph unicode="&#160;" horiz-adv-x="270" />
<glyph unicode="&#161;" horiz-adv-x="344" d="M172 286l50 -194v-278q-11 -6 -30.5 -8.5q-19.5 -2.5 -41.5 -2.5q-22 0 -42 2.5q-20 2.5 -30 8.5l0 278l50 194zM233 433q0 -37 -23 -58.5q-23 -21.5 -61 -21.5q-38 0 -62 21.5q-24 21.5 -24 58.5q0 36 24 57.5q24 21.5 62 21.5q38 0 61 -21.5t23 -57.5z" />
<glyph unicode="&#162;" horiz-adv-x="565" d="M521 81q-13 -35 -52 -60q-39 -25 -93 -30l0 -161h-77v161q-121 13 -182 81.5q-61 68.5 -61 177.5q0 112 62.5 177.5q62.5 65.5 180.5 80.5l0 152h77v-149q45 -2 82 -11.5q37 -9.5 63 -22.5q-2 -17 -5.5 -37.5q-3.5 -20.5 -8 -41q-4.5 -20.5 -10.5 -40q-6 -19.5 -12 -32.5l-34 0l-36 119q-5 2 -10.5 4.5q-5.5 2.5 -19.5 3.5l-16 1v-384q8 -2 15.5 -2q7.5 0 15.5 0q35 0 61 10q26 10 44 24zM211 258q0 -59 22.5 -104.5q22.5 -45.5 72.5 -68.5l0 361q-41 -15 -68 -59t-27 -129z" />
<glyph unicode="&#163;" horiz-adv-x="565" d="M40 375h77q-20 31 -36 68.5q-16 37.5 -16 90.5q0 42 17 75q17 33 47 56q30 23 71.5 35q41.5 12 91.5 12q30 0 62 -3.5q32 -3.5 60.5 -8.5q28.5 -5 52.5 -12q24 -7 38 -14q-1 -16 -4.5 -40q-3.5 -24 -8 -49.5q-4.5 -25.5 -10.5 -49.5q-6 -24 -11 -41l-34 0l-40 137q-36 16 -89 16q-38 0 -62 -18.5q-24 -18.5 -30 -54.5q-4 -19 -1 -42q3 -22 9 -42q6 -20 14.5 -39q8.5 -19 17 -38q8.5 -19 16.5 -38l125 0v-61h-108q4 -31 -3.5 -55q-7.5 -24 -19.5 -47q-4 -20 -14.5 -39q-10.5 -19 -28.5 -33l-33 -24v-4l51 6h177l49 112h34q3 -23 6.5 -55q3.5 -32 6.5 -65q3 -33 5 -62.5q2 -29.5 2 -47.5l-478 0v54q58 25 89 59.5q31 34.5 36 86.5q2 11 2 21.5q0 10.5 0 21.5q-2 20 -6.5 37.5q-4.5 17.5 -10.5 33.5l-113 0z" />
<glyph unicode="&#164;" horiz-adv-x="565" d="M36 178l75 74l40 14q-13 17 -18.5 35.5q-5.5 18.5 -5.5 44.5q0 46 24 79l-40 15l-74 74l78 78l73 -74l16 -40q16 11 34 17q18 6 44 6q52 -1 80 -22l16 39l72 72l78 -77l-74 -73l-38 -14q10 -17 15 -36q5 -19 6 -45q0 -45 -21 -79l38 -14l73 -74l-78 -78l-73 73l-14 39q-15 -9 -35.5 -15q-20.5 -6 -43.5 -6q-26 1 -45.5 6.5q-19.5 5.5 -35.5 14.5l-14 -38l-74 -74zM282 264q36 0 60.5 23q24.5 23 24.5 59q0 36 -24.5 59.5q-24.5 23.5 -60.5 23.5q-36 1 -60.5 -23q-24.5 -24 -24.5 -60q0 -36 24.5 -59t60.5 -23z" />
<glyph unicode="&#165;" horiz-adv-x="565" d="M379 700h240v-38q-14 -9 -35.5 -17.5q-21.5 -8.5 -40.5 -11.5l-151 -291h117v-65h-142v-57h142v-65h-142v-88q19 -2 39 -10.5q20 -8.5 37 -18.5l0 -38h-308v38q17 9 38 17q21 8 44 12l0 88h-143v65h143v57h-143v65h115l-163 291q-23 4 -43.5 12q-20.5 8 -37.5 17l0 38h328v-38q-13 -8 -31.5 -16q-18.5 -8 -42.5 -13l132 -282l128 282q-23 5 -43.5 13q-20.5 8 -36.5 16z" />
<glyph unicode="&#166;" horiz-adv-x="235" d="M83 190h70v-320h-70zM153 380h-70v320l70 0z" />
<glyph unicode="&#167;" horiz-adv-x="566" d="M338 39q0 27 -21 45q-21 18 -52.5 31.5q-31.5 13.5 -68.5 27.5q-37 14 -68.5 33.5q-31.5 19.5 -52.5 48q-21 28.5 -21 73.5q0 50 38.5 85q38.5 35 96.5 58q-21 11 -39 24q-18 13 -31.5 29.5q-13.5 16.5 -21.5 37.5q-8 21 -8 48q0 60 51.5 96q51.5 36 135.5 36q54 0 97.5 -8q43.5 -8 79.5 -19q-4 -32 -11 -58.5q-7 -26.5 -18 -56.5l-34 0l-52 77q-12 5 -22.5 6.5q-10.5 1.5 -26.5 1.5q-34 0 -50 -17.5q-16 -17.5 -16 -39.5q0 -27 21.5 -45.5q21.5 -18.5 53.5 -34q32 -15.5 69.5 -31q37.5 -15.5 69.5 -36q32 -20.5 53.5 -49q21.5 -28.5 21.5 -69.5q0 -26 -11.5 -48q-11.5 -22 -29.5 -40.5q-18 -18.5 -41 -33q-23 -14.5 -45 -25.5q36 -20 61.5 -47q25.5 -27 25.5 -71q0 -70 -55 -110q-55 -40 -156 -40q-48 0 -96.5 10q-48.5 10 -85.5 28q2 36 12 60.5q10 24.5 27 53.5l34 0l59 -84q11 -8 22 -9.5q11 -1.5 23 -1.5q32 0 57 17q25 17 25 47zt0 0zM378 301q0 22 -11.5 39q-11.5 17 -30 30q-18.5 13 -43 23.5q-24.5 10.5 -50.5 21.5q-22 -16 -38.5 -39q-16.5 -23 -16.5 -48q0 -22 12 -38.5q12 -16.5 31.5 -29.5q19.5 -13 44.5 -23.5q25 -10.5 51 -21.5q20 17 35.5 40.5t15.5 45.5z" />
<glyph unicode="&#168;" horiz-adv-x="505" d="M60 659q0 32 20 51q20 19 53 19q32 0 52.5 -19q20.5 -19 20.5 -51q0 -30 -20.5 -49q-20.5 -19 -52.5 -19q-33 0 -53 19q-20 19 -20 49zt0 0zM299 659q0 32 20 51q20 19 52 19q33 0 53.5 -19q20.5 -19 20.5 -51q0 -30 -20.5 -49q-20.5 -19 -53.5 -19q-32 0 -52 19t-20 49z" />
<glyph unicode="&#169;" horiz-adv-x="819" d="M55 290q0 83 29.5 148.5q29.5 65.5 79 110.5q49.5 45 113 69q63.5 24 132.5 24q69 0 132.5 -24q63.5 -24 113 -69q49.5 -45 79 -110.5q29.5 -65.5 29.5 -148.5q0 -83 -29.5 -148.5q-29.5 -65.5 -79 -110.5q-49.5 -45 -113 -69q-63.5 -24 -132.5 -24q-72 0 -136.5 24q-64.5 24 -113 69q-48.5 45 -76.5 110.5q-28 65.5 -28 148.5zt0 0zM122 290q0 -67 23 -121q23 -54 62 -91.5q39 -37.5 91 -58q52 -20.5 111 -20.5q61 0 113.5 20.5q52.5 20.5 91 58q38.5 37.5 60.5 91.5q22 54 22 121q0 69 -24 123q-24 54 -63.5 91.5q-39.5 37.5 -91.5 57q-52 19.5 -108 19.5q-63 0 -115.5 -20.5q-52.5 -20.5 -90.5 -58q-38 -37.5 -59.5 -91.5q-21.5 -54 -21.5 -121zt0 0zM515 220h34q2 -8 4.5 -20.5q2.5 -12.5 4 -27.5q1.5 -15 2 -30q0.5 -15 -0.5 -27q-17 -14 -52.5 -23.5q-35.5 -9.5 -76.5 -9.5q-49 0 -89.5 13.5q-40.5 13.5 -70 40q-29.5 26.5 -46 65.5q-16.5 39 -16.5 90q0 52 18.5 91q18.5 39 48 65q29.5 26 67 39.5q37.5 13.5 75.5 13.5q48 0 83 -8.5q35 -8.5 56 -21.5q1 -9 0 -24q-1 -15 -3 -31.5q-2 -16.5 -4.5 -32.5q-2.5 -16 -5.5 -26l-34 0l-30 83q-7 5 -19 5.5q-12 0.5 -24 0.5q-45 0 -69 -38q-24 -38 -24 -116q0 -33 5.5 -61.5q5.5 -28.5 17.5 -49q12 -20.5 31 -32q19 -11.5 46 -11.5q16 0 28 2.5q12 2.5 16 6.5z" />
<glyph unicode="&#170;" horiz-adv-x="460" d="M99 596q-10 11 -19 33q-9 22 -10 43q25 13 68 24.5q43 11.5 119 11.5q39 0 64 -6.5q25 -6.5 40 -19.5q15 -13 21 -32q6 -19 6 -43q0 -38 -1.5 -81q-1.5 -43 -1.5 -75l50 -10v-35q-9 -5 -24.5 -9.5q-15.5 -4.5 -33 -8.5q-17.5 -4 -34 -6.5q-16.5 -2.5 -27.5 -3.5l-26 0q-7 17 -9.5 31.5q-2.5 14.5 -3.5 31.5l-4 0q-5 -9 -14 -20.5q-9 -11.5 -23.5 -21.5q-14.5 -10 -34.5 -16.5q-20 -6.5 -47 -6.5q-50 0 -79.5 25.5q-29.5 25.5 -29.5 69.5q0 31 16.5 50.5q16.5 19.5 44 30.5q27.5 11 63.5 15.5q36 4.5 76 4.5q7 0 13.5 -0.5q6.5 -0.5 13.5 -0.5q1 6 1 16.5q0 10.5 0 15.5q0 23 -12 38.5q-12 15.5 -46 15.5q-11 0 -24.5 -2q-13.5 -2 -27.5 -7l-28 -52zM205 431q28 0 44 17.5q16 17.5 23 33.5l0 51q-9 1 -17.5 1.5q-8.5 0.5 -16.5 0.5q-32 0 -54 -12q-22 -12 -22 -43q0 -19 11 -34t32 -15z" />
<glyph unicode="&#171;" horiz-adv-x="505" d="M236 259l178 222l43 -36l-106 -179l112 -189l-42 -36zM20 259l240 223l39 -36l-144 -181l150 -189l-39 -37z" />
<glyph unicode="&#172;" horiz-adv-x="552" d="M59 401h434v-216h-80v126l-354 0z" />
<glyph unicode="&#173;" horiz-adv-x="414" d="M66 327h282v-90l-282 0z" />
<glyph unicode="&#174;" horiz-adv-x="703" d="M69 451q0 66 23 118q23 52 62 88q39 36 90 55q51 19 107 19q57 0 108.5 -19q51.5 -19 90 -55q38.5 -36 61 -88q22.5 -52 22.5 -118q0 -66 -23 -118q-23 -52 -62 -88q-39 -36 -90 -55q-51 -19 -107 -19q-57 0 -108.5 19q-51.5 19 -90 55q-38.5 36 -61 88q-22.5 52 -22.5 118zt0 0zM131 451q0 -52 17.5 -93.5q17.5 -41.5 47.5 -71q30 -29.5 70 -45q40 -15.5 85 -15.5q47 0 87.5 15.5q40.5 15.5 70 44.5q29.5 29 46 70.5q16.5 41.5 16.5 94.5q0 52 -17.5 93.5q-17.5 41.5 -47.5 70.5q-30 29 -70 45q-40 16 -85 16q-48 0 -88 -16q-40 -16 -69.5 -45q-29.5 -29 -46 -70.5q-16.5 -41.5 -16.5 -93.5zt0 0zM320 351q13 -1 20 -3.5q7 -2.5 14 -5.5l0 -33h-138v33q17 6 35 9l0 215q-11 1 -19 3.5q-8 2.5 -16 7.5l0 31h52q18 0 43 2q25 2 41 2q54 0 88 -19.5q34 -19.5 34 -64.5q0 -31 -19 -50.5q-19 -19.5 -47 -28.5q9 -15 16.5 -27q7.5 -12 15.5 -23.5q8 -11.5 18.5 -23q10.5 -11.5 24.5 -24.5l23 -12v-30h-64l-28 11q-25 30 -37.5 60q-12.5 30 -23.5 59l-33 0zM347 571q-11 0 -16 -0.5q-5 -0.5 -11 -2.5l0 -91h29q24 0 37 12q13 12 12 39q-1 23 -14.5 33t-36.5 10z" />
<glyph unicode="&#175;" horiz-adv-x="414" d="M60 619v70h294l0 -70z" />
<glyph unicode="&#176;" horiz-adv-x="413" d="M69 571q0 31 11.5 57q11.5 26 31 44.5q19.5 18.5 46 29q26.5 10.5 55.5 10.5q29 0 55.5 -9q26.5 -9 46 -26.5q19.5 -17.5 31 -44q11.5 -26.5 11.5 -61.5q0 -33 -11.5 -59q-11.5 -26 -31 -44.5q-19.5 -18.5 -46 -28q-26.5 -9.5 -55.5 -9.5q-29 0 -55.5 9.5q-26.5 9.5 -46 28q-19.5 18.5 -31 44.5q-11.5 26 -11.5 59zt0 0zM138 571q0 -38 23 -59q23 -21 52 -21q32 0 53.5 19.5q21.5 19.5 21.5 60.5q0 39 -21.5 59.5q-21.5 20.5 -53.5 20.5q-33 0 -54 -21t-21 -59z" />
<glyph unicode="&#177;" horiz-adv-x="565" d="M57 504h185v196h80v-196h185v-80h-185v-132h-80v132h-185zM57 244h450v-80l-450 0z" />
<glyph unicode="&#178;" horiz-adv-x="440" d="M114 621h-27q-6 12 -14 32.5q-8 20.5 -14.5 42q-6.5 21.5 -11.5 40.5q-5 19 -6 29q32 18 78.5 33q46.5 15 101.5 15q83 0 120.5 -32.5q37.5 -32.5 37.5 -83.5q0 -33 -16 -65q-16 -32 -44.5 -61q-28.5 -29 -68.5 -55.5q-40 -26.5 -88 -49.5l0 -6l31 7h119l44 67h31q3 -17 6 -39q3 -22 5 -43q2 -21 2.5 -38.5q0.5 -17.5 0.5 -27.5l-357 0v51q41 23 79.5 51.5q38.5 28.5 68.5 59.5q30 31 48.5 63.5q18.5 32.5 18.5 63.5q0 30 -14.5 46.5q-14.5 16.5 -49.5 16.5q-30 0 -52 -12z" />
<glyph unicode="&#179;" horiz-adv-x="440" d="M207 437q38 0 55.5 22.5q17.5 22.5 17.5 48.5q0 31 -19 48.5q-19 17.5 -62 17.5h-38v35l77 86l44 42v2l-62 -4h-71l-40 -83h-31q-6 13 -11 34q-5 21 -8.5 43.5q-3.5 22.5 -6 43q-2.5 20.5 -2.5 31.5l334 0v-45l-102 -101l-37 -31v-1l31 4q24 0 46 -7.5q22 -7.5 39.5 -22q17.5 -14.5 28 -36.5q10.5 -22 10.5 -51q0 -65 -49.5 -100.5q-49.5 -35.5 -150.5 -35.5q-20 0 -43 3.5q-23 3.5 -45 10q-22 6.5 -41 15q-19 8.5 -32 17.5l34 106h27q5 -5 11 -15q6 -10 13 -21.5q7 -11.5 13.5 -23.5q6.5 -12 11.5 -22q9 -3 23.5 -6.5t34.5 -3.5z" />
<glyph unicode="&#180;" horiz-adv-x="351" d="M168 763q8 2 26.5 1.5q18.5 -0.5 38.5 -3.5q20 -3 36.5 -8.5q16.5 -5.5 21.5 -11.5l0 -24l-191 -155l-40 22z" />
<glyph unicode="&#181;" horiz-adv-x="622" d="M150 13l49 -174v-39q-36 -8 -67.5 -8q-31.5 0 -60.5 8l0 629l-60 8v39q16 6 39.5 12q23.5 6 48.5 10.5q25 4.5 48.5 8q23.5 3.5 39.5 5.5l34 0q0 -75 -3 -147.5q-3 -72.5 -3 -142.5q0 -82 16.5 -118q16.5 -36 61.5 -36q31 0 58 23.5q27 23.5 44 75.5l0 262l-66 8v39q15 6 37.5 12q22.5 6 47.5 10.5q25 4.5 49 8q24 3.5 42 5.5l34 0v-441l66 -8v-35q-14 -6 -35 -12q-21 -6 -44.5 -11.5q-23.5 -5.5 -46 -9q-22.5 -3.5 -40.5 -5.5l-34 0l-7 119h-4q-5 -21 -17.5 -42.5q-12.5 -21.5 -32.5 -39q-20 -17.5 -46 -28.5q-26 -11 -56 -11q-28 0 -50.5 7q-22.5 7 -36.5 18z" />
<glyph unicode="&#182;" horiz-adv-x="547" d="M411 94q0 -67 -10 -110.5q-10 -43.5 -29.5 -70q-19.5 -26.5 -48 -40q-28.5 -13.5 -65.5 -21.5q-20 -29 -49.5 -43.5q-29.5 -14.5 -60.5 -20.5l-16 33q22 9 41.5 22.5q19.5 13.5 33.5 36q14 22.5 22.5 57.5q8.5 35 8.5 87v286q-32 0 -63.5 10q-31.5 10 -57 32.5q-25.5 22.5 -41.5 59q-16 36.5 -16 88.5q0 42 12.5 78.5q12.5 36.5 37 63.5q24.5 27 62.5 42.5q38 15.5 89 15.5h226v-43q-17 -8 -35 -14q-18 -6 -41 -10zM278 -111q41 13 55 64.5q14 51.5 14 140.5v544h-44v-614q0 -40 -5.5 -74.5t-19.5 -60.5z" />
<glyph unicode="&#183;" horiz-adv-x="296" d="M63 321q0 36 23 58q23 22 61 22q38 0 62 -22q24 -22 24 -58q0 -36 -24 -57.5q-24 -21.5 -62 -21.5q-38 0 -61 21.5t-23 57.5z" />
<glyph unicode="&#184;" horiz-adv-x="318" d="M134 -68q60 -3 91.5 -21.5q31.5 -18.5 32.5 -54.5q0 -29 -17 -50q-17 -21 -45 -35q-28 -14 -63 -21q-35 -7 -70 -7l0 39q70 11 70 57q-1 23 -19.5 33q-18.5 10 -53.5 14l41 115l59 0z" />
<glyph unicode="&#185;" horiz-adv-x="440" d="M385 386h-313v30q27 14 51.5 24q24.5 10 49.5 15l0 215l4 45q-24 -7 -56.5 -7.5q-32.5 -0.5 -55.5 1.5l0 42q46 6 95 24q49 18 85 38l40 0v-358q55 -13 100 -39z" />
<glyph unicode="&#186;" horiz-adv-x="458" d="M37 542q0 39 14 70q14 31 39.5 53.5q25.5 22.5 60.5 34.5q35 12 78 12q43 0 78.5 -10.5q35.5 -10.5 60.5 -31.5q25 -21 39 -53q14 -32 14 -75q0 -39 -14 -70.5q-14 -31.5 -39 -53.5q-25 -22 -60.5 -34q-35.5 -12 -78.5 -12q-43 0 -78 10.5q-35 10.5 -60.5 31.5q-25.5 21 -39.5 53q-14 32 -14 75zt0 0zM157 542q0 -119 72 -119q35 0 53.5 26.5q18.5 26.5 18.5 92.5q0 66 -18.5 92.5q-18.5 26.5 -53.5 26.5q-37 0 -54.5 -26.5t-17.5 -92.5z" />
<glyph unicode="&#187;" horiz-adv-x="505" d="M87 41l-42 36l109 182l-109 186l42 36l182 -220zM242 40l-39 37l147 182l-147 187l39 36l243 -221z" />
<glyph unicode="&#188;" horiz-adv-x="958" d="M370 282h-313v30q27 14 51.5 24q24.5 10 49.5 15l0 215l4 45q-24 -7 -56.5 -7.5q-32.5 -0.5 -55.5 1.5l0 42q46 6 95 24q49 18 85 38l40 0v-358q55 -13 100 -39zM877 0h-244v30q15 8 34 16.5q19 8.5 39 12.5l0 54h-231v37l274 277h69v-254h85v-60h-85v-54q30 -6 59 -29zM706 276l8 43h-3l-33 -43l-84 -87l-36 -23l54 7h94zM772 715l48 -42l-585 -686l-47 43z" />
<glyph unicode="&#189;" horiz-adv-x="1031" d="M370 282h-313v30q27 14 51.5 24q24.5 10 49.5 15l0 215l4 45q-24 -7 -56.5 -7.5q-32.5 -0.5 -55.5 1.5l0 42q46 6 95 24q49 18 85 38l40 0v-358q55 -13 100 -39zM688 235h-27q-6 12 -14 32.5q-8 20.5 -14.5 42q-6.5 21.5 -11.5 40.5q-5 19 -6 29q32 18 78.5 33q46.5 15 101.5 15q83 0 120.5 -32.5q37.5 -32.5 37.5 -83.5q0 -33 -16 -65q-16 -32 -44.5 -61q-28.5 -29 -68.5 -55.5q-40 -26.5 -88 -49.5l0 -6l31 7h119l44 67h31q3 -17 6 -39q3 -22 5 -43q2 -21 2.5 -38.5q0.5 -17.5 0.5 -27.5l-357 0v51q41 23 79.5 51.5q38.5 28.5 68.5 59.5q30 31 48.5 63.5q18.5 32.5 18.5 63.5q0 30 -14.5 46.5q-14.5 16.5 -49.5 16.5q-30 0 -52 -12zM772 715l48 -42l-585 -686l-47 43z" />
<glyph unicode="&#190;" horiz-adv-x="980" d="M223 333q38 0 55.5 22.5q17.5 22.5 17.5 48.5q0 31 -19 48.5q-19 17.5 -62 17.5h-38v35l77 86l44 42v2l-62 -4h-71l-40 -83h-31q-6 13 -11 34q-5 21 -8.5 43.5q-3.5 22.5 -6 43q-2.5 20.5 -2.5 31.5l334 0v-45l-102 -101l-37 -31v-1l31 4q24 0 46 -7.5q22 -7.5 39.5 -22q17.5 -14.5 28 -36.5q10.5 -22 10.5 -51q0 -65 -49.5 -100.5q-49.5 -35.5 -150.5 -35.5q-20 0 -43 3.5q-23 3.5 -45 10q-22 6.5 -41 15q-19 8.5 -32 17.5l34 106h27q5 -5 11 -15q6 -10 13 -21.5q7 -11.5 13.5 -23.5q6.5 -12 11.5 -22q9 -3 23.5 -6.5q14.5 -3.5 34.5 -3.5zt0 0zM899 0h-244v30q15 8 34 16.5q19 8.5 39 12.5l0 54h-231v37l274 277h69v-254h85v-60h-85v-54q30 -6 59 -29zM728 276l8 43h-3l-33 -43l-84 -87l-36 -23l54 7h94zM794 715l48 -42l-585 -686l-47 43z" />
<glyph unicode="&#191;" horiz-adv-x="486" d="M351 3h34q5 -13 12 -32.5q7 -19.5 14 -41q7 -21.5 12 -44.5q5 -23 7 -42q-38 -23 -86.5 -37q-48.5 -14 -123.5 -14q-45 0 -80.5 12.5q-35.5 12.5 -61 34q-25.5 21.5 -39 51.5q-13.5 30 -13.5 65q0 45 17 77q17 32 42 56.5q25 24.5 54.5 45q29.5 20.5 55 44q25.5 23.5 42.5 52.5q17 29 17 71l33 0q14 -46 10.5 -80q-3.5 -34 -16.5 -60.5q-13 -26.5 -31.5 -49q-18.5 -22.5 -36 -45q-17.5 -22.5 -30 -48.5q-12.5 -26 -12.5 -60q0 -20 4.5 -38q4.5 -18 14.5 -32q10 -14 26.5 -22.5q16.5 -8.5 40.5 -8.5q44 0 61 14zM344 433q0 -37 -23.5 -58.5q-23.5 -21.5 -61.5 -21.5q-38 0 -62 21.5q-24 21.5 -24 58.5q0 36 24 57.5q24 21.5 62 21.5q38 0 61.5 -21.5t23.5 -57.5z" />
<glyph unicode="&#192;" horiz-adv-x="729" d="M247 0h-247v38q16 10 34.5 17.5q18.5 7.5 36.5 11.5l258 645h74l251 -645q20 -4 40 -11.5q20 -7.5 35 -17.5l0 -38h-313v38q19 9 41 17q22 8 42 12l-58 159h-222l-59 -159q46 -6 87 -29zM243 291h177l-65 191l-19 86h-2l-22 -88zM416 764l-34 -19l-236 96v20q3 9 21.5 16.5q18.5 7.5 42 13q23.5 5.5 46 8q22.5 2.5 33.5 -0.5z" />
<glyph unicode="&#193;" horiz-adv-x="729" d="M247 0h-247v38q16 10 34.5 17.5q18.5 7.5 36.5 11.5l258 645h74l251 -645q20 -4 40 -11.5q20 -7.5 35 -17.5l0 -38h-313v38q19 9 41 17q22 8 42 12l-58 159h-222l-59 -159q46 -6 87 -29zM243 291h177l-65 191l-19 86h-2l-22 -88zM452 898q16 1 36.5 -2q20.5 -3 40 -8.5q19.5 -5.5 35 -12.5q15.5 -7 21.5 -14l0 -20l-247 -96l-28 24z" />
<glyph unicode="&#194;" horiz-adv-x="729" d="M247 0h-247v38q16 10 34.5 17.5q18.5 7.5 36.5 11.5l258 645h74l251 -645q20 -4 40 -11.5q20 -7.5 35 -17.5l0 -38h-313v38q19 9 41 17q22 8 42 12l-58 159h-222l-59 -159q46 -6 87 -29zM243 291h177l-65 191l-19 86h-2l-22 -88zM240 743l-28 28l127 117q10 5 31 5q21 0 31 -5l125 -114l-28 -30l-132 56z" />
<glyph unicode="&#195;" horiz-adv-x="729" d="M247 0h-247v38q16 10 34.5 17.5q18.5 7.5 36.5 11.5l258 645h74l251 -645q20 -4 40 -11.5q20 -7.5 35 -17.5l0 -38h-313v38q19 9 41 17q22 8 42 12l-58 159h-222l-59 -159q46 -6 87 -29zM243 291h177l-65 191l-19 86h-2l-22 -88zM540 817q-32 -32 -60 -48.5q-28 -16.5 -64 -16.5q-19 0 -35.5 5.5q-16.5 5.5 -32.5 11.5q-16 6 -31 11.5q-15 5.5 -31 5.5q-14 0 -30.5 -5.5q-16.5 -5.5 -32.5 -19.5l-28 47q76 68 135 68q18 0 34.5 -5q16.5 -5 31.5 -11q15 -6 30 -11q15 -5 31 -5q13 0 29 4.5q16 4.5 32 15.5z" />
<glyph unicode="&#196;" horiz-adv-x="729" d="M247 0h-247v38q16 10 34.5 17.5q18.5 7.5 36.5 11.5l258 645h74l251 -645q20 -4 40 -11.5q20 -7.5 35 -17.5l0 -38h-313v38q19 9 41 17q22 8 42 12l-58 159h-222l-59 -159q46 -6 87 -29zM243 291h177l-65 191l-19 86h-2l-22 -88zM163 793q0 32 23 48q23 16 58 16q35 0 58 -16q23 -16 23 -48q0 -28 -23 -43.5q-23 -15.5 -58 -15.5q-35 0 -58 15.5q-23 15.5 -23 43.5zt0 0zM408 793q0 32 23.5 48q23.5 16 58.5 16q35 0 58 -16q23 -16 23 -48q0 -28 -23 -43.5q-23 -15.5 -58 -15.5q-35 0 -58.5 15.5t-23.5 43.5z" />
<glyph unicode="&#197;" horiz-adv-x="729" d="M243 291h177l-65 191l-19 86h-2l-22 -88zM321 788q0 -17 15 -25.5q15 -8.5 30 -8.5q23 0 36 8.5q13 8.5 13 24.5q0 23 -13.5 32q-13.5 9 -32.5 9q-21 0 -34.5 -9q-13.5 -9 -13.5 -31zt0 0zM238 788q0 41 36 65.5q36 24.5 97 24.5q26 0 49 -5.5q23 -5.5 40.5 -16.5q17.5 -11 27.5 -27q10 -16 10 -38q0 -39 -36 -63q-24 -16 -57 -22l249 -639q20 -4 40 -11.5q20 -7.5 35 -17.5l0 -38h-313v38q19 9 41 17q22 8 42 12l-58 159h-222l-59 -159q46 -6 87 -29l0 -38h-247v38q16 10 34.5 17.5q18.5 7.5 36.5 11.5l256 640q-34 5 -55 20q-34 23 -34 61z" />
<glyph unicode="&#198;" horiz-adv-x="959" d="M901 700q-2 -45 -7 -93q-5 -48 -13 -90l-42 0l-46 118h-187v-245h123l44 77h31q5 -49 5 -109q0 -60 -5 -112l-31 0l-44 79h-123v-260h195l53 127h42q4 -19 7.5 -43q3.5 -24 6.5 -49.5q3 -25.5 4.5 -51.5q1.5 -26 1.5 -48l-537 0v38q16 8 36 16q20 8 41 13l2 177h-185l-103 -177q41 -8 77 -29l0 -38h-242v38q16 10 34 17.5q18 7.5 36 11.5l348 571q-15 5 -30 10.5q-15 5.5 -28 13.5l0 38zM310 309h148l3 285h-2l-36 -90z" />
<glyph unicode="&#199;" horiz-adv-x="652" d="M540 210h41q4 -16 7.5 -38.5q3.5 -22.5 6 -48q2.5 -25.5 3.5 -50.5q1 -25 1 -45q-18 -12 -41.5 -19.5q-23.5 -7.5 -49.5 -12q-26 -4.5 -53.5 -6.5q-27.5 -2 -54.5 -2l-24 -58q60 -2 97.5 -23.5q37.5 -21.5 37.5 -65.5q0 -33 -22.5 -57q-22.5 -24 -55 -39.5q-32.5 -15.5 -69 -22.5q-36.5 -7 -65.5 -7l0 46q35 5 57.5 20q22.5 15 21.5 43q-1 23 -17.5 36q-16.5 13 -58.5 15l36 117q-69 7 -124 31.5q-55 24.5 -94 68.5q-39 44 -60 108.5q-21 64.5 -21 150.5q0 95 28.5 163.5q28.5 68.5 76.5 112.5q48 44 111.5 64.5q63.5 20.5 133.5 20.5q66 0 119.5 -9.5q53.5 -9.5 87.5 -25.5q0 -16 -1.5 -41q-1.5 -25 -5 -52.5q-3.5 -27.5 -8 -54q-4.5 -26.5 -8.5 -44.5l-42 0l-55 151q-9 5 -29 8q-20 3 -41 3q-41 0 -77 -16.5q-36 -16.5 -64 -52.5q-28 -36 -44 -92.5q-16 -56.5 -16 -135.5q0 -143 57 -220q57 -77 155 -77q28 0 47.5 4.5q19.5 4.5 26.5 12.5z" />
<glyph unicode="&#200;" horiz-adv-x="604" d="M546 700q-2 -45 -7 -93q-5 -48 -13 -90l-41 0l-46 118h-187v-245h122l44 77h32q5 -49 5 -109q0 -60 -5 -112l-32 0l-44 79h-122v-260h195l53 127h41q4 -19 8 -43q4 -24 6.5 -49.5q2.5 -25.5 4 -51.5q1.5 -26 1.5 -48l-541 0v38q17 9 38 17q21 8 44 12l0 566q-20 4 -42.5 11.5q-22.5 7.5 -39.5 17.5l0 38zM370 764l-34 -19l-236 96v20q3 9 21.5 16.5q18.5 7.5 42 13q23.5 5.5 46 8q22.5 2.5 33.5 -0.5z" />
<glyph unicode="&#201;" horiz-adv-x="604" d="M546 700q-2 -45 -7 -93q-5 -48 -13 -90l-41 0l-46 118h-187v-245h122l44 77h32q5 -49 5 -109q0 -60 -5 -112l-32 0l-44 79h-122v-260h195l53 127h41q4 -19 8 -43q4 -24 6.5 -49.5q2.5 -25.5 4 -51.5q1.5 -26 1.5 -48l-541 0v38q17 9 38 17q21 8 44 12l0 566q-20 4 -42.5 11.5q-22.5 7.5 -39.5 17.5l0 38zM362 898q16 1 36.5 -2q20.5 -3 40 -8.5q19.5 -5.5 35 -12.5q15.5 -7 21.5 -14l0 -20l-247 -96l-28 24z" />
<glyph unicode="&#202;" horiz-adv-x="604" d="M546 700q-2 -45 -7 -93q-5 -48 -13 -90l-41 0l-46 118h-187v-245h122l44 77h32q5 -49 5 -109q0 -60 -5 -112l-32 0l-44 79h-122v-260h195l53 127h41q4 -19 8 -43q4 -24 6.5 -49.5q2.5 -25.5 4 -51.5q1.5 -26 1.5 -48l-541 0v38q17 9 38 17q21 8 44 12l0 566q-20 4 -42.5 11.5q-22.5 7.5 -39.5 17.5l0 38zM182 743l-28 28l127 117q10 5 31 5q21 0 31 -5l125 -114l-28 -30l-132 56z" />
<glyph unicode="&#203;" horiz-adv-x="604" d="M546 700q-2 -45 -7 -93q-5 -48 -13 -90l-41 0l-46 118h-187v-245h122l44 77h32q5 -49 5 -109q0 -60 -5 -112l-32 0l-44 79h-122v-260h195l53 127h41q4 -19 8 -43q4 -24 6.5 -49.5q2.5 -25.5 4 -51.5q1.5 -26 1.5 -48l-541 0v38q17 9 38 17q21 8 44 12l0 566q-20 4 -42.5 11.5q-22.5 7.5 -39.5 17.5l0 38zM93 793q0 32 23 48q23 16 58 16q35 0 58 -16q23 -16 23 -48q0 -28 -23 -43.5q-23 -15.5 -58 -15.5q-35 0 -58 15.5q-23 15.5 -23 43.5zt0 0zM338 793q0 32 23.5 48q23.5 16 58.5 16q35 0 58 -16q23 -16 23 -48q0 -28 -23 -43.5q-23 -15.5 -58 -15.5q-35 0 -58.5 15.5t-23.5 43.5z" />
<glyph unicode="&#204;" horiz-adv-x="372" d="M342 0h-312v38q40 22 81 29l0 566q-20 3 -42 11q-22 8 -39 18l0 38h312v-38q-18 -11 -39.5 -18.5q-21.5 -7.5 -41.5 -10.5l0 -566q20 -4 41.5 -11q21.5 -7 39.5 -18zM301 764l-34 -19l-236 96v20q3 9 21.5 16.5q18.5 7.5 42 13q23.5 5.5 46 8q22.5 2.5 33.5 -0.5z" />
<glyph unicode="&#205;" horiz-adv-x="372" d="M342 0h-312v38q40 22 81 29l0 566q-20 3 -42 11q-22 8 -39 18l0 38h312v-38q-18 -11 -39.5 -18.5q-21.5 -7.5 -41.5 -10.5l0 -566q20 -4 41.5 -11q21.5 -7 39.5 -18zM219 898q16 1 36.5 -2q20.5 -3 40 -8.5q19.5 -5.5 35 -12.5q15.5 -7 21.5 -14l0 -20l-247 -96l-28 24z" />
<glyph unicode="&#206;" horiz-adv-x="372" d="M342 0h-312v38q40 22 81 29l0 566q-20 3 -42 11q-22 8 -39 18l0 38h312v-38q-18 -11 -39.5 -18.5q-21.5 -7.5 -41.5 -10.5l0 -566q20 -4 41.5 -11q21.5 -7 39.5 -18zM57 743l-28 28l127 117q10 5 31 5q21 0 31 -5l125 -114l-28 -30l-132 56z" />
<glyph unicode="&#207;" horiz-adv-x="372" d="M342 0h-312v38q40 22 81 29l0 566q-20 3 -42 11q-22 8 -39 18l0 38h312v-38q-18 -11 -39.5 -18.5q-21.5 -7.5 -41.5 -10.5l0 -566q20 -4 41.5 -11q21.5 -7 39.5 -18zM-18 793q0 32 23 48q23 16 58 16q35 0 58 -16q23 -16 23 -48q0 -28 -23 -43.5q-23 -15.5 -58 -15.5q-35 0 -58 15.5q-23 15.5 -23 43.5zt0 0zM227 793q0 32 23.5 48q23.5 16 58.5 16q35 0 58 -16q23 -16 23 -48q0 -28 -23 -43.5q-23 -15.5 -58 -15.5q-35 0 -58.5 15.5t-23.5 43.5z" />
<glyph unicode="&#208;" horiz-adv-x="741" d="M22 389h85v244q-23 5 -44.5 12.5q-21.5 7.5 -37.5 16.5l0 38h116q17 0 42 1q25 1 52 2.5q27 1.5 52.5 3q25.5 1.5 43.5 1.5q87 0 155.5 -23q68.5 -23 116 -67q47.5 -44 73 -109q25.5 -65 25.5 -150q0 -83 -24 -151q-24 -68 -72 -116q-48 -48 -121.5 -74.5q-73.5 -26.5 -172.5 -26.5q-13 0 -35 1.5q-22 1.5 -47 3q-25 1.5 -50 3q-25 1.5 -44 1.5h-110v38q17 10 38 17.5q21 7.5 44 11.5l0 262h-85zM318 643q-18 0 -36 -1q-18 -1 -31 -3l0 -250h153v-60h-153v-269q4 -1 14 -1.5q10 -0.5 20.5 -1q10.5 -0.5 20.5 -1q10 -0.5 15 -0.5q58 0 98.5 24q40.5 24 66.5 65q26 41 38 96q12 55 12 117q0 55 -12.5 106q-12.5 51 -38.5 91q-26 40 -67.5 64t-99.5 24z" />
<glyph unicode="&#209;" horiz-adv-x="758" d="M490 700h248v-38q-19 -15 -42 -26.5q-23 -11.5 -43 -17.5l0 -630h-85l-353 510l-40 77h-3l9 -80v-417q20 -5 44.5 -16.5q24.5 -11.5 41.5 -23.5l0 -38h-247v38q18 12 39.5 22.5q21.5 10.5 44.5 17.5l0 546q-20 8 -40 18q-20 10 -36 21l0 37h216l287 -416l46 -86h4l-5 86v334q-24 8 -46.5 19.5q-22.5 11.5 -39.5 24.5zM556 817q-32 -32 -60 -48.5q-28 -16.5 -64 -16.5q-19 0 -35.5 5.5q-16.5 5.5 -32.5 11.5q-16 6 -31 11.5q-15 5.5 -31 5.5q-14 0 -30.5 -5.5q-16.5 -5.5 -32.5 -19.5l-28 47q76 68 135 68q18 0 34.5 -5q16.5 -5 31.5 -11q15 -6 30 -11q15 -5 31 -5q13 0 29 4.5q16 4.5 32 15.5z" />
<glyph unicode="&#210;" horiz-adv-x="754" d="M39 350q0 78 22 144.5q22 66.5 65 115q43 48.5 106 75.5q63 27 145 27q82 0 145 -27q63 -27 105.5 -75.5q42.5 -48.5 64.5 -115q22 -66.5 22 -144.5q0 -78 -22 -144.5q-22 -66.5 -64.5 -115q-42.5 -48.5 -105.5 -75.5q-63 -27 -145 -27q-82 0 -145 27q-63 27 -106 75.5q-43 48.5 -65 115q-22 66.5 -22 144.5zt0 0zM209 350q0 -64 10 -118.5q10 -54.5 31.5 -94q21.5 -39.5 55 -62q33.5 -22.5 80.5 -22.5q43 0 73 22.5q30 22.5 49 62q19 39.5 27.5 94q8.5 54.5 8.5 118.5q0 64 -9.5 118.5q-9.5 54.5 -30 94q-20.5 39.5 -54 62q-33.5 22.5 -81.5 22.5q-46 0 -77 -22.5q-31 -22.5 -49.5 -62q-18.5 -39.5 -26 -94q-7.5 -54.5 -7.5 -118.5zt0 0zM463 764l-34 -19l-236 96v20q3 9 21.5 16.5q18.5 7.5 42 13q23.5 5.5 46 8q22.5 2.5 33.5 -0.5z" />
<glyph unicode="&#211;" horiz-adv-x="754" d="M39 350q0 78 22 144.5q22 66.5 65 115q43 48.5 106 75.5q63 27 145 27q82 0 145 -27q63 -27 105.5 -75.5q42.5 -48.5 64.5 -115q22 -66.5 22 -144.5q0 -78 -22 -144.5q-22 -66.5 -64.5 -115q-42.5 -48.5 -105.5 -75.5q-63 -27 -145 -27q-82 0 -145 27q-63 27 -106 75.5q-43 48.5 -65 115q-22 66.5 -22 144.5zt0 0zM209 350q0 -64 10 -118.5q10 -54.5 31.5 -94q21.5 -39.5 55 -62q33.5 -22.5 80.5 -22.5q43 0 73 22.5q30 22.5 49 62q19 39.5 27.5 94q8.5 54.5 8.5 118.5q0 64 -9.5 118.5q-9.5 54.5 -30 94q-20.5 39.5 -54 62q-33.5 22.5 -81.5 22.5q-46 0 -77 -22.5q-31 -22.5 -49.5 -62q-18.5 -39.5 -26 -94q-7.5 -54.5 -7.5 -118.5zt0 0zM425 898q16 1 36.5 -2q20.5 -3 40 -8.5q19.5 -5.5 35 -12.5q15.5 -7 21.5 -14l0 -20l-247 -96l-28 24z" />
<glyph unicode="&#212;" horiz-adv-x="754" d="M39 350q0 78 22 144.5q22 66.5 65 115q43 48.5 106 75.5q63 27 145 27q82 0 145 -27q63 -27 105.5 -75.5q42.5 -48.5 64.5 -115q22 -66.5 22 -144.5q0 -78 -22 -144.5q-22 -66.5 -64.5 -115q-42.5 -48.5 -105.5 -75.5q-63 -27 -145 -27q-82 0 -145 27q-63 27 -106 75.5q-43 48.5 -65 115q-22 66.5 -22 144.5zt0 0zM209 350q0 -64 10 -118.5q10 -54.5 31.5 -94q21.5 -39.5 55 -62q33.5 -22.5 80.5 -22.5q43 0 73 22.5q30 22.5 49 62q19 39.5 27.5 94q8.5 54.5 8.5 118.5q0 64 -9.5 118.5q-9.5 54.5 -30 94q-20.5 39.5 -54 62q-33.5 22.5 -81.5 22.5q-46 0 -77 -22.5q-31 -22.5 -49.5 -62q-18.5 -39.5 -26 -94q-7.5 -54.5 -7.5 -118.5zt0 0zM248 743l-28 28l127 117q10 5 31 5q21 0 31 -5l125 -114l-28 -30l-132 56z" />
<glyph unicode="&#213;" horiz-adv-x="754" d="M39 350q0 78 22 144.5q22 66.5 65 115q43 48.5 106 75.5q63 27 145 27q82 0 145 -27q63 -27 105.5 -75.5q42.5 -48.5 64.5 -115q22 -66.5 22 -144.5q0 -78 -22 -144.5q-22 -66.5 -64.5 -115q-42.5 -48.5 -105.5 -75.5q-63 -27 -145 -27q-82 0 -145 27q-63 27 -106 75.5q-43 48.5 -65 115q-22 66.5 -22 144.5zt0 0zM209 350q0 -64 10 -118.5q10 -54.5 31.5 -94q21.5 -39.5 55 -62q33.5 -22.5 80.5 -22.5q43 0 73 22.5q30 22.5 49 62q19 39.5 27.5 94q8.5 54.5 8.5 118.5q0 64 -9.5 118.5q-9.5 54.5 -30 94q-20.5 39.5 -54 62q-33.5 22.5 -81.5 22.5q-46 0 -77 -22.5q-31 -22.5 -49.5 -62q-18.5 -39.5 -26 -94q-7.5 -54.5 -7.5 -118.5zt0 0zM550 817q-32 -32 -60 -48.5q-28 -16.5 -64 -16.5q-19 0 -35.5 5.5q-16.5 5.5 -32.5 11.5q-16 6 -31 11.5q-15 5.5 -31 5.5q-14 0 -30.5 -5.5q-16.5 -5.5 -32.5 -19.5l-28 47q76 68 135 68q18 0 34.5 -5q16.5 -5 31.5 -11q15 -6 30 -11q15 -5 31 -5q13 0 29 4.5q16 4.5 32 15.5z" />
<glyph unicode="&#214;" horiz-adv-x="754" d="M39 350q0 78 22 144.5q22 66.5 65 115q43 48.5 106 75.5q63 27 145 27q82 0 145 -27q63 -27 105.5 -75.5q42.5 -48.5 64.5 -115q22 -66.5 22 -144.5q0 -78 -22 -144.5q-22 -66.5 -64.5 -115q-42.5 -48.5 -105.5 -75.5q-63 -27 -145 -27q-82 0 -145 27q-63 27 -106 75.5q-43 48.5 -65 115q-22 66.5 -22 144.5zt0 0zM209 350q0 -64 10 -118.5q10 -54.5 31.5 -94q21.5 -39.5 55 -62q33.5 -22.5 80.5 -22.5q43 0 73 22.5q30 22.5 49 62q19 39.5 27.5 94q8.5 54.5 8.5 118.5q0 64 -9.5 118.5q-9.5 54.5 -30 94q-20.5 39.5 -54 62q-33.5 22.5 -81.5 22.5q-46 0 -77 -22.5q-31 -22.5 -49.5 -62q-18.5 -39.5 -26 -94q-7.5 -54.5 -7.5 -118.5zt0 0zM173 793q0 32 23 48q23 16 58 16q35 0 58 -16q23 -16 23 -48q0 -28 -23 -43.5q-23 -15.5 -58 -15.5q-35 0 -58 15.5q-23 15.5 -23 43.5zt0 0zM418 793q0 32 23.5 48q23.5 16 58.5 16q35 0 58 -16q23 -16 23 -48q0 -28 -23 -43.5q-23 -15.5 -58 -15.5q-35 0 -58.5 15.5t-23.5 43.5z" />
<glyph unicode="&#215;" horiz-adv-x="565" d="M94 213l130 131l-128 129l56 56l129 -128l131 130l56 -56l-130 -131l133 -133l-57 -57l-133 133l-131 -130z" />
<glyph unicode="&#216;" horiz-adv-x="754" d="M39 350q0 78 22 144.5q22 66.5 65 115q43 48.5 106 75.5q63 27 145 27q48 0 89 -10q41 -10 76 -28l27 44l63 -39l-29 -46q55 -49 83 -121.5q28 -72.5 28 -161.5q0 -78 -22 -144.5q-22 -66.5 -64.5 -115q-42.5 -48.5 -105.5 -75.5q-63 -27 -145 -27q-48 0 -88 9.5q-40 9.5 -75 26.5l-26 -42l-61 39l26 42q-57 49 -85.5 122.5q-28.5 73.5 -28.5 164.5zt0 0zM209 350q0 -45 7 -84.5q7 -39.5 21 -71.5l249 394q-20 28 -49 43.5q-29 15.5 -68 15.5q-46 0 -77 -22.5q-31 -22.5 -49.5 -62q-18.5 -39.5 -26 -94q-7.5 -54.5 -7.5 -118.5zt0 0zM544 350q0 43 -6 81q-6 38 -20 70l-248 -391q42 -57 116 -57q43 0 73 22.5q30 22.5 49 62q19 39.5 27.5 94t8.5 118.5z" />
<glyph unicode="&#217;" horiz-adv-x="715" d="M7 700h308v-38q-33 -21 -76 -29l0 -385q0 -49 11 -82q11 -33 32 -53.5q21 -20.5 50.5 -29.5q29.5 -9 66.5 -9q33 0 60.5 9.5q27.5 9.5 48 30.5q20.5 21 31.5 55q11 34 11 84v375q-23 5 -47.5 14q-24.5 9 -40.5 20l0 38h248v-38q-18 -13 -40 -21q-22 -8 -43 -13l0 -376q0 -128 -67.5 -194.5q-67.5 -66.5 -190.5 -66.5q-134 0 -207 60q-73 60 -73 192v390q-20 3 -42 10.5q-22 7.5 -40 18.5zM452 764l-34 -19l-236 96v20q3 9 21.5 16.5q18.5 7.5 42 13q23.5 5.5 46 8q22.5 2.5 33.5 -0.5z" />
<glyph unicode="&#218;" horiz-adv-x="715" d="M7 700h308v-38q-33 -21 -76 -29l0 -385q0 -49 11 -82q11 -33 32 -53.5q21 -20.5 50.5 -29.5q29.5 -9 66.5 -9q33 0 60.5 9.5q27.5 9.5 48 30.5q20.5 21 31.5 55q11 34 11 84v375q-23 5 -47.5 14q-24.5 9 -40.5 20l0 38h248v-38q-18 -13 -40 -21q-22 -8 -43 -13l0 -376q0 -128 -67.5 -194.5q-67.5 -66.5 -190.5 -66.5q-134 0 -207 60q-73 60 -73 192v390q-20 3 -42 10.5q-22 7.5 -40 18.5zM499 898q16 1 36.5 -2q20.5 -3 40 -8.5q19.5 -5.5 35 -12.5q15.5 -7 21.5 -14l0 -20l-247 -96l-28 24z" />
<glyph unicode="&#219;" horiz-adv-x="715" d="M7 700h308v-38q-33 -21 -76 -29l0 -385q0 -49 11 -82q11 -33 32 -53.5q21 -20.5 50.5 -29.5q29.5 -9 66.5 -9q33 0 60.5 9.5q27.5 9.5 48 30.5q20.5 21 31.5 55q11 34 11 84v375q-23 5 -47.5 14q-24.5 9 -40.5 20l0 38h248v-38q-18 -13 -40 -21q-22 -8 -43 -13l0 -376q0 -128 -67.5 -194.5q-67.5 -66.5 -190.5 -66.5q-134 0 -207 60q-73 60 -73 192v390q-20 3 -42 10.5q-22 7.5 -40 18.5zM263 743l-28 28l127 117q10 5 31 5q21 0 31 -5l125 -114l-28 -30l-132 56z" />
<glyph unicode="&#220;" horiz-adv-x="715" d="M7 700h308v-38q-33 -21 -76 -29l0 -385q0 -49 11 -82q11 -33 32 -53.5q21 -20.5 50.5 -29.5q29.5 -9 66.5 -9q33 0 60.5 9.5q27.5 9.5 48 30.5q20.5 21 31.5 55q11 34 11 84v375q-23 5 -47.5 14q-24.5 9 -40.5 20l0 38h248v-38q-18 -13 -40 -21q-22 -8 -43 -13l0 -376q0 -128 -67.5 -194.5q-67.5 -66.5 -190.5 -66.5q-134 0 -207 60q-73 60 -73 192v390q-20 3 -42 10.5q-22 7.5 -40 18.5zM186 793q0 32 23 48q23 16 58 16q35 0 58 -16q23 -16 23 -48q0 -28 -23 -43.5q-23 -15.5 -58 -15.5q-35 0 -58 15.5q-23 15.5 -23 43.5zt0 0zM431 793q0 32 23.5 48q23.5 16 58.5 16q35 0 58 -16q23 -16 23 -48q0 -28 -23 -43.5q-23 -15.5 -58 -15.5q-35 0 -58.5 15.5t-23.5 43.5z" />
<glyph unicode="&#221;" horiz-adv-x="698" d="M453 700h245v-38q-15 -9 -33.5 -17.5q-18.5 -8.5 -37.5 -11.5l-194 -340v-226q20 -2 39.5 -10.5q19.5 -8.5 36.5 -18.5l0 -38h-308v38q17 9 38 17q21 8 44 12l0 225l-202 341q-23 4 -43.5 12q-20.5 8 -37.5 17l0 38h328v-38q-14 -8 -32 -16q-18 -8 -42 -13l143 -268l136 268q-23 5 -44 13q-21 8 -36 16zM494 898q16 1 36.5 -2q20.5 -3 40 -8.5q19.5 -5.5 35 -12.5q15.5 -7 21.5 -14l0 -20l-247 -96l-28 24z" />
<glyph unicode="&#222;" horiz-adv-x="636" d="M252 63q27 -3 53.5 -11.5q26.5 -8.5 47.5 -18.5l0 -33h-333v33q19 11 40.5 18q21.5 7 41.5 11l0 576q-20 3 -42 11q-22 8 -39 18l0 33h312v-33q-18 -11 -39.5 -18.5q-21.5 -7.5 -41.5 -10.5l0 -45q20 2 44 3.5q24 1.5 43 1.5q53 0 101.5 -10.5q48.5 -10.5 86 -34.5q37.5 -24 59.5 -63.5q22 -39.5 22 -98.5q0 -56 -22.5 -97q-22.5 -41 -61 -68q-38.5 -27 -88.5 -40.5q-50 -13.5 -104 -13.5q-5 0 -16 0q-11 0 -23.5 0.5q-12.5 0.5 -24 1q-11.5 0.5 -16.5 1.5zM306 533q-20 0 -31.5 -1.5q-11.5 -1.5 -22.5 -4.5l0 -286q9 -3 27 -3.5q18 -0.5 29 -0.5q27 0 51 8.5q24 8.5 43 26.5q19 18 30 46q11 28 11 68q0 75 -36.5 111t-100.5 36z" />
<glyph unicode="&#223;" horiz-adv-x="701" d="M458 584q0 51 -28 81q-28 30 -71 30q-22 0 -43 -5q-21 -5 -37 -21.5q-16 -16.5 -26 -48q-10 -31.5 -10 -83.5v-537h-210v39q31 18 66 24l0 374h-76v39q35 22 76 33l0 35q0 62 25.5 102.5q25.5 40.5 64 64q38.5 23.5 84 32.5q45.5 9 86.5 9q115 0 173 -48.5q58 -48.5 60 -128.5q-30 -5 -58 -13.5q-28 -8.5 -49.5 -23q-21.5 -14.5 -34.5 -35.5q-13 -21 -13 -51q0 -31 17.5 -54.5q17.5 -23.5 44.5 -44.5q27 -21 57.5 -41.5q30.5 -20.5 57.5 -45.5q27 -25 44.5 -56q17.5 -31 17.5 -72q0 -70 -52.5 -110q-52.5 -40 -153.5 -40q-48 0 -96.5 10q-48.5 10 -85.5 28q2 30 10 53.5q8 23.5 19 40.5l34 0l69 -66q11 -6 22 -7.5q11 -1.5 23 -1.5q32 0 54.5 17q22.5 17 22.5 47q0 29 -17.5 50.5q-17.5 21.5 -44.5 41.5q-27 20 -57.5 40q-30.5 20 -57.5 45q-27 25 -44.5 57q-17.5 32 -17.5 77q0 60 43 101.5t112 62.5z" />
<glyph unicode="&#224;" horiz-adv-x="557" d="M470 145q0 -22 0.5 -38q0.5 -16 2.5 -34l69 -10v-35q-12 -6 -32.5 -12q-20.5 -6 -43 -11.5q-22.5 -5.5 -44.5 -9q-22 -3.5 -39 -5.5l-34 0q-10 23 -12 46q-2 23 -3 56l-5 0q-5 -20 -17 -38.5q-12 -18.5 -30.5 -33q-18.5 -14.5 -43.5 -23.5q-25 -9 -56 -9q-33 0 -61 10q-28 10 -49 28q-21 18 -33 43.5q-12 25.5 -12 57.5q0 45 17 74q17 29 53.5 47.5q36.5 18.5 94 27.5q57.5 9 139.5 13q8 86 -7 126q-15 40 -65 40q-31 0 -57 -10l-47 -120h-44q-8 12 -15.5 27.5q-7.5 15.5 -14 33q-6.5 17.5 -11 35.5q-4.5 18 -6.5 35q38 26 98 41q60 15 127 15q57 0 93 -12.5q36 -12.5 56.5 -34q20.5 -21.5 28.5 -50.5q8 -29 8 -62q0 -60 -2.5 -108.5q-2.5 -48.5 -2.5 -99.5zt0 0zM245 68q21 0 36 8q15 8 25.5 19q10.5 11 16 24q5.5 13 8.5 23l0 100q-47 -1 -77 -6q-30 -5 -47 -16.5q-17 -11.5 -23.5 -29q-6.5 -17.5 -6.5 -42.5q0 -38 18 -59q18 -21 50 -21zt0 0zM354 589l-45 -22l-186 145v29q6 6 26 11.5q20 5.5 42.5 8.5q22.5 3 42.5 3.5q20 0.5 27 -1.5z" />
<glyph unicode="&#225;" horiz-adv-x="557" d="M470 145q0 -22 0.5 -38q0.5 -16 2.5 -34l69 -10v-35q-12 -6 -32.5 -12q-20.5 -6 -43 -11.5q-22.5 -5.5 -44.5 -9q-22 -3.5 -39 -5.5l-34 0q-10 23 -12 46q-2 23 -3 56l-5 0q-5 -20 -17 -38.5q-12 -18.5 -30.5 -33q-18.5 -14.5 -43.5 -23.5q-25 -9 -56 -9q-33 0 -61 10q-28 10 -49 28q-21 18 -33 43.5q-12 25.5 -12 57.5q0 45 17 74q17 29 53.5 47.5q36.5 18.5 94 27.5q57.5 9 139.5 13q8 86 -7 126q-15 40 -65 40q-31 0 -57 -10l-47 -120h-44q-8 12 -15.5 27.5q-7.5 15.5 -14 33q-6.5 17.5 -11 35.5q-4.5 18 -6.5 35q38 26 98 41q60 15 127 15q57 0 93 -12.5q36 -12.5 56.5 -34q20.5 -21.5 28.5 -50.5q8 -29 8 -62q0 -60 -2.5 -108.5q-2.5 -48.5 -2.5 -99.5zt0 0zM245 68q21 0 36 8q15 8 25.5 19q10.5 11 16 24q5.5 13 8.5 23l0 100q-47 -1 -77 -6q-30 -5 -47 -16.5q-17 -11.5 -23.5 -29q-6.5 -17.5 -6.5 -42.5q0 -38 18 -59q18 -21 50 -21zt0 0zM316 763q8 2 26.5 1.5q18.5 -0.5 38.5 -3.5q20 -3 36.5 -8.5q16.5 -5.5 21.5 -11.5l0 -24l-191 -155l-40 22z" />
<glyph unicode="&#226;" horiz-adv-x="557" d="M470 145q0 -22 0.5 -38q0.5 -16 2.5 -34l69 -10v-35q-12 -6 -32.5 -12q-20.5 -6 -43 -11.5q-22.5 -5.5 -44.5 -9q-22 -3.5 -39 -5.5l-34 0q-10 23 -12 46q-2 23 -3 56l-5 0q-5 -20 -17 -38.5q-12 -18.5 -30.5 -33q-18.5 -14.5 -43.5 -23.5q-25 -9 -56 -9q-33 0 -61 10q-28 10 -49 28q-21 18 -33 43.5q-12 25.5 -12 57.5q0 45 17 74q17 29 53.5 47.5q36.5 18.5 94 27.5q57.5 9 139.5 13q8 86 -7 126q-15 40 -65 40q-31 0 -57 -10l-47 -120h-44q-8 12 -15.5 27.5q-7.5 15.5 -14 33q-6.5 17.5 -11 35.5q-4.5 18 -6.5 35q38 26 98 41q60 15 127 15q57 0 93 -12.5q36 -12.5 56.5 -34q20.5 -21.5 28.5 -50.5q8 -29 8 -62q0 -60 -2.5 -108.5q-2.5 -48.5 -2.5 -99.5zt0 0zM245 68q21 0 36 8q15 8 25.5 19q10.5 11 16 24q5.5 13 8.5 23l0 100q-47 -1 -77 -6q-30 -5 -47 -16.5q-17 -11.5 -23.5 -29q-6.5 -17.5 -6.5 -42.5q0 -38 18 -59q18 -21 50 -21zt0 0zM186 577l-42 25l110 186q6 5 24.5 5.5q18.5 0.5 27.5 -5.5l114 -185l-41 -26l-103 98z" />
<glyph unicode="&#227;" horiz-adv-x="557" d="M470 145q0 -22 0.5 -38q0.5 -16 2.5 -34l69 -10v-35q-12 -6 -32.5 -12q-20.5 -6 -43 -11.5q-22.5 -5.5 -44.5 -9q-22 -3.5 -39 -5.5l-34 0q-10 23 -12 46q-2 23 -3 56l-5 0q-5 -20 -17 -38.5q-12 -18.5 -30.5 -33q-18.5 -14.5 -43.5 -23.5q-25 -9 -56 -9q-33 0 -61 10q-28 10 -49 28q-21 18 -33 43.5q-12 25.5 -12 57.5q0 45 17 74q17 29 53.5 47.5q36.5 18.5 94 27.5q57.5 9 139.5 13q8 86 -7 126q-15 40 -65 40q-31 0 -57 -10l-47 -120h-44q-8 12 -15.5 27.5q-7.5 15.5 -14 33q-6.5 17.5 -11 35.5q-4.5 18 -6.5 35q38 26 98 41q60 15 127 15q57 0 93 -12.5q36 -12.5 56.5 -34q20.5 -21.5 28.5 -50.5q8 -29 8 -62q0 -60 -2.5 -108.5q-2.5 -48.5 -2.5 -99.5zt0 0zM245 68q21 0 36 8q15 8 25.5 19q10.5 11 16 24q5.5 13 8.5 23l0 100q-47 -1 -77 -6q-30 -5 -47 -16.5q-17 -11.5 -23.5 -29q-6.5 -17.5 -6.5 -42.5q0 -38 18 -59q18 -21 50 -21zt0 0zM429 667q-30 -34 -62 -49.5q-32 -15.5 -55 -15.5q-18 0 -34 5.5q-16 5.5 -31 11.5q-15 6 -29.5 11.5q-14.5 5.5 -29.5 5.5q-13 0 -26.5 -4.5q-13.5 -4.5 -29.5 -15.5l-28 42q37 38 70.5 53q33.5 15 56.5 15q18 0 33.5 -5q15.5 -5 29.5 -11q14 -6 28.5 -11q14.5 -5 29.5 -5q13 0 26 2.5q13 2.5 29 12.5z" />
<glyph unicode="&#228;" horiz-adv-x="557" d="M470 145q0 -22 0.5 -38q0.5 -16 2.5 -34l69 -10v-35q-12 -6 -32.5 -12q-20.5 -6 -43 -11.5q-22.5 -5.5 -44.5 -9q-22 -3.5 -39 -5.5l-34 0q-10 23 -12 46q-2 23 -3 56l-5 0q-5 -20 -17 -38.5q-12 -18.5 -30.5 -33q-18.5 -14.5 -43.5 -23.5q-25 -9 -56 -9q-33 0 -61 10q-28 10 -49 28q-21 18 -33 43.5q-12 25.5 -12 57.5q0 45 17 74q17 29 53.5 47.5q36.5 18.5 94 27.5q57.5 9 139.5 13q8 86 -7 126q-15 40 -65 40q-31 0 -57 -10l-47 -120h-44q-8 12 -15.5 27.5q-7.5 15.5 -14 33q-6.5 17.5 -11 35.5q-4.5 18 -6.5 35q38 26 98 41q60 15 127 15q57 0 93 -12.5q36 -12.5 56.5 -34q20.5 -21.5 28.5 -50.5q8 -29 8 -62q0 -60 -2.5 -108.5q-2.5 -48.5 -2.5 -99.5zt0 0zM245 68q21 0 36 8q15 8 25.5 19q10.5 11 16 24q5.5 13 8.5 23l0 100q-47 -1 -77 -6q-30 -5 -47 -16.5q-17 -11.5 -23.5 -29q-6.5 -17.5 -6.5 -42.5q0 -38 18 -59q18 -21 50 -21zt0 0zM74 659q0 32 20 51q20 19 53 19q32 0 52.5 -19q20.5 -19 20.5 -51q0 -30 -20.5 -49q-20.5 -19 -52.5 -19q-33 0 -53 19q-20 19 -20 49zt0 0zM313 659q0 32 20 51q20 19 52 19q33 0 53.5 -19q20.5 -19 20.5 -51q0 -30 -20.5 -49q-20.5 -19 -53.5 -19q-32 0 -52 19t-20 49z" />
<glyph unicode="&#229;" horiz-adv-x="557" d="M470 145q0 -22 0.5 -38q0.5 -16 2.5 -34l69 -10v-35q-12 -6 -32.5 -12q-20.5 -6 -43 -11.5q-22.5 -5.5 -44.5 -9q-22 -3.5 -39 -5.5l-34 0q-10 23 -12 46q-2 23 -3 56l-5 0q-5 -20 -17 -38.5q-12 -18.5 -30.5 -33q-18.5 -14.5 -43.5 -23.5q-25 -9 -56 -9q-33 0 -61 10q-28 10 -49 28q-21 18 -33 43.5q-12 25.5 -12 57.5q0 45 17 74q17 29 53.5 47.5q36.5 18.5 94 27.5q57.5 9 139.5 13q8 86 -7 126q-15 40 -65 40q-31 0 -57 -10l-47 -120h-44q-8 12 -15.5 27.5q-7.5 15.5 -14 33q-6.5 17.5 -11 35.5q-4.5 18 -6.5 35q38 26 98 41q60 15 127 15q57 0 93 -12.5q36 -12.5 56.5 -34q20.5 -21.5 28.5 -50.5q8 -29 8 -62q0 -60 -2.5 -108.5q-2.5 -48.5 -2.5 -99.5zt0 0zM245 68q21 0 36 8q15 8 25.5 19q10.5 11 16 24q5.5 13 8.5 23l0 100q-47 -1 -77 -6q-30 -5 -47 -16.5q-17 -11.5 -23.5 -29q-6.5 -17.5 -6.5 -42.5q0 -38 18 -59q18 -21 50 -21zt0 0zM154 679q0 41 30.5 71q30.5 30 87.5 30q53 0 82.5 -27q29.5 -27 29.5 -71q0 -42 -31 -70q-31 -28 -82 -28q-58 0 -87.5 26.5q-29.5 26.5 -29.5 68.5zt0 0zM229 681q0 -23 11 -35q11 -12 28 -12q41 0 41 44q0 27 -11.5 39.5q-11.5 12.5 -28.5 12.5q-40 0 -40 -49z" />
<glyph unicode="&#230;" horiz-adv-x="823" d="M424 465q17 18 50 32.5q33 14.5 96 14.5q51 0 95.5 -14q44.5 -14 74 -46q29.5 -32 41 -84q11.5 -52 -1.5 -127l-307 0q1 -79 41 -126q40 -47 116 -47q34 0 69 10q35 10 55 26l19 -20q-8 -17 -25.5 -34.5q-17.5 -17.5 -43 -31q-25.5 -13.5 -59 -22q-33.5 -8.5 -72.5 -8.5q-66 0 -123 24.5q-57 24.5 -92 81.5q-7 -21 -23.5 -40.5q-16.5 -19.5 -40 -34q-23.5 -14.5 -52 -23q-28.5 -8.5 -59.5 -8.5q-33 0 -61 10q-28 10 -49 28q-21 18 -33 43.5q-12 25.5 -12 57.5q0 45 16.5 74q16.5 29 53 47.5q36.5 18.5 94 27.5q57.5 9 139.5 13q8 86 -6.5 126q-14.5 40 -64.5 40q-31 0 -57 -10l-47 -120h-44q-8 12 -15.5 27.5q-7.5 15.5 -14 33q-6.5 17.5 -11 35.5q-4.5 18 -6.5 35q38 26 98 41q60 15 127 15q61 0 91 -13q30 -13 44 -34zt0 0zM245 68q21 0 36 7.5q15 7.5 25 18.5q10 11 15.5 23.5q5.5 12.5 8.5 22.5l0 102q-47 -1 -76.5 -6q-29.5 -5 -46.5 -16.5q-17 -11.5 -23.5 -29q-6.5 -17.5 -6.5 -42.5q0 -38 18 -59q18 -21 50 -21zt0 0zM566 455q-20 0 -35.5 -7q-15.5 -7 -27 -25.5q-11.5 -18.5 -18.5 -50q-7 -31.5 -10 -79.5l161 0q7 78 -9 120t-61 42z" />
<glyph unicode="&#231;" horiz-adv-x="484" d="M456 81q-7 -20 -23.5 -36.5q-16.5 -16.5 -39.5 -29.5q-23 -13 -51.5 -20q-28.5 -7 -59.5 -7l-21 -56q60 -3 91.5 -21.5q31.5 -18.5 32.5 -54.5q0 -29 -17 -50q-17 -21 -45 -35q-28 -14 -63 -21q-35 -7 -70 -7l0 39q70 11 70 57q-1 23 -19.5 33q-18.5 10 -53.5 14l38 107q-101 15 -147.5 83.5q-46.5 68.5 -46.5 173.5q0 127 69.5 194.5q69.5 67.5 197.5 67.5q49 0 90 -10.5q41 -10.5 68 -24.5q-2 -17 -5.5 -37.5q-3.5 -20.5 -8 -41q-4.5 -20.5 -10.5 -40q-6 -19.5 -12 -32.5l-49 0l-42 119q-7 5 -15 7.5q-8 2.5 -24 2.5q-26 0 -45 -9.5q-19 -9.5 -32.5 -32.5q-13.5 -23 -20 -61q-6.5 -38 -6.5 -94q0 -41 9 -75.5q9 -34.5 27.5 -60q18.5 -25.5 46.5 -40q28 -14.5 66 -14.5q35 0 61 10q26 10 44 24z" />
<glyph unicode="&#232;" horiz-adv-x="537" d="M486 84q-8 -17 -25.5 -34.5q-17.5 -17.5 -43 -31q-25.5 -13.5 -59 -22q-33.5 -8.5 -72.5 -8.5q-62 0 -110 18.5q-48 18.5 -80 53q-32 34.5 -48.5 82.5q-16.5 48 -16.5 108q0 128 67 195q67 67 186 67q51 0 95.5 -14q44.5 -14 74 -46q29.5 -32 41 -84q11.5 -52 -1.5 -127l-307 0q1 -79 40.5 -126q39.5 -47 116.5 -47q33 0 68.5 10q35.5 10 55.5 26zM280 455q-20 0 -35.5 -7q-15.5 -7 -27 -25.5q-11.5 -18.5 -18.5 -50q-7 -31.5 -10 -79.5l161 0q7 78 -9 120q-16 42 -61 42zt0 0zM356 589l-45 -22l-186 145v29q6 6 26 11.5q20 5.5 42.5 8.5q22.5 3 42.5 3.5q20 0.5 27 -1.5z" />
<glyph unicode="&#233;" horiz-adv-x="537" d="M486 84q-8 -17 -25.5 -34.5q-17.5 -17.5 -43 -31q-25.5 -13.5 -59 -22q-33.5 -8.5 -72.5 -8.5q-62 0 -110 18.5q-48 18.5 -80 53q-32 34.5 -48.5 82.5q-16.5 48 -16.5 108q0 128 67 195q67 67 186 67q51 0 95.5 -14q44.5 -14 74 -46q29.5 -32 41 -84q11.5 -52 -1.5 -127l-307 0q1 -79 40.5 -126q39.5 -47 116.5 -47q33 0 68.5 10q35.5 10 55.5 26zM280 455q-20 0 -35.5 -7q-15.5 -7 -27 -25.5q-11.5 -18.5 -18.5 -50q-7 -31.5 -10 -79.5l161 0q7 78 -9 120q-16 42 -61 42zt0 0zM308 763q8 2 26.5 1.5q18.5 -0.5 38.5 -3.5q20 -3 36.5 -8.5q16.5 -5.5 21.5 -11.5l0 -24l-191 -155l-40 22z" />
<glyph unicode="&#234;" horiz-adv-x="537" d="M486 84q-8 -17 -25.5 -34.5q-17.5 -17.5 -43 -31q-25.5 -13.5 -59 -22q-33.5 -8.5 -72.5 -8.5q-62 0 -110 18.5q-48 18.5 -80 53q-32 34.5 -48.5 82.5q-16.5 48 -16.5 108q0 128 67 195q67 67 186 67q51 0 95.5 -14q44.5 -14 74 -46q29.5 -32 41 -84q11.5 -52 -1.5 -127l-307 0q1 -79 40.5 -126q39.5 -47 116.5 -47q33 0 68.5 10q35.5 10 55.5 26zM280 455q-20 0 -35.5 -7q-15.5 -7 -27 -25.5q-11.5 -18.5 -18.5 -50q-7 -31.5 -10 -79.5l161 0q7 78 -9 120q-16 42 -61 42zt0 0zM183 577l-42 25l110 186q6 5 24.5 5.5q18.5 0.5 27.5 -5.5l114 -185l-41 -26l-103 98z" />
<glyph unicode="&#235;" horiz-adv-x="537" d="M486 84q-8 -17 -25.5 -34.5q-17.5 -17.5 -43 -31q-25.5 -13.5 -59 -22q-33.5 -8.5 -72.5 -8.5q-62 0 -110 18.5q-48 18.5 -80 53q-32 34.5 -48.5 82.5q-16.5 48 -16.5 108q0 128 67 195q67 67 186 67q51 0 95.5 -14q44.5 -14 74 -46q29.5 -32 41 -84q11.5 -52 -1.5 -127l-307 0q1 -79 40.5 -126q39.5 -47 116.5 -47q33 0 68.5 10q35.5 10 55.5 26zM280 455q-20 0 -35.5 -7q-15.5 -7 -27 -25.5q-11.5 -18.5 -18.5 -50q-7 -31.5 -10 -79.5l161 0q7 78 -9 120q-16 42 -61 42zt0 0zM83 659q0 32 20 51q20 19 53 19q32 0 52.5 -19q20.5 -19 20.5 -51q0 -30 -20.5 -49q-20.5 -19 -52.5 -19q-33 0 -53 19q-20 19 -20 49zt0 0zM322 659q0 32 20 51q20 19 52 19q33 0 53.5 -19q20.5 -19 20.5 -51q0 -30 -20.5 -49q-20.5 -19 -53.5 -19q-32 0 -52 19t-20 49z" />
<glyph unicode="&#236;" horiz-adv-x="332" d="M307 0h-276v39q15 8 31 13.5q16 5.5 35 10.5l0 366l-66 8v39q15 6 37.5 12q22.5 6 47.5 10.5q25 4.5 49 8q24 3.5 42 5.5l34 0v-449q20 -5 36 -10.5q16 -5.5 30 -13.5zM232 589l-45 -22l-186 145v29q6 6 26 11.5q20 5.5 42.5 8.5q22.5 3 42.5 3.5q20 0.5 27 -1.5z" />
<glyph unicode="&#237;" horiz-adv-x="332" d="M307 0h-276v39q15 8 31 13.5q16 5.5 35 10.5l0 366l-66 8v39q15 6 37.5 12q22.5 6 47.5 10.5q25 4.5 49 8q24 3.5 42 5.5l34 0v-449q20 -5 36 -10.5q16 -5.5 30 -13.5zM189 763q8 2 26.5 1.5q18.5 -0.5 38.5 -3.5q20 -3 36.5 -8.5q16.5 -5.5 21.5 -11.5l0 -24l-191 -155l-40 22z" />
<glyph unicode="&#238;" horiz-adv-x="332" d="M307 0h-276v39q15 8 31 13.5q16 5.5 35 10.5l0 366l-66 8v39q15 6 37.5 12q22.5 6 47.5 10.5q25 4.5 49 8q24 3.5 42 5.5l34 0v-449q20 -5 36 -10.5q16 -5.5 30 -13.5zM67 577l-42 25l110 186q6 5 24.5 5.5q18.5 0.5 27.5 -5.5l114 -185l-41 -26l-103 98z" />
<glyph unicode="&#239;" horiz-adv-x="332" d="M307 0h-276v39q15 8 31 13.5q16 5.5 35 10.5l0 366l-66 8v39q15 6 37.5 12q22.5 6 47.5 10.5q25 4.5 49 8q24 3.5 42 5.5l34 0v-449q20 -5 36 -10.5q16 -5.5 30 -13.5zM-25 659q0 32 20 51q20 19 53 19q32 0 52.5 -19q20.5 -19 20.5 -51q0 -30 -20.5 -49q-20.5 -19 -52.5 -19q-33 0 -53 19q-20 19 -20 49zt0 0zM214 659q0 32 20 51q20 19 52 19q33 0 53.5 -19q20.5 -19 20.5 -51q0 -30 -20.5 -49q-20.5 -19 -53.5 -19q-32 0 -52 19t-20 49z" />
<glyph unicode="&#240;" horiz-adv-x="577" d="M175 610l96 39q-25 24 -54 43.5q-29 19.5 -61 31.5l0 26h97q55 -17 111 -62l98 40l27 -56l-74 -31q28 -31 52 -69q24 -38 42 -82.5q18 -44.5 28.5 -95q10.5 -50.5 10.5 -105.5q0 -65 -16.5 -120.5q-16.5 -55.5 -49.5 -95.5q-33 -40 -82.5 -62.5q-49.5 -22.5 -114.5 -22.5q-61 0 -109.5 18.5q-48.5 18.5 -82 52.5q-33.5 34 -51.5 80.5q-18 46.5 -18 102.5q0 67 19.5 118q19.5 51 52 84.5q32.5 33.5 73.5 50.5q41 17 84 17q51 0 80.5 -17q29.5 -17 51.5 -41q-11 36 -28.5 73.5q-17.5 37.5 -42.5 72.5l-111 -46zM179 242q0 -41 6.5 -76q6.5 -35 20.5 -61q14 -26 35 -41q21 -15 51 -15q55 0 78 57.5q23 57.5 23 167.5q0 53 -3 83q-3 30 -8 43q-29 37 -93 37q-25 0 -45 -10q-20 -10 -34.5 -33q-14.5 -23 -22.5 -60.5t-8 -91.5z" />
<glyph unicode="&#241;" horiz-adv-x="644" d="M632 0h-265v39q13 7 25.5 12.5q12.5 5.5 29.5 11.5l0 235q0 63 -18 98.5q-18 35.5 -64 35.5q-38 0 -65.5 -24.5q-27.5 -24.5 -41.5 -66.5l0 -278q16 -4 28.5 -9.5q12.5 -5.5 26.5 -14.5l0 -39h-265v39q25 13 66 24l0 366l-66 8v39q13 6 34 11.5q21 5.5 45.5 10.5q24.5 5 50 8.5q25.5 3.5 46.5 5.5l34 0v-103h1q21 42 63 72.5q42 30.5 102 30.5q39 0 70 -9.5q31 -9.5 52.5 -33.5q21.5 -24 33 -64.5q11.5 -40.5 11.5 -102.5v-239q40 -7 66 -24zM487 667q-30 -34 -62 -49.5q-32 -15.5 -55 -15.5q-18 0 -34 5.5q-16 5.5 -31 11.5q-15 6 -29.5 11.5q-14.5 5.5 -29.5 5.5q-13 0 -26.5 -4.5q-13.5 -4.5 -29.5 -15.5l-28 42q37 38 70.5 53q33.5 15 56.5 15q18 0 33.5 -5q15.5 -5 29.5 -11q14 -6 28.5 -11q14.5 -5 29.5 -5q13 0 26 2.5q13 2.5 29 12.5z" />
<glyph unicode="&#242;" horiz-adv-x="594" d="M31 250q0 61 18.5 109.5q18.5 48.5 53 82.5q34.5 34 83.5 52q49 18 111 18q70 0 120.5 -19.5q50.5 -19.5 83 -54q32.5 -34.5 47.5 -83q15 -48.5 15 -105.5q0 -61 -18 -109.5q-18 -48.5 -52.5 -82.5q-34.5 -34 -84 -52q-49.5 -18 -111.5 -18q-68 0 -118 19.5q-50 19.5 -83 54q-33 34.5 -49 83q-16 48.5 -16 105.5zt0 0zM186 250q0 -45 5.5 -82.5q5.5 -37.5 19.5 -63.5q14 -26 38 -40.5q24 -14.5 62 -14.5q22 0 40 10.5q18 10.5 31 34q13 23.5 19.5 62q6.5 38.5 6.5 94.5q0 46 -5.5 83q-5.5 37 -19 63q-13.5 26 -36.5 40.5q-23 14.5 -58 14.5q-26 0 -45 -10.5q-19 -10.5 -32 -34q-13 -23.5 -19.5 -62q-6.5 -38.5 -6.5 -94.5zt0 0zM375 589l-45 -22l-186 145v29q6 6 26 11.5q20 5.5 42.5 8.5q22.5 3 42.5 3.5q20 0.5 27 -1.5z" />
<glyph unicode="&#243;" horiz-adv-x="594" d="M31 250q0 61 18.5 109.5q18.5 48.5 53 82.5q34.5 34 83.5 52q49 18 111 18q70 0 120.5 -19.5q50.5 -19.5 83 -54q32.5 -34.5 47.5 -83q15 -48.5 15 -105.5q0 -61 -18 -109.5q-18 -48.5 -52.5 -82.5q-34.5 -34 -84 -52q-49.5 -18 -111.5 -18q-68 0 -118 19.5q-50 19.5 -83 54q-33 34.5 -49 83q-16 48.5 -16 105.5zt0 0zM186 250q0 -45 5.5 -82.5q5.5 -37.5 19.5 -63.5q14 -26 38 -40.5q24 -14.5 62 -14.5q22 0 40 10.5q18 10.5 31 34q13 23.5 19.5 62q6.5 38.5 6.5 94.5q0 46 -5.5 83q-5.5 37 -19 63q-13.5 26 -36.5 40.5q-23 14.5 -58 14.5q-26 0 -45 -10.5q-19 -10.5 -32 -34q-13 -23.5 -19.5 -62q-6.5 -38.5 -6.5 -94.5zt0 0zM337 763q8 2 26.5 1.5q18.5 -0.5 38.5 -3.5q20 -3 36.5 -8.5q16.5 -5.5 21.5 -11.5l0 -24l-191 -155l-40 22z" />
<glyph unicode="&#244;" horiz-adv-x="594" d="M31 250q0 61 18.5 109.5q18.5 48.5 53 82.5q34.5 34 83.5 52q49 18 111 18q70 0 120.5 -19.5q50.5 -19.5 83 -54q32.5 -34.5 47.5 -83q15 -48.5 15 -105.5q0 -61 -18 -109.5q-18 -48.5 -52.5 -82.5q-34.5 -34 -84 -52q-49.5 -18 -111.5 -18q-68 0 -118 19.5q-50 19.5 -83 54q-33 34.5 -49 83q-16 48.5 -16 105.5zt0 0zM186 250q0 -45 5.5 -82.5q5.5 -37.5 19.5 -63.5q14 -26 38 -40.5q24 -14.5 62 -14.5q22 0 40 10.5q18 10.5 31 34q13 23.5 19.5 62q6.5 38.5 6.5 94.5q0 46 -5.5 83q-5.5 37 -19 63q-13.5 26 -36.5 40.5q-23 14.5 -58 14.5q-26 0 -45 -10.5q-19 -10.5 -32 -34q-13 -23.5 -19.5 -62q-6.5 -38.5 -6.5 -94.5zt0 0zM200 577l-42 25l110 186q6 5 24.5 5.5q18.5 0.5 27.5 -5.5l114 -185l-41 -26l-103 98z" />
<glyph unicode="&#245;" horiz-adv-x="594" d="M31 250q0 61 18.5 109.5q18.5 48.5 53 82.5q34.5 34 83.5 52q49 18 111 18q70 0 120.5 -19.5q50.5 -19.5 83 -54q32.5 -34.5 47.5 -83q15 -48.5 15 -105.5q0 -61 -18 -109.5q-18 -48.5 -52.5 -82.5q-34.5 -34 -84 -52q-49.5 -18 -111.5 -18q-68 0 -118 19.5q-50 19.5 -83 54q-33 34.5 -49 83q-16 48.5 -16 105.5zt0 0zM186 250q0 -45 5.5 -82.5q5.5 -37.5 19.5 -63.5q14 -26 38 -40.5q24 -14.5 62 -14.5q22 0 40 10.5q18 10.5 31 34q13 23.5 19.5 62q6.5 38.5 6.5 94.5q0 46 -5.5 83q-5.5 37 -19 63q-13.5 26 -36.5 40.5q-23 14.5 -58 14.5q-26 0 -45 -10.5q-19 -10.5 -32 -34q-13 -23.5 -19.5 -62q-6.5 -38.5 -6.5 -94.5zt0 0zM459 667q-30 -34 -62 -49.5q-32 -15.5 -55 -15.5q-18 0 -34 5.5q-16 5.5 -31 11.5q-15 6 -29.5 11.5q-14.5 5.5 -29.5 5.5q-13 0 -26.5 -4.5q-13.5 -4.5 -29.5 -15.5l-28 42q37 38 70.5 53q33.5 15 56.5 15q18 0 33.5 -5q15.5 -5 29.5 -11q14 -6 28.5 -11q14.5 -5 29.5 -5q13 0 26 2.5q13 2.5 29 12.5z" />
<glyph unicode="&#246;" horiz-adv-x="594" d="M31 250q0 61 18.5 109.5q18.5 48.5 53 82.5q34.5 34 83.5 52q49 18 111 18q70 0 120.5 -19.5q50.5 -19.5 83 -54q32.5 -34.5 47.5 -83q15 -48.5 15 -105.5q0 -61 -18 -109.5q-18 -48.5 -52.5 -82.5q-34.5 -34 -84 -52q-49.5 -18 -111.5 -18q-68 0 -118 19.5q-50 19.5 -83 54q-33 34.5 -49 83q-16 48.5 -16 105.5zt0 0zM186 250q0 -45 5.5 -82.5q5.5 -37.5 19.5 -63.5q14 -26 38 -40.5q24 -14.5 62 -14.5q22 0 40 10.5q18 10.5 31 34q13 23.5 19.5 62q6.5 38.5 6.5 94.5q0 46 -5.5 83q-5.5 37 -19 63q-13.5 26 -36.5 40.5q-23 14.5 -58 14.5q-26 0 -45 -10.5q-19 -10.5 -32 -34q-13 -23.5 -19.5 -62q-6.5 -38.5 -6.5 -94.5zt0 0zM105 659q0 32 20 51q20 19 53 19q32 0 52.5 -19q20.5 -19 20.5 -51q0 -30 -20.5 -49q-20.5 -19 -52.5 -19q-33 0 -53 19q-20 19 -20 49zt0 0zM344 659q0 32 20 51q20 19 52 19q33 0 53.5 -19q20.5 -19 20.5 -51q0 -30 -20.5 -49q-20.5 -19 -53.5 -19q-32 0 -52 19t-20 49z" />
<glyph unicode="&#247;" horiz-adv-x="565" d="M57 386h450v-80h-450zM197 536q0 36 23 58q23 22 61 22q38 0 62 -22q24 -22 24 -58q0 -36 -24 -57.5q-24 -21.5 -62 -21.5q-38 0 -61 21.5q-23 21.5 -23 57.5zt0 0zM197 155q0 36 23 58q23 22 61 22q38 0 62 -22q24 -22 24 -58q0 -36 -24 -57.5q-24 -21.5 -62 -21.5q-38 0 -61 21.5t-23 57.5z" />
<glyph unicode="&#248;" horiz-adv-x="594" d="M114 44q-43 35 -63 87.5q-20 52.5 -20 118.5q0 61 18.5 109.5q18.5 48.5 53 82.5q34.5 34 83.5 52q49 18 111 18q39 0 71.5 -6.5q32.5 -6.5 59.5 -18.5l44 63l54 -38l-42 -59q41 -35 60 -87q19 -52 19 -116q0 -61 -18 -109.5q-18 -48.5 -52.5 -82.5q-34.5 -34 -84 -52q-49.5 -18 -111.5 -18q-72 0 -126 23l-48 -69l-53 39zM186 250q0 -26 3 -48.5q3 -22.5 11 -40.5l174 251q-14 20 -34.5 31.5q-20.5 11.5 -50.5 11.5q-53 0 -78 -46.5q-25 -46.5 -25 -158.5zt0 0zM408 250q0 47 -13 82l-172 -249q30 -38 91 -38q47 0 70.5 46.5t23.5 158.5z" />
<glyph unicode="&#249;" horiz-adv-x="622" d="M71 198q0 63 3 117q3 54 3 114l-66 8v39q16 6 39.5 12q23.5 6 48.5 10.5q25 4.5 48.5 8q23.5 3.5 39.5 5.5l34 0q0 -75 -3 -147.5q-3 -72.5 -3 -142.5q0 -82 16.5 -118q16.5 -36 61.5 -36q31 0 57.5 23.5q26.5 23.5 43.5 75.5l0 262l-65 8v39q15 6 37.5 12q22.5 6 47 10.5q24.5 4.5 48.5 8q24 3.5 42 5.5l34 0v-441l66 -8v-35q-14 -6 -35 -12q-21 -6 -44 -11.5q-23 -5.5 -45.5 -9q-22.5 -3.5 -40.5 -5.5l-34 0l-7 119h-4q-5 -21 -18 -42.5q-13 -21.5 -33.5 -39q-20.5 -17.5 -48.5 -28.5q-28 -11 -62 -11q-38 0 -67.5 9.5q-29.5 9.5 -50.5 33.5q-21 24 -32 64.5q-11 40.5 -11 102.5zt0 0zM388 589l-45 -22l-186 145v29q6 6 26 11.5q20 5.5 42.5 8.5q22.5 3 42.5 3.5q20 0.5 27 -1.5z" />
<glyph unicode="&#250;" horiz-adv-x="622" d="M71 198q0 63 3 117q3 54 3 114l-66 8v39q16 6 39.5 12q23.5 6 48.5 10.5q25 4.5 48.5 8q23.5 3.5 39.5 5.5l34 0q0 -75 -3 -147.5q-3 -72.5 -3 -142.5q0 -82 16.5 -118q16.5 -36 61.5 -36q31 0 57.5 23.5q26.5 23.5 43.5 75.5l0 262l-65 8v39q15 6 37.5 12q22.5 6 47 10.5q24.5 4.5 48.5 8q24 3.5 42 5.5l34 0v-441l66 -8v-35q-14 -6 -35 -12q-21 -6 -44 -11.5q-23 -5.5 -45.5 -9q-22.5 -3.5 -40.5 -5.5l-34 0l-7 119h-4q-5 -21 -18 -42.5q-13 -21.5 -33.5 -39q-20.5 -17.5 -48.5 -28.5q-28 -11 -62 -11q-38 0 -67.5 9.5q-29.5 9.5 -50.5 33.5q-21 24 -32 64.5q-11 40.5 -11 102.5zt0 0zM335 763q8 2 26.5 1.5q18.5 -0.5 38.5 -3.5q20 -3 36.5 -8.5q16.5 -5.5 21.5 -11.5l0 -24l-191 -155l-40 22z" />
<glyph unicode="&#251;" horiz-adv-x="622" d="M71 198q0 63 3 117q3 54 3 114l-66 8v39q16 6 39.5 12q23.5 6 48.5 10.5q25 4.5 48.5 8q23.5 3.5 39.5 5.5l34 0q0 -75 -3 -147.5q-3 -72.5 -3 -142.5q0 -82 16.5 -118q16.5 -36 61.5 -36q31 0 57.5 23.5q26.5 23.5 43.5 75.5l0 262l-65 8v39q15 6 37.5 12q22.5 6 47 10.5q24.5 4.5 48.5 8q24 3.5 42 5.5l34 0v-441l66 -8v-35q-14 -6 -35 -12q-21 -6 -44 -11.5q-23 -5.5 -45.5 -9q-22.5 -3.5 -40.5 -5.5l-34 0l-7 119h-4q-5 -21 -18 -42.5q-13 -21.5 -33.5 -39q-20.5 -17.5 -48.5 -28.5q-28 -11 -62 -11q-38 0 -67.5 9.5q-29.5 9.5 -50.5 33.5q-21 24 -32 64.5q-11 40.5 -11 102.5zt0 0zM211 577l-42 25l110 186q6 5 24.5 5.5q18.5 0.5 27.5 -5.5l114 -185l-41 -26l-103 98z" />
<glyph unicode="&#252;" horiz-adv-x="622" d="M71 198q0 63 3 117q3 54 3 114l-66 8v39q16 6 39.5 12q23.5 6 48.5 10.5q25 4.5 48.5 8q23.5 3.5 39.5 5.5l34 0q0 -75 -3 -147.5q-3 -72.5 -3 -142.5q0 -82 16.5 -118q16.5 -36 61.5 -36q31 0 57.5 23.5q26.5 23.5 43.5 75.5l0 262l-65 8v39q15 6 37.5 12q22.5 6 47 10.5q24.5 4.5 48.5 8q24 3.5 42 5.5l34 0v-441l66 -8v-35q-14 -6 -35 -12q-21 -6 -44 -11.5q-23 -5.5 -45.5 -9q-22.5 -3.5 -40.5 -5.5l-34 0l-7 119h-4q-5 -21 -18 -42.5q-13 -21.5 -33.5 -39q-20.5 -17.5 -48.5 -28.5q-28 -11 -62 -11q-38 0 -67.5 9.5q-29.5 9.5 -50.5 33.5q-21 24 -32 64.5q-11 40.5 -11 102.5zt0 0zM113 659q0 32 20 51q20 19 53 19q32 0 52.5 -19q20.5 -19 20.5 -51q0 -30 -20.5 -49q-20.5 -19 -52.5 -19q-33 0 -53 19q-20 19 -20 49zt0 0zM352 659q0 32 20 51q20 19 52 19q33 0 53.5 -19q20.5 -19 20.5 -51q0 -30 -20.5 -49q-20.5 -19 -53.5 -19q-32 0 -52 19t-20 49z" />
<glyph unicode="&#253;" horiz-adv-x="528" d="M38 437q-15 4 -27.5 10q-12.5 6 -25.5 14l0 39h263v-38q-21 -14 -57 -25l101 -251l17 -64h2l16 65l78 250q-30 6 -55 24l0 39h193v-39q-21 -14 -57 -24l-163 -437q-24 -64 -48 -104.5q-24 -40.5 -48 -64.5q-24 -24 -48 -33.5q-24 -9.5 -48 -12.5q-10 9 -18 22.5q-8 13.5 -14 29q-6 15.5 -10 31.5q-4 16 -5 30l13 24h122q9 14 15.5 30q6.5 16 15.5 48zM311 763q8 2 26.5 1.5q18.5 -0.5 38.5 -3.5q20 -3 36.5 -8.5q16.5 -5.5 21.5 -11.5l0 -24l-191 -155l-40 22z" />
<glyph unicode="&#254;" horiz-adv-x="609" d="M86 669l-76 8v39q13 6 36 12q23 6 49.5 10.5q26.5 4.5 53 8q26.5 3.5 47.5 5.5l34 0v-352h1q17 48 53.5 80q36.5 32 101.5 32q44 0 79.5 -14.5q35.5 -14.5 60 -45q24.5 -30.5 38 -78q13.5 -47.5 13.5 -113.5q0 -63 -17.5 -114q-17.5 -51 -50 -86q-32.5 -35 -79 -54q-46.5 -19 -105.5 -19q-34 0 -53.5 4.5q-19.5 4.5 -41.5 15.5l0 -145q16 -2 32 -7.5q16 -5.5 34 -16.5l0 -39h-276v39q34 16 66 24zM328 432q-34 0 -60.5 -24q-26.5 -24 -37.5 -74l0 -266q16 -12 34 -17.5q18 -5.5 47 -5.5q57 0 84 55q27 55 27 161q0 82 -20.5 126.5t-73.5 44.5z" />
<glyph unicode="&#255;" horiz-adv-x="528" d="M38 437q-15 4 -27.5 10q-12.5 6 -25.5 14l0 39h263v-38q-21 -14 -57 -25l101 -251l17 -64h2l16 65l78 250q-30 6 -55 24l0 39h193v-39q-21 -14 -57 -24l-163 -437q-24 -64 -48 -104.5q-24 -40.5 -48 -64.5q-24 -24 -48 -33.5q-24 -9.5 -48 -12.5q-10 9 -18 22.5q-8 13.5 -14 29q-6 15.5 -10 31.5q-4 16 -5 30l13 24h122q9 14 15.5 30q6.5 16 15.5 48zM87 659q0 32 20 51q20 19 53 19q32 0 52.5 -19q20.5 -19 20.5 -51q0 -30 -20.5 -49q-20.5 -19 -52.5 -19q-33 0 -53 19q-20 19 -20 49zt0 0zM326 659q0 32 20 51q20 19 52 19q33 0 53.5 -19q20.5 -19 20.5 -51q0 -30 -20.5 -49q-20.5 -19 -53.5 -19q-32 0 -52 19t-20 49z" />
<glyph unicode="&#256;" horiz-adv-x="729" d="M247 0h-247v38q16 10 34.5 17.5q18.5 7.5 36.5 11.5l258 645h74l251 -645q20 -4 40 -11.5q20 -7.5 35 -17.5l0 -38h-313v38q19 9 41 17q22 8 42 12l-58 159h-222l-59 -159q46 -6 87 -29zM243 291h177l-65 191l-19 86h-2l-22 -88zM206 779v70h324l0 -70z" />
<glyph unicode="&#257;" horiz-adv-x="557" d="M470 145q0 -22 0.5 -38q0.5 -16 2.5 -34l69 -10v-35q-12 -6 -32.5 -12q-20.5 -6 -43 -11.5q-22.5 -5.5 -44.5 -9q-22 -3.5 -39 -5.5l-34 0q-10 23 -12 46q-2 23 -3 56l-5 0q-5 -20 -17 -38.5q-12 -18.5 -30.5 -33q-18.5 -14.5 -43.5 -23.5q-25 -9 -56 -9q-33 0 -61 10q-28 10 -49 28q-21 18 -33 43.5q-12 25.5 -12 57.5q0 45 17 74q17 29 53.5 47.5q36.5 18.5 94 27.5q57.5 9 139.5 13q8 86 -7 126q-15 40 -65 40q-31 0 -57 -10l-47 -120h-44q-8 12 -15.5 27.5q-7.5 15.5 -14 33q-6.5 17.5 -11 35.5q-4.5 18 -6.5 35q38 26 98 41q60 15 127 15q57 0 93 -12.5q36 -12.5 56.5 -34q20.5 -21.5 28.5 -50.5q8 -29 8 -62q0 -60 -2.5 -108.5q-2.5 -48.5 -2.5 -99.5zt0 0zM245 68q21 0 36 8q15 8 25.5 19q10.5 11 16 24q5.5 13 8.5 23l0 100q-47 -1 -77 -6q-30 -5 -47 -16.5q-17 -11.5 -23.5 -29q-6.5 -17.5 -6.5 -42.5q0 -38 18 -59q18 -21 50 -21zt0 0zM127 619v70h294l0 -70z" />
<glyph unicode="&#258;" horiz-adv-x="729" d="M247 0h-247v38q16 10 34.5 17.5q18.5 7.5 36.5 11.5l258 645h74l251 -645q20 -4 40 -11.5q20 -7.5 35 -17.5l0 -38h-313v38q19 9 41 17q22 8 42 12l-58 159h-222l-59 -159q46 -6 87 -29zM243 291h177l-65 191l-19 86h-2l-22 -88zM495 897q7 1 20.5 -6q13.5 -7 20.5 -17q-9 -22 -24 -42.5q-15 -20.5 -36 -36.5q-21 -16 -48 -26q-27 -10 -58 -10q-67 0 -110 31.5q-43 31.5 -62 85.5q7 12 21.5 19q14.5 7 29.5 5q7 -11 21.5 -20q14.5 -9 31.5 -15q17 -6 35.5 -9.5q18.5 -3.5 33.5 -3.5q16 0 34 2q18 2 34.5 7.5q16.5 5.5 31 14t24.5 21.5z" />
<glyph unicode="&#259;" horiz-adv-x="557" d="M470 145q0 -22 0.5 -38q0.5 -16 2.5 -34l69 -10v-35q-12 -6 -32.5 -12q-20.5 -6 -43 -11.5q-22.5 -5.5 -44.5 -9q-22 -3.5 -39 -5.5l-34 0q-10 23 -12 46q-2 23 -3 56l-5 0q-5 -20 -17 -38.5q-12 -18.5 -30.5 -33q-18.5 -14.5 -43.5 -23.5q-25 -9 -56 -9q-33 0 -61 10q-28 10 -49 28q-21 18 -33 43.5q-12 25.5 -12 57.5q0 45 17 74q17 29 53.5 47.5q36.5 18.5 94 27.5q57.5 9 139.5 13q8 86 -7 126q-15 40 -65 40q-31 0 -57 -10l-47 -120h-44q-8 12 -15.5 27.5q-7.5 15.5 -14 33q-6.5 17.5 -11 35.5q-4.5 18 -6.5 35q38 26 98 41q60 15 127 15q57 0 93 -12.5q36 -12.5 56.5 -34q20.5 -21.5 28.5 -50.5q8 -29 8 -62q0 -60 -2.5 -108.5q-2.5 -48.5 -2.5 -99.5zt0 0zM245 68q21 0 36 8q15 8 25.5 19q10.5 11 16 24q5.5 13 8.5 23l0 100q-47 -1 -77 -6q-30 -5 -47 -16.5q-17 -11.5 -23.5 -29q-6.5 -17.5 -6.5 -42.5q0 -38 18 -59q18 -21 50 -21zt0 0zM426 724q-9 -27 -23 -52.5q-14 -25.5 -33.5 -45q-19.5 -19.5 -43.5 -31q-24 -11.5 -52 -11.5q-29 0 -54 11q-25 11 -45 30.5q-20 19.5 -34.5 45.5q-14.5 26 -22.5 55l37 22q20 -26 52 -43q32 -17 68 -18q75 -2 118 57z" />
<glyph unicode="&#260;" horiz-adv-x="729" d="M247 0h-247v38q16 10 34.5 17.5q18.5 7.5 36.5 11.5l258 645h74l251 -645q20 -4 40 -11.5q20 -7.5 35 -17.5l0 -38h-37q-39 -28 -60.5 -65.5q-21.5 -37.5 -21.5 -69.5q0 -26 15.5 -40q15.5 -14 38.5 -14q12 0 23 1q11 1 23 4l0 -43q-14 -11 -41.5 -19.5q-27.5 -8.5 -59.5 -8.5q-61 0 -93.5 28.5q-32.5 28.5 -32.5 69.5q0 27 10.5 49.5q10.5 22.5 29 41.5q18.5 19 44.5 35q26 16 57 31l-208 0v38q19 9 41 17q22 8 42 12l-58 159h-222l-59 -159q46 -6 87 -29zM243 291h177l-65 191l-19 86h-2l-22 -88z" />
<glyph unicode="&#261;" horiz-adv-x="557" d="M470 145q0 -22 0.5 -38q0.5 -16 2.5 -34l69 -10v-35q-11 -7 -30 -12q-43 -24 -68 -61q-25 -37 -25 -74q0 -19 12.5 -34.5q12.5 -15.5 35.5 -15.5q23 0 50 9l0 -46q-7 -4 -18.5 -7.5q-11.5 -3.5 -24 -6.5q-12.5 -3 -25 -4.5q-12.5 -1.5 -21.5 -1.5q-69 0 -101 27q-32 27 -32 65q0 41 26 71.5q26 30.5 76 54.5l-22 -2h-26q-10 23 -12 46q-2 23 -3 56l-5 0q-5 -20 -17 -38.5q-12 -18.5 -30.5 -33q-18.5 -14.5 -43.5 -23.5q-25 -9 -56 -9q-33 0 -61 10q-28 10 -49 28q-21 18 -33 43.5q-12 25.5 -12 57.5q0 45 17 74q17 29 53.5 47.5q36.5 18.5 94 27.5q57.5 9 139.5 13q8 86 -7 126q-15 40 -65 40q-31 0 -57 -10l-47 -120h-44q-8 12 -15.5 27.5q-7.5 15.5 -14 33q-6.5 17.5 -11 35.5q-4.5 18 -6.5 35q38 26 98 41q60 15 127 15q57 0 93 -12.5q36 -12.5 56.5 -34q20.5 -21.5 28.5 -50.5q8 -29 8 -62q0 -60 -2.5 -108.5q-2.5 -48.5 -2.5 -99.5zt0 0zM245 68q21 0 36 8q15 8 25.5 19q10.5 11 16 24q5.5 13 8.5 23l0 100q-47 -1 -77 -6q-30 -5 -47 -16.5q-17 -11.5 -23.5 -29q-6.5 -17.5 -6.5 -42.5q0 -38 18 -59t50 -21z" />
<glyph unicode="&#262;" horiz-adv-x="652" d="M540 210h41q4 -16 7.5 -38.5q3.5 -22.5 6 -48q2.5 -25.5 3.5 -50.5q1 -25 1 -45q-35 -22 -87.5 -31q-52.5 -9 -107.5 -9q-83 0 -150.5 20.5q-67.5 20.5 -115 65q-47.5 44.5 -73.5 113q-26 68.5 -26 164.5q0 95 28.5 163.5q28.5 68.5 76.5 112.5q48 44 111.5 64.5q63.5 20.5 133.5 20.5q66 0 119.5 -9.5q53.5 -9.5 87.5 -25.5q0 -16 -1.5 -41q-1.5 -25 -5 -52.5q-3.5 -27.5 -8 -54q-4.5 -26.5 -8.5 -44.5l-42 0l-55 151q-9 5 -29 8q-20 3 -41 3q-41 0 -77 -16.5q-36 -16.5 -64 -52.5q-28 -36 -44 -92.5q-16 -56.5 -16 -135.5q0 -143 57 -220q57 -77 155 -77q28 0 47.5 4.5q19.5 4.5 26.5 12.5zM426 898q16 1 36.5 -2q20.5 -3 40 -8.5q19.5 -5.5 35 -12.5q15.5 -7 21.5 -14l0 -20l-247 -96l-28 24z" />
<glyph unicode="&#263;" horiz-adv-x="484" d="M456 81q-7 -20 -23 -36.5q-16 -16.5 -38.5 -29.5q-22.5 -13 -51 -20q-28.5 -7 -59.5 -7q-66 0 -113.5 18.5q-47.5 18.5 -78.5 53q-31 34.5 -46 83q-15 48.5 -15 107.5q0 127 69.5 194.5q69.5 67.5 197.5 67.5q49 0 90 -10.5q41 -10.5 68 -24.5q-2 -17 -5.5 -37.5q-3.5 -20.5 -8 -41q-4.5 -20.5 -10.5 -40q-6 -19.5 -12 -32.5l-49 0l-42 119q-7 5 -15 7.5q-8 2.5 -24 2.5q-26 0 -45 -9.5q-19 -9.5 -32.5 -32.5q-13.5 -23 -20 -61q-6.5 -38 -6.5 -94q0 -41 9 -75.5q9 -34.5 27.5 -60q18.5 -25.5 46.5 -40q28 -14.5 66 -14.5q35 0 61 10q26 10 44 24zM306 763q8 2 26.5 1.5q18.5 -0.5 38.5 -3.5q20 -3 36.5 -8.5q16.5 -5.5 21.5 -11.5l0 -24l-191 -155l-40 22z" />
</font>
</defs>
</svg>
